osu file format v13

[General]
AudioFilename: izayoi.mp3
AudioLeadIn: 1000
PreviewTime: 55873
Countdown: 0
SampleSet: Soft
StackLeniency: 0.7
Mode: 0
LetterboxInBreaks: 0
WidescreenStoryboard: 0

[Editor]
DistanceSpacing: 1.5
BeatDivisor: 6
GridSize: 4
TimelineZoom: 1.4

[Metadata]
Title:Izayoi Warabeuta
TitleUnicode:十六夜童歌
Artist:Hatsuki Yura
ArtistUnicode:葉月ゆら
Creator:Crystal
Version:Insane
Source:
Tags:宵闇恋想奇譚 Yoiyami Gensou Kitan Rensou Drop Regraz
BeatmapID:575747
BeatmapSetID:250599

[Difficulty]
HPDrainRate:6
CircleSize:4
OverallDifficulty:6
ApproachRate:8.3
SliderMultiplier:2
SliderTickRate:1

[Events]
//Background and Video events
0,0,"bg.jpg",0,0
//Break Periods
2,42160,54734
//Storyboard Layer 0 (Background)
//Storyboard Layer 1 (Fail)
//Storyboard Layer 2 (Pass)
//Storyboard Layer 3 (Foreground)
//Storyboard Sound Samples

[TimingPoints]
221,434.782608695652,4,2,1,60,1,0
16742,-166.666666666667,4,2,1,60,0,0
17105,-166.666666666667,4,2,1,30,0,0
17177,-166.666666666667,4,2,1,60,0,0
17612,-100,4,2,1,60,0,0
20438,-100,4,2,3,60,0,0
21090,-100,4,2,1,60,0,0
23699,-166.666666666667,4,2,1,60,0,0
24061,-166.666666666667,4,2,1,30,0,0
24134,-166.666666666667,4,2,1,60,0,0
24568,-100,4,2,1,60,0,0
27612,-166.666666666667,4,2,1,60,0,0
28047,-100,4,2,2,60,0,0
28916,-100,4,2,1,60,0,0
31525,-100,4,2,2,60,0,0
34351,-100,4,2,3,60,0,0
35003,-100,4,2,2,60,0,0
35873,-100,4,2,1,60,0,0
41525,-83.3333333333333,4,2,1,60,0,0
41960,-100,4,2,1,60,0,0
62177,-100,4,2,3,60,0,0
62829,-100,4,2,1,60,0,0
69351,-166.666666666667,4,2,1,60,0,0
69786,-100,4,2,2,60,0,0
70655,-100,4,2,1,60,0,0
73264,-100,4,2,2,60,0,0
76090,-100,4,2,3,60,0,0
76742,-100,4,2,2,60,0,0
77612,-100,4,2,1,60,0,0
80220,-100,4,2,2,60,0,0
81525,-100,4,2,1,60,0,0
83699,-83.3333333333333,4,2,2,60,0,1
84568,-83.3333333333333,4,2,1,60,0,1
87177,-83.3333333333333,4,2,2,60,0,1
90003,-83.3333333333333,4,2,3,60,0,1
90655,-83.3333333333333,4,2,2,60,0,1
91525,-83.3333333333333,4,2,1,60,0,1
94134,-83.3333333333333,4,2,2,60,0,1
95873,-83.3333333333333,4,2,2,60,0,0
97177,-100,4,2,1,60,0,0
97612,-166.666666666667,4,2,1,60,0,0
110873,-100,4,2,1,60,0,0

[Colours]
Combo1 : 255,89,255
Combo2 : 255,164,119
Combo3 : 66,66,255

[HitObjects]
148,64,221,6,0,B|104:72|88:104|88:104|92:172,1,133.333333333333,2|0,0:0|0:0,0:0:0:0:
68,260,655,2,0,P|144:248|180:200,1,133.333333333333,2|0,0:0|0:0,0:0:0:0:
240,128,1090,1,2,0:0:0:0:
252,116,1525,2,0,P|328:100|384:128,1,133.333333333333,8|0,0:0|0:0,0:0:0:0:
424,212,1960,6,0,P|399:285|347:320,1,133.333333333333,2|0,0:0|0:0,0:0:0:0:
256,312,2394,2,0,P|204:254|200:191,1,133.333333333333,2|0,0:0|0:0,0:0:0:0:
198,201,2829,1,2,0:0:0:0:
396,64,3119,2,0,P|428:60|464:60,1,66.6666666666667,0|8,0:0|0:0,0:0:0:0:
308,208,3554,1,0,0:0:0:0:
308,208,3699,6,0,L|316:352,1,133.333333333333,2|0,0:0|0:0,0:0:0:0:
196,240,4134,2,0,L|212:104,1,133.333333333333,2|0,0:0|0:0,0:0:0:0:
292,44,4568,1,2,0:0:0:0:
460,196,4858,1,0,0:0:0:0:
460,196,5003,2,0,P|468:276|404:316,1,133.333333333333,8|0,0:0|0:0,0:0:0:0:
336,288,5438,6,0,B|280:264|248:296|248:296|240:340,1,133.333333333333,2|0,0:0|0:0,0:0:0:0:
140,320,5873,2,0,L|160:188,1,133.333333333333,2|0,0:0|0:0,0:0:0:0:
208,100,6307,1,2,0:0:0:0:
208,100,6597,1,0,0:0:0:0:
236,72,6742,2,0,L|376:88,1,133.333333333333,8|0,0:0|0:0,0:0:0:0:
460,44,7177,6,0,P|460:128|416:176,1,133.333333333333,2|0,0:0|0:0,0:0:0:0:
348,220,7612,2,0,B|319:240|288:252|288:252|320:264|352:284,1,133.333333333333,2|0,0:0|0:0,0:0:0:0:
260,332,8047,2,0,P|212:288|260:176,1,200,2|8,0:0|0:0,0:0:0:0:
444,60,8771,1,0,0:0:0:0:
420,76,8916,6,0,L|272:80,1,133.333333333333,2|0,0:0|0:0,0:0:0:0:
264,96,9351,1,2,0:0:0:0:
108,228,9641,1,0,0:0:0:0:
100,264,9786,1,2,0:0:0:0:
280,184,10076,1,0,0:0:0:0:
272,220,10220,2,0,B|260:292|260:292|300:348|340:332,1,133.333333333333,8|0,0:0|0:0,0:0:0:0:
404,340,10655,6,0,P|472:312|392:268,2,200,2|2|2,0:0|0:0|0:0,0:0:0:0:
204,320,11815,1,0,0:0:0:0:
168,336,11960,2,0,P|84:328|56:280,1,133.333333333333,8|0,0:0|0:0,0:0:0:0:
32,208,12394,5,2,0:0:0:0:
260,128,12684,1,0,0:0:0:0:
292,152,12829,2,0,L|316:288,1,133.333333333333,2|0,0:0|0:0,0:0:0:0:
388,352,13264,1,8,0:0:0:0:
456,204,13554,2,0,L|452:237,2,33.3333333333333,0|0|8,0:0|0:0|0:0,0:0:0:0:
456,204,14134,6,0,P|384:232|332:208,1,133.333333333333,4|0,0:0|0:0,0:0:0:0:
260,148,14568,2,0,P|198:127|139:155,1,133.333333333333,2|0,0:0|0:0,0:0:0:0:
76,232,15003,1,2,0:0:0:0:
60,252,15438,2,0,B|40:296|68:340|68:340|40:344|16:320,1,133.333333333333,8|0,0:0|0:0,0:0:0:0:
136,288,15873,2,0,P|216:280|256:320,1,133.333333333333,2|0,0:0|0:0,0:0:0:0:
352,308,16307,2,0,P|404:345|468:332,1,133.333333333333,2|0,0:0|0:0,0:0:0:0:
352,308,16742,6,0,L|360:216,1,79.9999975585938,2|0,0:0|0:0,0:0:0:0:
316,152,17177,1,8,0:0:0:0:
132,56,17467,1,0,0:0:0:0:
132,56,17612,6,0,B|72:72|60:116|60:116|68:224,1,200,2|2,0:0|0:0,0:0:0:0:
216,280,18336,1,0,0:0:0:0:
280,332,18481,2,0,P|364:344|408:236,1,200,2|8,0:0|0:0,0:0:0:0:
328,56,19206,2,0,L|361:52,1,33.3333333333333
292,92,19351,6,0,B|248:128|200:104|200:104|184:144,1,133.333333333333,2|0,0:0|0:0,0:0:0:0:
128,200,19786,2,0,B|92:168|100:120|100:120|120:60,1,133.333333333333,2|0,0:0|0:0,0:0:0:0:
36,12,20220,1,2,0:0:0:0:
188,136,20510,5,8,0:0:0:0:
188,136,20583,1,8,0:0:0:0:
188,136,20655,2,0,P|216:196|188:264,1,133.333333333333,8|8,0:0|0:0,0:0:0:0:
280,324,21090,6,0,P|356:344|404:304,1,133.333333333333,4|0,0:0|0:0,0:0:0:0:
448,228,21525,2,0,B|440:184|452:128|452:128|412:168,1,133.333333333333,2|0,0:0|0:0,0:0:0:0:
352,228,21960,1,2,0:0:0:0:
100,312,22249,2,0,L|52:308,2,33.3333333333333,0|0|8,0:0|0:0|0:0,0:0:0:0:
204,124,22684,2,0,L|252:120,1,33.3333333333333,0|0,0:0|0:0,0:0:0:0:
268,96,22829,6,0,L|412:108,1,133.333333333333,2|0,0:0|0:0,0:0:0:0:
480,208,23264,2,0,P|488:296|440:328,1,133.333333333333,2|0,0:0|0:0,0:0:0:0:
304,344,23699,6,0,L|312:252,1,79.9999975585938,2|0,0:0|0:0,0:0:0:0:
260,192,24134,1,8,0:0:0:0:
128,284,24423,1,0,0:0:0:0:
128,284,24568,6,0,P|56:280|104:196,1,200,2|2,0:0|0:0,0:0:0:0:
304,64,25293,1,0,0:0:0:0:
348,132,25438,2,0,L|332:268,1,133.333333333333,2|0,0:0|0:0,0:0:0:0:
248,312,25873,2,0,P|326:363|379:349,1,133.333333333333,8|0,0:0|0:0,0:0:0:0:
448,352,26235,1,0,0:0:0:0:
448,352,26307,6,0,L|440:208,1,133.333333333333,2|0,0:0|0:0,0:0:0:0:
276,84,26742,2,0,P|196:68|140:100,1,133.333333333333,2|0,0:0|0:0,0:0:0:0:
316,224,27177,2,0,P|396:240|452:208,1,133.333333333333,2|0,0:0|0:0,0:0:0:0:
228,184,27612,6,0,P|220:240|232:272,1,79.9999975585938,8|0,0:0|0:0,0:0:0:0:
376,156,28047,6,0,P|388:100|360:24,1,133.333333333333,4|0,0:0|0:0,0:0:0:0:
364,29,28481,1,8,0:0:0:0:
180,136,28916,5,2,0:0:0:0:
116,76,29061,1,0,0:0:0:0:
64,148,29206,1,0,0:0:0:0:
128,208,29351,2,0,L|132:248,5,33.3333333333333,2|0|0|0|0|0,0:0|0:0|0:0|0:0|0:0|0:0,0:0:0:0:
100,320,29786,6,0,P|164:324|212:264,1,133.333333333333,2|0,0:0|0:0,0:0:0:0:
300,236,30220,2,0,L|288:96,1,133.333333333333,2|0,0:0|0:0,0:0:0:0:
208,44,30655,1,2,0:0:0:0:
184,28,31090,6,0,P|156:88|168:172,1,133.333333333333,8|0,0:0|0:0,0:0:0:0:
328,356,31525,2,0,P|356:296|344:212,1,133.333333333333,8|0,0:0|0:0,0:0:0:0:
92,264,31960,2,0,P|152:292|236:280,1,133.333333333333,8|0,0:0|0:0,0:0:0:0:
420,120,32394,2,0,P|360:92|276:104,1,133.333333333333,8|0,0:0|0:0,0:0:0:0:
114,84,32829,6,0,P|174:88|184:28,1,133.333333333333,0|0,0:0|0:0,0:0:0:0:
20,87,33264,2,0,L|36:220,1,133.333333333333,8|0,0:0|0:0,0:0:0:0:
139,317,33699,2,0,B|164:256|164:256|172:224|152:192,1,133.333333333333,8|0,0:0|0:0,0:0:0:0:
52,368,34134,1,8,0:0:0:0:
372,240,34423,5,8,0:0:0:0:
372,240,34496,1,8,0:0:0:0:
372,240,34568,2,0,B|276:228|276:228|240:256,1,133.333333333333,8|8,0:0|0:0,0:0:0:0:
316,340,35003,6,0,P|384:352|456:320,1,133.333333333333,4|0,0:0|0:0,0:0:0:0:
488,240,35438,1,8,0:0:0:0:
372,20,35873,2,0,L|388:92,2,66.6666666666667,2|0|2,0:0|0:0|0:0,0:0:0:0:
288,52,36307,2,0,L|300:100,5,33.3333333333333,2|0|0|0|0|0,0:0|0:0|0:0|0:0|0:0|0:0,0:0:0:0:
200,28,36742,6,0,B|196:64|196:64|228:160,1,133.333333333333,2|0,0:0|0:0,0:0:0:0:
116,272,37177,2,0,L|128:136,1,133.333333333333,2|0,0:0|0:0,0:0:0:0:
72,68,37612,1,2,0:0:0:0:
212,336,38047,5,8,0:0:0:0:
456,284,38336,1,0,0:0:0:0:
456,284,38481,2,0,B|472:224|472:224|468:192|424:152,1,133.333333333333,2|0,0:0|0:0,0:0:0:0:
340,196,38916,2,0,P|272:212|204:184,1,133.333333333333,2|0,0:0|0:0,0:0:0:0:
64,152,39351,2,0,P|60:72|104:20,1,133.333333333333,2|0,0:0|0:0,0:0:0:0:
164,136,39786,2,0,P|168:216|124:268,1,133.333333333333,0|0,0:0|0:0,0:0:0:0:
48,300,40220,1,0,0:0:0:0:
248,328,40510,1,0,0:0:0:0:
248,328,40655,6,0,B|308:340|340:312|340:312|392:320,1,133.333333333333,2|0,0:0|0:0,0:0:0:0:
468,336,41090,1,2,0:0:0:0:
136,156,41525,6,0,B|116:112|148:64|148:64|104:64|68:92,1,159.999995117188
216,120,41960,1,4,0:0:0:0:
176,76,55438,5,8,0:0:0:0:
176,76,55873,6,0,P|96:68|44:100,1,133.333333333333,4|0,0:0|0:0,0:0:0:0:
164,188,56307,2,0,P|244:196|296:164,1,133.333333333333,2|0,0:0|0:0,0:0:0:0:
396,76,56742,2,0,B|436:84|452:120|452:120|436:208,1,133.333333333333,2|0,0:0|0:0,0:0:0:0:
464,280,57177,1,8,0:0:0:0:
464,280,57467,1,0,0:0:0:0:
464,280,57612,6,0,L|320:288,1,133.333333333333,2|0,0:0|0:0,0:0:0:0:
236,336,58047,1,2,0:0:0:0:
60,128,58336,1,0,0:0:0:0:
64,216,58481,2,0,B|72:284|72:284|96:312|136:308,1,133.333333333333,2|0,0:0|0:0,0:0:0:0:
200,236,58916,1,8,0:0:0:0:
212,220,59351,6,0,P|228:148|200:100,1,133.333333333333,2|0,0:0|0:0,0:0:0:0:
128,56,59786,2,0,L|268:44,1,133.333333333333,2|0,0:0|0:0,0:0:0:0:
360,92,60220,1,2,0:0:0:0:
376,112,60655,2,0,L|364:260,1,133.333333333333,8|0,0:0|0:0,0:0:0:0:
392,320,61018,1,0,0:0:0:0:
392,320,61090,6,0,P|300:332|252:312,1,133.333333333333,2|0,0:0|0:0,0:0:0:0:
200,240,61525,2,0,P|135:223|71:238,1,133.333333333333,2|0,0:0|0:0,0:0:0:0:
32,332,61960,1,2,0:0:0:0:
264,320,62249,5,8,0:0:0:0:
264,320,62322,1,8,0:0:0:0:
264,320,62394,1,8,0:0:0:0:
148,120,62684,1,8,0:0:0:0:
80,160,62829,6,0,L|232:172,1,133.333333333333,4|0,0:0|0:0,0:0:0:0:
344,112,63264,2,0,P|328:76|320:128,1,133.333333333333,2|0,0:0|0:0,0:0:0:0:
420,184,63699,1,2,0:0:0:0:
420,184,63989,1,0,0:0:0:0:
472,268,64134,2,0,L|332:288,1,133.333333333333,8|0,0:0|0:0,0:0:0:0:
240,268,64568,1,2,0:0:0:0:
256,76,64858,5,0,0:0:0:0:
164,120,65003,2,0,B|124:148|88:120|88:120|68:64,1,133.333333333333,2|0,0:0|0:0,0:0:0:0:
88,220,65438,2,0,P|100:300|48:344,1,133.333333333333,2|0,0:0|0:0,0:0:0:0:
68,335,65873,1,8,0:0:0:0:
368,248,66307,5,2,0:0:0:0:
368,248,66742,2,0,P|440:207|456:154,1,133.333333333333,2|0,0:0|0:0,0:0:0:0:
364,64,67177,2,0,B|340:116|368:160|368:160|344:148|304:152,1,133.333333333333,2|0,0:0|0:0,0:0:0:0:
248,172,67612,1,8,0:0:0:0:
92,240,67902,1,0,0:0:0:0:
92,240,67974,1,0,0:0:0:0:
92,240,68047,6,0,P|180:264|232:244,1,133.333333333333,2|0,0:0|0:0,0:0:0:0:
328,72,68481,2,0,P|240:48|188:68,1,133.333333333333,2|0,0:0|0:0,0:0:0:0:
344,216,68916,2,0,B|368:260|368:260|344:360,1,133.333333333333,2|0,0:0|0:0,0:0:0:0:
260,220,69351,6,0,P|284:152|312:136,1,79.9999975585938,8|0,0:0|0:0,0:0:0:0:
460,82,69786,6,0,L|328:72,1,133.333333333333,4|0,0:0|0:0,0:0:0:0:
326,71,70220,1,8,0:0:0:0:
60,168,70655,5,2,0:0:0:0:
40,256,70800,1,0,0:0:0:0:
92,332,70945,1,0,0:0:0:0:
144,252,71090,2,0,L|140:216,5,33.3333333333333,2|0|0|0|0|0,0:0|0:0|0:0|0:0|0:0|0:0,0:0:0:0:
160,136,71525,6,0,P|232:108|288:132,1,133.333333333333,2|0,0:0|0:0,0:0:0:0:
340,208,71960,2,0,L|324:348,1,133.333333333333,2|0,0:0|0:0,0:0:0:0:
324,340,72394,1,2,0:0:0:0:
164,192,72829,6,0,P|80:216|24:180,1,133.333333333333,8|0,0:0|0:0,0:0:0:0:
216,120,73264,2,0,P|252:200|224:260,1,133.333333333333,8|0,0:0|0:0,0:0:0:0:
180,324,73699,1,8,0:0:0:0:
464,312,73989,1,0,0:0:0:0:
452,212,74134,2,0,B|444:140|444:140|460:104|496:104,1,133.333333333333,8|0,0:0|0:0,0:0:0:0:
364,52,74568,6,0,P|304:96|240:84,1,133.333333333333,0|0,0:0|0:0,0:0:0:0:
104,172,75003,2,0,B|84:92|84:92|112:28,1,133.333333333333,8|0,0:0|0:0,0:0:0:0:
204,184,75438,2,0,B|224:230|224:230|204:310,1,133.333333333333,8|0,0:0|0:0,0:0:0:0:
112,356,75873,1,8,0:0:0:0:
328,328,76163,5,8,0:0:0:0:
328,328,76235,1,8,0:0:0:0:
328,328,76307,2,0,P|264:340|192:304,1,133.333333333333,8|8,0:0|0:0,0:0:0:0:
180,168,76742,6,0,P|184:80|224:48,1,133.333333333333,4|0,0:0|0:0,0:0:0:0:
316,52,77177,2,0,P|356:102|349:167,1,133.333333333333,8|0,0:0|0:0,0:0:0:0:
264,196,77612,2,0,L|264:130,2,66.6666666666667,2|0|0,0:0|0:0|0:0,0:0:0:0:
324,264,78047,2,0,L|312:324,5,33.3333333333333,2|0|0|0|0|0,0:0|0:0|0:0|0:0|0:0|0:0,0:0:0:0:
256,344,78481,6,0,B|356:328|356:328|404:356,1,133.333333333333,2|0,0:0|0:0,0:0:0:0:
480,364,78916,2,0,L|468:224,1,133.333333333333,2|0,0:0|0:0,0:0:0:0:
460,132,79351,1,2,0:0:0:0:
264,196,79786,5,8,0:0:0:0:
60,96,80076,1,0,0:0:0:0:
60,96,80220,2,0,L|71:228,1,133.333333333333,8|0,0:0|0:0,0:0:0:0:
124,316,80655,2,0,B|176:276|172:224|172:224|168:172,1,133.333333333333,8|0,0:0|0:0,0:0:0:0:
208,104,81090,2,0,P|264:72|328:100,1,133.333333333333,8|0,0:0|0:0,0:0:0:0:
428,184,81525,2,0,L|420:224,5,33.3333333333333,2|0|0|0|0|0,0:0|0:0|0:0|0:0|0:0|0:0,0:0:0:0:
404,292,81960,6,0,L|260:304,1,133.333333333333,2|0,0:0|0:0,0:0:0:0:
208,104,82394,2,0,L|340:92,1,133.333333333333,2|0,0:0|0:0,0:0:0:0:
472,112,82829,1,2,0:0:0:0:
68,244,83264,1,8,0:0:0:0:
328,72,83699,6,0,B|376:84|388:124|388:124|364:208,1,159.999995117188,4|0,0:0|0:0,0:0:0:0:
292,284,84134,2,0,P|216:308|148:264,1,159.999995117188,8|0,0:0|0:0,0:0:0:0:
220,144,84568,2,0,L|226:228,2,79.9999975585938,2|0|0,0:0|0:0|0:0,0:0:0:0:
148,100,85003,2,0,L|160:48,5,39.9999987792969,2|0|0|0|0|0,0:0|0:0|0:0|0:0|0:0|0:0,0:0:0:0:
232,32,85438,6,0,L|392:28,1,159.999995117188,2|0,0:0|0:0,0:0:0:0:
468,112,85873,1,2,0:0:0:0:
188,316,86163,2,0,P|148:320|104:300,1,79.9999975585938,0|2,0:0|0:0,0:0:0:0:
448,220,86742,2,0,P|428:314|364:342,1,159.999995117188,8|0,0:0|0:0,0:0:0:0:
356,248,87177,6,0,L|368:76,1,159.999995117188,8|0,0:0|0:0,0:0:0:0:
256,36,87612,2,0,L|256:196,1,159.999995117188,8|0,0:0|0:0,0:0:0:0:
156,248,88047,2,0,L|144:76,1,159.999995117188,8|0,0:0|0:0,0:0:0:0:
144,88,88481,5,0,0:0:0:0:
408,132,88771,1,0,0:0:0:0:
408,132,88916,1,8,0:0:0:0:
228,324,89206,1,0,0:0:0:0:
228,324,89351,2,0,P|160:344|80:312,1,159.999995117188,8|0,0:0|0:0,0:0:0:0:
40,224,89786,1,8,0:0:0:0:
240,172,90076,5,8,0:0:0:0:
240,172,90148,1,8,0:0:0:0:
240,172,90220,2,0,L|412:164,1,159.999995117188,8|8,0:0|0:0,0:0:0:0:
164,88,90655,6,0,L|336:80,1,159.999995117188,4|0,0:0|0:0,0:0:0:0:
400,164,91090,2,0,P|400:256|328:276,1,159.999995117188,8|0,0:0|0:0,0:0:0:0:
228,324,91525,2,0,P|198:321|144:300,2,79.9999975585938,2|0|0,0:0|0:0|0:0,0:0:0:0:
220,240,91960,2,0,P|191:232|162:220,5,39.9999987792969,2|0|0|0|0|0,0:0|0:0|0:0|0:0|0:0|0:0,0:0:0:0:
144,160,92394,6,0,L|124:320,1,159.999995117188,2|0,0:0|0:0,0:0:0:0:
52,172,92829,2,0,P|88:84|152:68,1,159.999995117188,2|0,0:0|0:0,0:0:0:0:
320,104,93264,2,0,P|248:116|296:56,1,159.999995117188,2|0,0:0|0:0,0:0:0:0:
416,80,93699,6,0,P|416:136|348:216,1,159.999995117188,8|0,0:0|0:0,0:0:0:0:
148,320,94134,2,0,L|144:148,1,159.999995117188,8|0,0:0|0:0,0:0:0:0:
176,52,94568,1,8,0:0:0:0:
408,284,94858,5,0,0:0:0:0:
408,284,95003,2,0,P|336:308|264:260,1,159.999995117188,8|0,0:0|0:0,0:0:0:0:
252,156,95438,2,0,L|256:112,5,39.9999987792969,8|0|0|0|0|0,0:0|0:0|0:0|0:0|0:0|0:0,0:0:0:0:
176,52,95873,6,0,L|160:224,1,159.999995117188,8|0,0:0|0:0,0:0:0:0:
380,304,96307,2,0,L|364:136,1,159.999995117188,8|0,0:0|0:0,0:0:0:0:
448,44,96742,1,8,0:0:0:0:
76,116,97177,6,0,P|60:172|92:236,1,133.333333333333
152,164,97612,6,0,P|204:148|268:172,1,119.999996337891,2|2,0:0|0:0,0:0:0:0:
416,244,98481,2,0,L|408:280,11,19.9999993896485,2|0|0|0|0|0|0|0|0|0|0|0,0:0|0:0|0:0|0:0|0:0|0:0|0:0|0:0|0:0|0:0|0:0|0:0,0:0:0:0:
404,292,99351,6,0,P|352:312|312:304,1,79.9999975585938,2|0,0:0|0:0,0:0:0:0:
300,304,99786,2,0,P|256:268|243:230,1,79.9999975585938,2|0,0:0|0:0,0:0:0:0:
244,220,100220,2,0,P|252:164|279:134,1,79.9999975585938,2|0,0:0|0:0,0:0:0:0:
288,128,100655,1,8,0:0:0:0:
460,212,101090,6,0,L|452:336,1,119.999996337891,2|2,0:0|0:0,0:0:0:0:
368,184,101960,2,0,L|372:152,11,19.9999993896485,2|0|0|0|0|0|0|0|0|0|0|0,0:0|0:0|0:0|0:0|0:0|0:0|0:0|0:0|0:0|0:0|0:0|0:0,0:0:0:0:
372,136,102829,6,0,L|288:144,1,79.9999975585938,2|0,0:0|0:0,0:0:0:0:
268,156,103264,2,0,L|180:152,1,79.9999975585938,2|0,0:0|0:0,0:0:0:0:
164,140,103699,1,8,0:0:0:0:
256,296,103989,2,0,L|288:292,2,19.9999993896485,0|0|0,0:0|0:0|0:0,0:0:0:0:
112,336,104423,1,0,0:0:0:0:
60,272,104568,6,0,P|52:208|60:148,1,119.999996337891,2|2,0:0|0:0,0:0:0:0:
228,60,105438,2,0,L|232:88,11,19.9999993896485,2|0|0|0|0|0|0|0|0|0|0|0,0:0|0:0|0:0|0:0|0:0|0:0|0:0|0:0|0:0|0:0|0:0|0:0,0:0:0:0:
232,116,106307,6,0,L|228:208,1,79.9999975585938,2|0,0:0|0:0,0:0:0:0:
208,216,106742,2,0,L|216:308,1,79.9999975585938,2|0,0:0|0:0,0:0:0:0:
236,316,107177,2,0,P|288:332|320:320,1,79.9999975585938,2|0,0:0|0:0,0:0:0:0:
332,304,107612,1,8,0:0:0:0:
92,196,108047,6,0,L|84:324,1,119.999996337891,2|2,0:0|0:0,0:0:0:0:
200,192,108916,2,0,L|196:160,11,19.9999993896485,2|0|0|0|0|0|0|0|0|0|0|0,0:0|0:0|0:0|0:0|0:0|0:0|0:0|0:0|0:0|0:0|0:0|0:0,0:0:0:0:
188,148,109786,6,0,P|244:156|276:140,1,79.9999975585938,2|0,0:0|0:0,0:0:0:0:
332,96,110220,2,0,P|370:85|408:95,1,79.9999975585938,2|0,0:0|0:0,0:0:0:0:
464,164,110655,1,8,0:0:0:0:
256,280,110945,6,0,L|212:272,2,33.3333333333333,8|8|8,0:0|0:0|0:0,0:0:0:0:
