osu file format v14

[General]
AudioFilename: izayoi.mp3
AudioLeadIn: 0
PreviewTime: 55873
Countdown: 0
SampleSet: Normal
StackLeniency: 0.7
Mode: 1
LetterboxInBreaks: 0
WidescreenStoryboard: 0

[Editor]
Bookmarks: 55873
DistanceSpacing: 1
BeatDivisor: 3
GridSize: 32
TimelineZoom: 1.2

[Metadata]
Title:Izayoi Warabeuta
TitleUnicode:十六夜童歌
Artist:Hatsuki Yura
ArtistUnicode:葉月ゆら
Creator:-[ Dumpling ]-
Version:Muzukashii
Source:
Tags:宵闇恋想奇譚 Yoiyami Rensou Kitan Julie aabc271 gensou
BeatmapID:672995
BeatmapSetID:300038

[Difficulty]
HPDrainRate:5
CircleSize:5
OverallDifficulty:5
ApproachRate:5
SliderMultiplier:1.4
SliderTickRate:1

[Events]
//Background and Video events
0,0,"bg.jpg",0,100
//Break Periods
//Storyboard Layer 0 (Background)
//Storyboard Layer 1 (Fail)
//Storyboard Layer 2 (Pass)
//Storyboard Layer 3 (Foreground)
//Storyboard Sound Samples

[TimingPoints]
221,434.782608695652,4,1,0,80,1,0
221,-100,4,1,0,80,0,0
28047,-100,4,1,0,90,0,1
41960,-100,4,1,0,80,0,0
69786,-100,4,1,0,90,0,1
97612,-100,4,1,0,80,0,0

[HitObjects]
256,192,221,5,8,1:1:0:0:
256,192,655,1,0,1:1:0:0:
256,192,1090,1,8,1:1:0:0:
256,192,1960,1,8,1:1:0:0:
256,192,2249,1,8,1:1:0:0:
256,192,2684,1,0,1:1:0:0:
256,192,2829,1,8,1:1:0:0:
256,192,3699,1,8,1:1:0:0:
256,192,4134,1,0,1:1:0:0:
256,192,4568,1,8,1:1:0:0:
256,192,5438,1,8,1:1:0:0:
256,192,5728,1,0,1:1:0:0:
256,192,6163,1,8,1:1:0:0:
256,192,6307,1,8,1:1:0:0:
256,192,7177,1,8,1:1:0:0:
256,192,7612,1,0,1:1:0:0:
256,192,8047,1,8,1:1:0:0:
256,192,8916,1,8,1:1:0:0:
256,192,9206,1,8,1:1:0:0:
256,192,9641,1,0,1:1:0:0:
256,192,9786,1,8,1:1:0:0:
256,192,10655,1,0,1:1:0:0:
256,192,11090,1,0,1:1:0:0:
256,192,11525,1,0,1:1:0:0:
256,192,11960,1,8,1:1:0:0:
256,192,12394,1,0,1:1:0:0:
256,192,13264,1,8,1:1:0:0:
256,192,14134,1,4,1:1:0:0:
256,192,14568,1,8,1:1:0:0:
256,192,14858,1,0,1:1:0:0:
256,192,15003,1,8,1:1:0:0:
256,192,15438,1,8,1:1:0:0:
256,192,15873,1,0,1:1:0:0:
256,192,16307,1,0,1:1:0:0:
256,192,16597,1,8,1:1:0:0:
256,192,16742,1,8,1:1:0:0:
256,192,17612,1,0,1:1:0:0:
256,192,18047,1,0,1:1:0:0:
256,192,18336,1,8,1:1:0:0:
256,192,18481,1,0,1:1:0:0:
256,192,18916,1,0,1:1:0:0:
256,192,19351,1,0,1:1:0:0:
256,192,19786,1,8,1:1:0:0:
256,192,20220,1,8,1:1:0:0:
256,192,21090,1,4,1:1:0:0:
256,192,21525,1,0,1:1:0:0:
256,192,21815,1,0,1:1:0:0:
256,192,21960,1,8,1:1:0:0:
256,192,22394,1,8,1:1:0:0:
256,192,22829,1,0,1:1:0:0:
256,192,23264,1,0,1:1:0:0:
256,192,23554,1,8,1:1:0:0:
256,192,23699,1,0,1:1:0:0:
256,192,24568,1,8,1:1:0:0:
256,192,25003,1,0,1:1:0:0:
256,192,25293,1,8,1:1:0:0:
256,192,25438,1,0,1:1:0:0:
256,192,25873,1,8,1:1:0:0:
256,192,26307,1,0,1:1:0:0:
256,192,26597,1,8,1:1:0:0:
256,192,26742,1,0,1:1:0:0:
256,192,27177,1,8,1:1:0:0:
256,192,28047,1,4,1:1:0:0:
256,192,28481,1,8,1:1:0:0:
256,192,28916,1,0,1:1:0:0:
256,192,29351,1,8,1:1:0:0:
256,192,29786,1,0,1:1:0:0:
256,192,30076,1,8,1:1:0:0:
256,192,30220,1,0,1:1:0:0:
256,192,30655,1,0,1:1:0:0:
256,192,31525,1,8,1:1:0:0:
256,192,31960,1,0,1:1:0:0:
256,192,32394,1,8,1:1:0:0:
256,192,32829,1,0,1:1:0:0:
256,192,33264,1,0,1:1:0:0:
256,192,33554,1,8,1:1:0:0:
256,192,33699,1,0,1:1:0:0:
256,192,34134,1,0,1:1:0:0:
256,192,35003,1,12,1:1:0:0:
256,192,35437,1,0,1:1:0:0:
256,192,35872,1,8,1:1:0:0:
256,192,36307,1,8,1:1:0:0:
256,192,36742,1,0,1:1:0:0:
256,192,37032,1,8,1:1:0:0:
256,192,37176,1,0,1:1:0:0:
256,192,37611,1,0,1:1:0:0:
256,192,38481,1,0,1:1:0:0:
256,192,38916,1,0,1:1:0:0:
256,192,39350,1,8,1:1:0:0:
256,192,39786,1,0,1:1:0:0:
256,192,40220,1,8,1:1:0:0:
256,192,40510,1,8,1:1:0:0:
256,192,40655,1,0,1:1:0:0:
256,192,40945,1,0,1:1:0:0:
256,192,41090,1,8,1:1:0:0:
256,192,41960,1,4,1:1:0:0:
256,192,42394,1,0,1:1:0:0:
256,192,42829,1,0,1:1:0:0:
256,192,43264,1,8,1:1:0:0:
256,192,43699,1,8,1:1:0:0:
256,192,44134,1,0,1:1:0:0:
256,192,44568,1,8,1:1:0:0:
256,192,45438,1,0,1:1:0:0:
256,192,45873,1,0,1:1:0:0:
256,192,46307,1,0,1:1:0:0:
256,192,46742,1,0,1:1:0:0:
256,192,47177,1,8,1:1:0:0:
256,192,47612,1,0,1:1:0:0:
256,192,48047,1,8,1:1:0:0:
256,192,48916,1,4,1:1:0:0:
256,192,49350,1,0,1:1:0:0:
256,192,49785,1,0,1:1:0:0:
256,192,50220,1,8,1:1:0:0:
256,192,50655,1,8,1:1:0:0:
256,192,51090,1,0,1:1:0:0:
256,192,51524,1,8,1:1:0:0:
256,192,52394,1,0,1:1:0:0:
256,192,52829,1,0,1:1:0:0:
256,192,53263,1,0,1:1:0:0:
256,192,54133,1,8,1:1:0:0:
256,192,54423,1,0,1:1:0:0:
256,192,54858,1,8,1:1:0:0:
256,192,55003,1,8,1:1:0:0:
256,192,55873,1,4,1:1:0:0:
256,192,56307,1,8,1:1:0:0:
256,192,56597,1,0,1:1:0:0:
256,192,56742,1,8,1:1:0:0:
256,192,57177,1,8,1:1:0:0:
256,192,57612,1,8,1:1:0:0:
256,192,58046,1,0,1:1:0:0:
256,192,58336,1,8,1:1:0:0:
256,192,58481,1,8,1:1:0:0:
256,192,59351,1,0,1:1:0:0:
256,192,59786,1,0,1:1:0:0:
256,192,60075,1,8,1:1:0:0:
256,192,60220,1,0,1:1:0:0:
256,192,60655,1,0,1:1:0:0:
256,192,61090,1,0,1:1:0:0:
256,192,61525,1,8,1:1:0:0:
256,192,61959,1,8,1:1:0:0:
256,192,62829,1,4,1:1:0:0:
256,192,63264,1,0,1:1:0:0:
256,192,63699,1,8,1:1:0:0:
256,192,64133,1,0,1:1:0:0:
256,192,64423,1,8,1:1:0:0:
256,192,64568,1,8,1:1:0:0:
256,192,65003,1,0,1:1:0:0:
256,192,65293,1,8,1:1:0:0:
256,192,65438,1,8,1:1:0:0:
256,192,66307,1,8,1:1:0:0:
256,192,66742,1,8,1:1:0:0:
256,192,67032,1,8,1:1:0:0:
256,192,67177,1,0,1:1:0:0:
256,192,67612,1,0,1:1:0:0:
256,192,68046,1,0,1:1:0:0:
256,192,68336,1,8,1:1:0:0:
256,192,68481,1,0,1:1:0:0:
256,192,68916,1,8,1:1:0:0:
256,192,69786,1,12,1:1:0:0:
256,192,70220,1,8,1:1:0:0:
256,192,70655,1,0,1:1:0:0:
256,192,71090,1,8,1:1:0:0:
256,192,71525,1,0,1:1:0:0:
256,192,71815,1,8,1:1:0:0:
256,192,71959,1,0,1:1:0:0:
256,192,72394,1,8,1:1:0:0:
256,192,73264,1,0,1:1:0:0:
256,192,73699,1,0,1:1:0:0:
256,192,74133,1,8,1:1:0:0:
256,192,74568,1,0,1:1:0:0:
256,192,75003,1,0,1:1:0:0:
256,192,75293,1,8,1:1:0:0:
256,192,75438,1,0,1:1:0:0:
256,192,75873,1,0,1:1:0:0:
256,192,76742,1,12,1:1:0:0:
256,192,77176,1,0,1:1:0:0:
256,192,77611,1,8,1:1:0:0:
256,192,78047,1,8,1:1:0:0:
256,192,78481,1,0,1:1:0:0:
256,192,78771,1,8,1:1:0:0:
256,192,78915,1,0,1:1:0:0:
256,192,79350,1,8,1:1:0:0:
256,192,80220,1,8,1:1:0:0:
256,192,80655,1,8,1:1:0:0:
256,192,81089,1,8,1:1:0:0:
256,192,81525,1,0,1:1:0:0:
256,192,81959,1,8,1:1:0:0:
256,192,82249,1,8,1:1:0:0:
256,192,82394,1,0,1:1:0:0:
256,192,82684,1,0,1:1:0:0:
256,192,82829,1,0,1:1:0:0:
256,192,83699,1,12,1:1:0:0:
256,192,84133,1,8,1:1:0:0:
256,192,84568,1,8,1:1:0:0:
256,192,85003,1,0,1:1:0:0:
256,192,85438,1,0,1:1:0:0:
256,192,85728,1,8,1:1:0:0:
256,192,85872,1,0,1:1:0:0:
256,192,86307,1,8,1:1:0:0:
256,192,86742,1,0,1:1:0:0:
256,192,87032,1,0,1:1:0:0:
256,192,87177,1,8,1:1:0:0:
256,192,87612,1,8,1:1:0:0:
256,192,88046,1,8,1:1:0:0:
256,192,88481,1,0,1:1:0:0:
256,192,88916,1,0,1:1:0:0:
256,192,89206,1,8,1:1:0:0:
256,192,89351,1,0,1:1:0:0:
256,192,89786,1,0,1:1:0:0:
256,192,90655,1,12,1:1:0:0:
256,192,91089,1,8,1:1:0:0:
256,192,91524,1,8,1:1:0:0:
256,192,91960,1,0,1:1:0:0:
256,192,92394,1,0,1:1:0:0:
256,192,92684,1,8,1:1:0:0:
256,192,92828,1,0,1:1:0:0:
256,192,93263,1,8,1:1:0:0:
256,192,93699,1,0,1:1:0:0:
256,192,93989,1,0,1:1:0:0:
256,192,94133,1,8,1:1:0:0:
256,192,94568,1,8,1:1:0:0:
256,192,95002,1,8,1:1:0:0:
256,192,95438,1,0,1:1:0:0:
256,192,95872,1,8,1:1:0:0:
256,192,96162,1,8,1:1:0:0:
256,192,96307,1,0,1:1:0:0:
256,192,96597,1,0,1:1:0:0:
256,192,96742,1,8,1:1:0:0:
256,192,97612,1,8,1:1:0:0:
256,192,98047,1,8,1:1:0:0:
256,192,98481,1,8,1:1:0:0:
256,192,98916,1,0,1:1:0:0:
256,192,99351,1,0,1:1:0:0:
256,192,99641,1,8,1:1:0:0:
256,192,99786,1,0,1:1:0:0:
256,192,100220,1,0,1:1:0:0:
256,192,101090,1,8,1:1:0:0:
256,192,101525,1,0,1:1:0:0:
256,192,101960,1,8,1:1:0:0:
256,192,102394,1,8,1:1:0:0:
256,192,102829,1,0,1:1:0:0:
256,192,103119,1,8,1:1:0:0:
256,192,103264,1,0,1:1:0:0:
256,192,103699,1,0,1:1:0:0:
256,192,104568,1,8,1:1:0:0:
256,192,105003,1,8,1:1:0:0:
256,192,105438,1,8,1:1:0:0:
256,192,105873,1,0,1:1:0:0:
256,192,106307,1,0,1:1:0:0:
256,192,106597,1,8,1:1:0:0:
256,192,106742,1,0,1:1:0:0:
256,192,107177,1,0,1:1:0:0:
256,192,108047,1,8,1:1:0:0:
256,192,108481,1,0,1:1:0:0:
256,192,108916,1,8,1:1:0:0:
256,192,109351,1,8,1:1:0:0:
256,192,109786,1,0,1:1:0:0:
256,192,110076,1,0,1:1:0:0:
256,192,110510,1,0,1:1:0:0:
256,192,110655,1,0,1:1:0:0:
256,192,111090,1,8,1:1:0:0:
