osu file format v12

[General]
AudioFilename: 7..mp3
AudioLeadIn: 0
PreviewTime: 68182
Countdown: 1
SampleSet: Soft
StackLeniency: 0.7
Mode: 0
LetterboxInBreaks: 1
WidescreenStoryboard: 0

[Editor]
DistanceSpacing: 1.2
BeatDivisor: 4
GridSize: 8
TimelineZoom: 1

[Metadata]
Title:Inochi Mushibamuai
TitleUnicode:イノチ蝕ムアイ
Artist:Hatsuki Yura
ArtistUnicode:葉月ゆら
Creator:Kotone
Version:
Source:
Tags:
BeatmapID:398037
BeatmapSetID:163364

[Difficulty]
HPDrainRate:7
CircleSize:5
OverallDifficulty:7
ApproachRate:8
SliderMultiplier:1.72
SliderTickRate:1

[Events]
//Background and Video events
0,0,"bg.jpg",0,0
//Break Periods
2,15678,26080
//Storyboard Layer 0 (Background)
//Storyboard Layer 1 (Fail)
//Storyboard Layer 2 (Pass)
//Storyboard Layer 3 (Foreground)
//Storyboard Sound Samples
//Background Colour Transformations
3,100,163,162,255

[TimingPoints]
479,405.405405405405,4,2,1,60,1,0
884.940011212747,405.405405405405,4,2,1,60,1,0
28452,-153.846153846154,4,2,1,60,0,0
41425,-100,4,2,1,60,0,0

[HitObjects]
332,259,479,5,0,0:0:0:0:
332,259,681,1,0,0:0:0:0:
270,191,884,6,0,P|294:144|288:102,1,96,4|0,0:0|0:0,0:0:0:0:
179,217,1290,2,0,P|207:261|251:278,1,96,10|0,0:0|0:0,0:0:0:0:
195,124,1695,2,0,P|142:126|105:155,1,96,2|0,0:0|0:0,0:0:0:0:
85,245,2101,1,10,0:0:0:0:
148,316,2303,1,0,0:0:0:0:
241,293,2506,6,0,P|291:288|350:291,1,96,2|0,0:0|0:0,0:0:0:0:
483,189,2911,2,0,P|433:194|374:191,1,96,10|0,0:0|0:0,0:0:0:0:
197,156,3317,1,0,0:0:0:0:
317,36,3520,1,10,0:0:0:0:
387,192,3722,2,0,P|333:188|292:188,1,96,2|0,0:0|0:0,0:0:0:0:
89,294,4128,6,0,P|170:312|214:246,1,172,2|10,0:0|0:0,0:0:0:0:
197,156,4736,1,0,0:0:0:0:
197,156,4938,2,0,P|198:104|195:59,1,96,2|0,0:0|0:0,0:0:0:0:
18,217,5344,2,0,P|66:211|125:197,1,96,10|0,0:0|0:0,0:0:0:0:
177,46,5749,6,0,P|100:50|24:66,1,144,2|0,0:0|0:0,0:0:0:0:
34,63,6155,1,10,0:0:0:0:
129,213,6357,1,0,0:0:0:0:
164,129,6560,2,0,P|118:130|64:142,1,96,0|2,0:0|0:0,0:0:0:0:
3,269,6966,1,8,0:0:0:0:
127,337,7168,1,0,0:0:0:0:
257,252,7371,6,0,P|311:250|372:252,1,96,4|0,0:0|0:0,0:0:0:0:
302,136,7776,2,0,P|355:144|414:157,1,96,10|0,0:0|0:0,0:0:0:0:
373,29,8182,2,0,P|423:47|479:72,1,96,2|0,0:0|0:0,0:0:0:0:
494,164,8587,1,10,0:0:0:0:
473,267,8790,1,0,0:0:0:0:
386,328,8993,6,0,P|338:282|348:198,1,144,2|0,0:0|0:0,0:0:0:0:
341,208,9398,2,0,L|240:242,1,96,10|0,0:0|0:0,0:0:0:0:
158,266,9803,1,2,0:0:0:0:
129,174,10006,1,10,0:0:0:0:
221,147,10209,1,2,0:0:0:0:
249,238,10411,1,0,0:0:0:0:
67,244,10614,5,2,0:0:0:0:
154,82,10817,1,2,0:0:0:0:
249,238,11020,2,0,P|208:286|123:279,1,144,10|0,0:0|0:0,0:0:0:0:
67,244,11425,2,0,L|47:148,1,96,2|10,0:0|0:0,0:0:0:0:
128,17,11830,2,0,L|148:113,1,96,2|0,0:0|0:0,0:0:0:0:
256,136,12236,5,2,0:0:0:0:
393,74,12438,1,2,0:0:0:0:
385,91,12540,1,2,0:0:0:0:
377,108,12641,2,0,P|397:151|396:202,1,96,8|10,0:0|0:0,0:0:0:0:
461,316,13047,1,2,0:0:0:0:
461,316,13249,2,0,P|465:268|491:225,1,96,10|10,0:0|0:0,0:0:0:0:
489,227,13655,1,0,0:0:0:0:
452,45,13857,5,2,0:0:0:0:
452,45,14263,1,2,0:0:0:0:
337,112,14668,2,0,L|279:127,1,48,2|2,0:0|0:0,0:0:0:0:
267,238,14972,2,0,L|209:253,1,48,2|2,0:0|0:0,0:0:0:0:
172,40,15276,1,2,0:0:0:0:
196,34,15377,1,0,0:0:0:0:
219,27,15478,1,4,0:0:0:0:
256,192,26830,12,4,28452,0:0:0:0:
155,93,29668,5,0,0:0:0:0:
86,158,29871,1,0,0:0:0:0:
155,93,30074,2,0,L|330:80,1,167.699992323304,0|0,0:0|0:0,0:0:0:0:
322,80,31290,1,0,0:0:0:0:
395,350,31695,6,0,P|340:304|362:209,1,167.699992323304
483,180,32709,1,0,0:0:0:0:
416,63,33114,1,0,0:0:0:0:
323,81,33317,2,0,L|133:76,1,167.699992323304
155,76,34533,5,0,0:0:0:0:
74,26,34736,1,0,0:0:0:0:
72,120,34938,2,0,L|56:291,2,167.699992323304
156,77,36560,2,0,L|0:148,2,167.699992323304
285,41,38182,5,2,0:0:0:0:
285,41,38993,1,2,0:0:0:0:
285,41,39803,1,2,0:0:0:0:
337,140,40209,1,2,0:0:0:0:
433,84,40614,1,2,0:0:0:0:
451,242,40817,1,2,0:0:0:0:
443,268,40918,1,2,0:0:0:0:
435,295,41020,1,2,0:0:0:0:
433,84,41222,1,2,0:0:0:0:
470,257,41425,6,0,P|416:309|333:281,1,167.699992323304,4|0,0:0|1:0,0:0:0:0:
294,203,42033,1,0,0:0:0:0:
189,317,42236,2,0,L|99:328,1,86,2|2,0:0|0:0,0:0:0:0:
120,160,42641,2,0,L|205:149,1,86,0|0,1:0|0:0,0:0:0:0:
294,202,43047,1,0,0:0:0:0:
368,136,43249,1,0,0:0:0:0:
329,43,43452,1,0,1:0:0:0:
228,52,43654,1,0,0:0:0:0:
205,149,43857,6,0,L|120:160,1,86,0|0,0:0|1:0,0:0:0:0:
40,92,44263,1,0,0:0:0:0:
138,61,44466,1,0,0:0:0:0:
81,198,44668,2,0,L|252:175,1,172,0|0,0:0|0:0,0:0:0:0:
381,112,45276,2,0,L|400:208,1,86
341,326,45682,2,0,L|256:337,1,86,0|0,0:0|0:0,0:0:0:0:
158,301,46087,1,0,0:0:0:0:
56,353,46290,6,0,P|52:309|53:265,1,86
66,164,46695,1,0,0:0:0:0:
66,164,46898,1,0,0:0:0:0:
173,22,47101,2,0,P|177:66|176:110,1,86
156,209,47506,2,0,P|152:253|153:297,1,86
240,349,47911,5,0,0:0:0:0:
335,308,48114,1,0,0:0:0:0:
430,347,48317,2,0,L|423:239,1,86
277,223,48722,1,0,0:0:0:0:
335,308,48925,1,0,0:0:0:0:
370,77,49128,2,0,L|377:185,1,86
263,233,49533,6,0,L|170:244,1,86
76,221,49938,1,0,0:0:0:0:
106,101,50141,2,0,L|209:87,2,86
76,221,50749,1,0,0:0:0:0:
10,141,50952,1,0,0:0:0:0:
120,98,51155,6,0,L|206:79,1,86
454,172,51560,2,0,L|368:191,1,86
141,114,51966,1,0,0:0:0:0:
259,40,52168,1,0,0:0:0:0:
156,130,52371,2,0,L|185:220,1,86
156,311,52776,5,0,0:0:0:0:
279,199,52979,1,0,0:0:0:0:
304,193,53080,1,0,0:0:0:0:
329,187,53182,1,0,0:0:0:0:
174,296,53384,1,0,0:0:0:0:
354,182,53587,1,0,0:0:0:0:
379,177,53689,1,0,0:0:0:0:
403,170,53790,1,0,0:0:0:0:
419,150,53891,1,0,0:0:0:0:
425,124,53993,1,0,0:0:0:0:
420,98,54094,1,0,0:0:0:0:
407,75,54195,1,0,0:0:0:0:
386,58,54297,1,0,0:0:0:0:
361,51,54398,6,0,L|270:36,1,86
50,86,54803,2,0,L|141:101,1,86
400,205,55209,2,0,L|309:190,1,86
89,240,55614,2,0,L|180:255,1,86
277,344,56020,5,0,0:0:0:0:
277,344,56222,1,0,0:0:0:0:
209,184,56425,1,0,0:0:0:0:
209,184,56628,1,0,0:0:0:0:
410,160,56830,1,0,0:0:0:0:
410,160,57033,1,0,0:0:0:0:
215,49,57236,2,0,L|119:72,1,86
28,20,57641,5,0,0:0:0:0:
16,122,57844,1,0,0:0:0:0:
4,224,58047,2,0,L|29:309,1,86
16,122,58452,5,0,0:0:0:0:
91,191,58655,1,0,0:0:0:0:
166,261,58858,2,0,L|249:290,1,86
91,191,59263,5,0,0:0:0:0:
210,174,59466,1,0,0:0:0:0:
223,293,59668,2,0,L|306:322,1,86
446,343,60074,5,0,0:0:0:0:
486,248,60276,2,0,L|478:161,2,86
434,352,60884,2,0,P|368:359|338:351,1,86
236,261,61290,1,0,0:0:0:0:
333,344,61493,1,0,0:0:0:0:
218,251,61695,2,0,P|175:245|133:253,1,86
21,328,62101,2,0,L|28:233,1,86
35,139,62506,5,0,0:0:0:0:
35,139,62709,1,0,0:0:0:0:
121,275,62911,1,0,0:0:0:0:
121,275,63114,1,0,0:0:0:0:
209,96,63317,1,0,0:0:0:0:
274,175,63520,1,0,0:0:0:0:
374,195,63722,1,0,0:0:0:0:
475,173,63925,1,0,0:0:0:0:
373,33,64128,5,0,0:0:0:0:
274,175,64330,1,0,0:0:0:0:
337,325,64533,1,0,0:0:0:0:
464,106,64736,2,0,L|373:119,1,86
260,171,65141,5,0,0:0:0:0:
311,307,65344,1,0,0:0:0:0:
462,338,65547,1,0,0:0:0:0:
274,57,65749,1,0,0:0:0:0:
266,55,67168,5,0,0:0:0:0:
249,52,67371,1,0,0:0:0:0:
190,43,67776,5,0,0:0:0:0:
105,28,68182,5,0,0:0:0:0:
109,54,68283,1,0,0:0:0:0:
113,80,68384,1,0,0:0:0:0:
117,106,68486,1,0,0:0:0:0:
121,132,68587,1,0,0:0:0:0:
125,158,68688,1,0,0:0:0:0:
129,184,68790,1,0,0:0:0:0:
133,210,68891,1,0,0:0:0:0:
137,236,68993,6,0,P|117:271|71:274,1,86
10,194,69398,1,0,0:0:0:0:
189,307,69601,2,0,L|289:282,1,86
439,317,70006,2,0,L|414:217,1,86
317,50,70411,2,0,P|272:105|314:185,1,172
403,132,71020,1,0,0:0:0:0:
