osu file format v9

[General]
AudioFilename: 2 HAMELN.mp3
AudioLeadIn: 2500
PreviewTime: 114993
Countdown: 0
SampleSet: Soft
StackLeniency: 0.7
Mode: 0
LetterboxInBreaks: 1

[Editor]
DistanceSpacing: 0.9
BeatDivisor: 4
GridSize: 4

[Metadata]
Title:HAMELN
Artist:Hatsuki Yura
Creator:wmfchris
Version:Normal
Source:
Tags:Koisuru Marionnette Saturio kanpakyin Sandpig SeifuuMeigetsu drop

[Difficulty]
HPDrainRate:3
CircleSize:4
OverallDifficulty:3
ApproachRate:4
SliderMultiplier:1
SliderTickRate:1

[Events]
//Background and Video events
0,0,"BG2.jpg"
//Break Periods
2,55929,69378
2,131821,145071
//Storyboard Layer 0 (Background)
Sprite,Background,Centre,"SB\A-1.png",237,73 L,7929,1 V,0,0,116,1,0.1,1,1 V,0,3231,3346,1,1,1,0.1
Sprite,Background,Centre,"SB\A-2.png",237,73 L,11621,1 V,0,0,116,1,0.1,1,1 V,0,3231,3346,1,1,1,0.1
Sprite,Background,Centre,"SB\A-3.png",237,73 L,15314,1 V,0,0,116,1,0.1,1,1 V,0,3231,3346,1,1,1,0.1
Sprite,Background,Centre,"SB\A-4.png",237,73 L,19006,1 V,0,0,116,1,0.1,1,1 V,0,3231,3346,1,1,1,0.1
Sprite,Background,Centre,"SB\A-5.png",237,73 L,22698,1 V,0,0,116,1,0.1,1,1 V,0,3231,3346,1,1,1,0.1
Sprite,Background,Centre,"SB\A-6.png",237,73 L,26391,1 V,0,0,116,1,0.1,1,1 V,0,3231,3346,1,1,1,0.1
Sprite,Background,Centre,"SB\A-7.png",237,73 L,30083,1 V,0,0,116,1,0.1,1,1 V,0,3231,3346,1,1,1,0.1
Sprite,Background,Centre,"SB\A-8.png",237,73 L,33775,1 V,0,0,116,1,0.1,1,1 V,0,6922,7037,1,1,1,0.1
Sprite,Background,Centre,"SB\K-1.png",237,73 L,41160,1 V,0,0,116,1,0.1,1,1 V,0,3231,3346,1,1,1,0.1
Sprite,Background,Centre,"SB\K-2.png",237,73 L,44852,1 V,0,0,116,1,0.1,1,1 V,0,3231,3346,1,1,1,0.1
Sprite,Background,Centre,"SB\K-3.png",237,73 L,48545,1 V,0,0,116,1,0.1,1,1 V,0,3231,3346,1,1,1,0.1
Sprite,Background,Centre,"SB\K-4.png",237,73 L,52237,1 V,0,0,116,1,0.1,1,1 V,0,3231,3346,1,1,1,0.1
Sprite,Background,Centre,"SB\B-1.png",237,73 L,83621,1 V,0,0,116,1,0.1,1,1 V,0,3231,3346,1,1,1,0.1
Sprite,Background,Centre,"SB\B-2.png",237,73 L,87314,1 V,0,0,116,1,0.1,1,1 V,0,3231,3346,1,1,1,0.1
Sprite,Background,Centre,"SB\B-3.png",237,73 L,91006,1 V,0,0,116,1,0.1,1,1 V,0,3231,3346,1,1,1,0.1
Sprite,Background,Centre,"SB\B-4.png",237,73 L,94698,1 V,0,0,116,1,0.1,1,1 V,0,3231,3346,1,1,1,0.1
Sprite,Background,Centre,"SB\B-5.png",237,73 L,98391,1 V,0,0,116,1,0.1,1,1 V,0,3231,3346,1,1,1,0.1
Sprite,Background,Centre,"SB\B-6.png",237,73 L,102083,1 V,0,0,116,1,0.1,1,1 V,0,3231,3346,1,1,1,0.1
Sprite,Background,Centre,"SB\B-7.png",237,73 L,105775,1 V,0,0,116,1,0.1,1,1 V,0,3231,3346,1,1,1,0.1
Sprite,Background,Centre,"SB\B-8.png",237,73 L,109468,1 V,0,0,116,1,0.1,1,1 V,0,6922,7037,1,1,1,0.1
Sprite,Background,Centre,"SB\K-5.png",237,73 L,116852,1 V,0,0,116,1,0.1,1,1 V,0,3231,3346,1,1,1,0.1
Sprite,Background,Centre,"SB\K-6.png",237,73 L,120545,1 V,0,0,116,1,0.1,1,1 V,0,3231,3346,1,1,1,0.1
Sprite,Background,Centre,"SB\K-7.png",237,73 L,124237,1 V,0,0,116,1,0.1,1,1 V,0,3231,3346,1,1,1,0.1
Sprite,Background,Centre,"SB\K-8.png",237,73 L,127929,1 V,0,0,116,1,0.1,1,1 V,0,3231,3346,1,1,1,0.1
Sprite,Background,Centre,"SB\C-1.png",237,73 L,146391,1 V,0,0,116,1,0.1,1,1 V,0,3231,3346,1,1,1,0.1
Sprite,Background,Centre,"SB\C-2.png",237,73 L,150083,1 V,0,0,116,1,0.1,1,1 V,0,3231,3346,1,1,1,0.1
Sprite,Background,Centre,"SB\C-3.png",237,73 L,153775,1 V,0,0,116,1,0.1,1,1 V,0,3231,3346,1,1,1,0.1
Sprite,Background,Centre,"SB\C-4.png",237,73 L,157468,1 V,0,0,116,1,0.1,1,1 V,0,6922,7037,1,1,1,0.1
Sprite,Background,Centre,"SB\K-1.png",237,73 L,164852,1 V,0,0,116,1,0.1,1,1 V,0,3231,3346,1,1,1,0.1
Sprite,Background,Centre,"SB\K-2B.png",237,73 L,168545,1 V,0,0,116,1,0.1,1,1 V,0,3231,3346,1,1,1,0.1
Sprite,Background,Centre,"SB\K-3B.png",237,73 L,172237,1 V,0,0,116,1,0.1,1,1 V,0,3231,3346,1,1,1,0.1
Sprite,Background,Centre,"SB\K-4.png",237,73 L,175929,1 V,0,0,116,1,0.1,1,1 V,0,3231,3346,1,1,1,0.1
Sprite,Background,Centre,"SB\K-5.png",237,73 L,179621,1 V,0,0,116,1,0.1,1,1 V,0,3231,3346,1,1,1,0.1
Sprite,Background,Centre,"SB\K-6.png",237,73 L,183314,1 V,0,0,116,1,0.1,1,1 V,0,3231,3346,1,1,1,0.1
Sprite,Background,Centre,"SB\K-7B.png",237,73 L,187006,1 V,0,0,116,1,0.1,1,1 V,0,3231,3346,1,1,1,0.1
Sprite,Background,Centre,"SB\K-8B.png",237,73 L,190698,1 V,0,0,116,1,0.1,1,1 V,0,3231,3346,1,1,1,0.1
//Storyboard Layer 1 (Fail)
//Storyboard Layer 2 (Pass)
//Storyboard Layer 3 (Foreground)
//Storyboard Sound Samples
//Background Colour Transformations
3,100,163,162,255

[TimingPoints]
545,461.538461538462,4,2,1,60,1,0
22698,-100,4,2,1,70,0,0
41160,-100,4,2,1,80,0,1
55468,-100,4,2,1,70,0,0
116852,-100,4,2,1,80,0,1
131621,-100,4,2,1,50,0,0
146391,-100,4,2,1,70,0,0
164852,-100,4,2,1,50,0,0
172237,-100,4,2,1,80,0,1
194391,-100,4,2,1,80,0,0

[Colours]
Combo1 : 128,64,64
Combo2 : 192,192,192
Combo3 : 198,0,198

[HitObjects]
104,80,544,1,4
156,252,1468,2,0,B|208:280|264:244,2,100,0|0|2
212,80,3314,2,0,B|260:48|320:88,2,100,0|0|2
360,180,5160,5,0
408,256,5621,1,0
336,312,6083,1,2
180,220,7006,1,0
132,144,7468,1,0
204,88,7929,6,0,B|252:64|320:96,2,100,0|2|0
256,160,9314,2,0,B|320:188|368:152,1,100
436,124,10237,1,2
436,124,10698,1,2
352,284,11621,6,0,B|260:312|140:280,1,200
64,280,13006,2,0,B|-4:280,2,50,2|0|0
112,204,13929,1,2
64,128,14391,2,0,B|64:64|128:56,1,100
208,80,15314,6,0,B|172:124|216:188,2,100,0|2|0
280,132,16698,2,0,B|316:192|268:244,1,100
212,280,17621,1,2
212,280,18083,1,2
348,280,18775,6,0,B|392:280|412:260,1,50,0|2
352,192,19468,2,0,B|308:188|284:168,2,50,0|0|2
360,104,20391,2,0,B|404:100|428:80,2,50,0|0|2
268,104,21314,2,0,B|152:104,1,100,0|2
76,104,22237,1,6
76,192,22698,6,0,B|88:252|152:276,2,100,0|8|0
168,192,24083,1,8
260,192,24545,2,0,B|248:132|184:108,2,100,0|8|0
436,96,26391,6,0,B|356:180,1,100,0|8
356,80,27314,2,0,B|276:164,1,100,0|8
240,76,28237,1,0
160,116,28698,1,8
80,76,29160,1,0
80,212,29852,6,0,B|80:280,1,50,0|2
168,276,30545,1,8
244,232,31006,1,0
276,148,31468,1,8
332,76,31929,2,0,B|380:36|440:84,1,100,0|2
424,116,32621,2,0,B|424:184,1,50,2|0
260,220,33775,5,4
132,92,34698,1,4
76,264,35621,2,0,B|124:304|180:256,1,100,4|0
128,184,36545,2,0,B|176:144|232:192,1,100,4|0
288,240,37468,1,4
256,192,37698,12,4,41160
132,232,41621,5,8
88,152,42083,1,0
132,72,42545,1,8
176,152,43006,2,0,B|232:152,4,50,0|0|8|2|0
228,76,44391,5,8
272,76,44621,2,0,B|344:76,1,50,0|2
396,128,45314,2,0,B|464:128,2,50,8|0|0
328,184,46237,2,0,B|256:184,2,50,8|0|0
404,232,47160,1,8
328,280,47621,2,0,B|288:308|240:324|172:304|120:268|120:272,1,200,0|4
60,236,49006,5,8
60,144,49468,2,0,B|68:104|100:92,1,50,2|2
124,124,49929,2,0,B|164:104|148:64,1,50,8|0
196,80,50391,2,0,B|292:44|400:84,1,200
392,172,51775,5,10
392,172,52006,2,0,B|392:244,1,50,0|6
304,188,52698,1,8
220,212,53160,2,0,B|220:280,2,50,4|0|8
220,100,54083,5,4
124,152,54545,1,6
124,260,55006,1,4
220,312,55468,1,4
332,184,70698,5,0
240,184,71160,1,8
160,144,71621,1,0
140,184,71852,1,0
160,224,72083,1,8
208,308,72545,2,0,B|160:348|100:296,2,100,0|8|0
252,308,73698,2,0,B|324:308,1,50,0|2
392,308,74391,6,0,B|448:280|456:220,1,100,0|8
392,168,75314,2,0,B|336:139|328:83,1,100,0|8
324,48,76006,2,0,B|252:48,1,50,0|6
204,108,76698,6,0,B|204:176,1,50
204,158,77160,1,4
116,88,77621,2,0,B|116:24,2,50,0|0|4
48,148,78545,1,0
48,236,79006,2,0,B|72:300|120:336|224:340,1,200,2|4
204,248,80391,5,8
292,248,80852,2,0,B|344:276|400:240,2,100,0|8|0
292,156,82237,1,2
204,156,82698,2,0,B|184:188|156:204,2,50,0|2|0
204,64,83621,6,0,B|144:64|116:128,2,100,0|2|0
296,64,85006,2,0,B|356:64|384:128,1,100
380,204,85929,1,2
380,204,86391,1,2
200,200,87314,6,0,B|136:200|96:256|136:316|208:316,1,200
288,316,88698,2,0,B|288:256,2,50,2|0|0
380,316,89621,1,2
380,316,90083,1,2
376,136,91006,6,0,B|328:108|272:140,2,100,0|2|0
328,212,92391,2,0,B|328:332,1,100
236,312,93314,1,2
236,312,93775,1,0
112,256,94468,6,0,B|112:192,1,50,0|2
128,116,95160,2,0,B|192:116,1,50
224,116,95621,1,2
192,200,96083,2,0,B|260:200,1,50
288,200,96544,1,2
336,124,97006,1,2
424,128,97468,1,0
456,208,97929,1,6
404,280,98391,6,0,B|364:320|304:340,1,100,0|8
316,244,99314,2,0,B|264:256|220:312,1,100,0|8
144,296,100237,1,0
64,256,100698,1,8
140,208,101160,1,0
256,72,102083,6,0,B|376:72,3,100,0|8|0|8
448,72,103929,1,0
420,156,104391,1,8
332,156,104852,1,0
332,200,105083,1,0
332,248,105314,6,0,B|396:248,2,50,2|2|0
252,292,106237,1,8
172,252,106698,1,0
172,160,107160,1,8
100,104,107621,2,0,B|28:104,4,50,0|0|2|2|0
276,76,109468,6,0,B|328:44|388:84,1,100,4|0
412,96,110160,1,0
428,140,110391,2,0,B|376:172|316:132,1,100,4|0
332,141,111083,1,0
332,141,111314,1,4
268,204,111775,1,0
188,168,112237,2,2,B|120:168|100:96,2,100,4|2|4
256,192,113391,12,4,116852
200,200,117314,5,8
132,140,117775,1,0
64,200,118237,1,8
132,260,118698,2,0,B|132:332,4,50,0|0|2|2|0
220,260,120083,1,8
264,260,120314,6,0,B|292:260|320:224,1,50,0|2
312,148,121006,2,0,B|344:152|372:176,2,50,8|0|0
312,56,121929,2,0,B|272:56|248:84,2,50,8|0|0
404,52,122852,1,2
452,128,123314,2,0,B|452:200,1,50
412,200,123775,2,2,B|412:268,1,50,8|2
384,284,124237,5,0
308,328,124698,1,8
228,284,125160,1,0
308,244,125621,2,0,B|308:128,1,100,8|0
308,52,126545,2,0,B|376:52,2,50,2|2|0
232,100,127468,1,8
188,100,127698,6,0,B|132:100,1,50,0|6
160,188,128391,1,0
132,272,128852,2,0,B|60:272,2,50,4|0|0
224,272,129775,5,4
340,328,130237,1,6
336,200,130698,1,4
224,156,131160,2,0,B|168:120|116:168,1,100,0|4
172,264,146391,6,0,B|56:244,1,100,0|8
148,196,147314,2,0,B|48:132,1,100,0|8
108,64,148237,1,0
196,64,148698,1,8
284,64,149160,1,0
408,116,149852,6,0,B|408:188,1,50,0|0
408,256,150545,2,0,B|364:288|308:256,1,100,8|0
316,168,151468,2,0,B|272:136|216:168,1,100,8|0
188,248,152391,1,8
160,284,152621,1,0
116,268,152852,2,0,B|40:176|120:68,1,200,0|4
200,80,154237,6,0,B|200:8,2,50,8|0|0
292,80,155160,1,8
292,80,155391,1,0
292,80,155621,1,0
384,80,156083,2,0,B|416:32,2,50,8|0|0
432,156,157006,1,8
384,232,157468,5,4
268,300,158160,2,0,B|216:344,1,50,0|4
192,204,159083,2,0,B|124:224,1,50,0|4
76,160,159775,1,0
108,76,160237,2,0,B|164:44,1,50,4|0
176,88,160698,2,2,B|240:84,1,50,2|2
224,132,161160,5,4
256,192,161391,12,4,164852
160,164,165314,5,2
100,100,165775,2,0,B|112:64|152:56,1,50
176,60,166237,2,0,B|208:68|220:112,1,50,2|0
256,96,166698,2,0,B|268:132|308:140,1,50
332,136,167160,2,0,B|364:128|376:84,1,50,2|0
404,132,167621,2,0,B|408:240|312:320,1,200,0|2
236,304,169006,5,0
156,260,169468,2,0,B|124:304,2,50,2|0|0
128,224,170160,1,0
116,180,170391,1,0
152,96,170852,1,2
232,52,171314,2,0,B|348:72|408:168,1,200,0|4
444,232,172698,5,8
360,200,173160,1,0
276,236,173621,1,8
240,320,174083,2,0,B|300:344|344:292,2,100,0|8|0
216,280,175237,1,8
172,268,175468,1,8
132,292,175698,6,0,B|72:260,1,50,0|2
80,176,176391,2,0,B|12:176,2,50,0|2|0
152,124,177314,1,0
224,176,177775,6,0,B|224:280,2,100,4|4|4
300,124,179160,1,12
388,100,179621,6,0,B|388:220,1,100,0|8
388,292,180545,2,0,B|440:340,2,50,0|0|8
300,264,181468,2,0,B|184:264|88:208,1,200,0|0
104,128,182852,1,8
104,84,183083,6,0,B|152:52,1,50,0|2
236,56,183775,2,0,B|288:100,2,50,8|2|2
192,136,184698,2,0,B|192:204,2,50,8|0|2
268,184,185621,1,8
344,132,186083,1,0
420,184,186545,1,8
344,232,187006,6,0,B|316:292|256:304,1,100,0|8
216,232,187929,2,0,B|160:240|144:300,1,100,0|8
100,292,188621,1,0
56,292,188852,2,0,B|-16:292,4,50
56,156,190468,6,0,B|116:156,1,50,0|6
148,76,191160,1,0
224,124,191621,2,2,B|284:124,1,50,4|2
268,168,192083,2,0,B|332:196,1,50
356,204,192545,5,4
440,168,193006,1,4
408,252,193468,1,4
324,280,193929,2,0,B|260:280|224:340,1,100,12|4
