osu file format v13

[General]
AudioFilename: Gentou Yuukaku.mp3
AudioLeadIn: 2000
PreviewTime: 49931
Countdown: 1
SampleSet: Soft
StackLeniency: 0.7
Mode: 0
LetterboxInBreaks: 1
WidescreenStoryboard: 0

[Editor]
Bookmarks: 32031
DistanceSpacing: 2
BeatDivisor: 2
GridSize: 4
TimelineZoom: 2.4

[Metadata]
Title:Gentou Yuukaku
TitleUnicode:幻燈遊郭
Artist:Hatsuki Yura
ArtistUnicode:葉月ゆら
Creator:Kotone
Version:Insane
Source:
Tags:
BeatmapID:248719
BeatmapSetID:91947

[Difficulty]
HPDrainRate:7
CircleSize:4
OverallDifficulty:7
ApproachRate:9
SliderMultiplier:1.72
SliderTickRate:1

[Events]
//Background and Video events
0,0,"bg.jpg",0,0
//Break Periods
2,66038,81150
//Storyboard Layer 0 (Background)
//Storyboard Layer 1 (Fail)
//Storyboard Layer 2 (Pass)
//Storyboard Layer 3 (Foreground)
//Storyboard Sound Samples
//Background Colour Transformations
3,100,163,162,255

[TimingPoints]
204,331.491712707182,3,2,0,60,1,0
204,-100,3,1,1,70,0,0
15121,-200,3,2,1,70,0,0
15949,-200,3,1,1,21,0,0
16115,-200,3,1,1,65,0,0
22082,-133.333333333333,3,1,1,65,0,0
24071,-200,3,1,1,65,0,0
32027,-100,3,1,1,65,0,0
48933,-100,3,1,1,40,0,0
49099,-100,3,1,1,60,0,0
49347,-100,3,1,1,28,0,0
49927,-100,3,1,1,80,0,1
65839,-100,3,1,2,80,0,0
81750,-133.333333333333,3,1,1,80,0,0
88712,-200,3,1,1,80,0,0
89706,-100,3,1,1,80,0,0

[Colours]
Combo1 : 240,209,104
Combo2 : 248,95,95
Combo3 : 255,255,255

[HitObjects]
330,84,38,6,0,L|357:88,3,21.5
420,128,204,6,0,P|446:179|412:272,1,129,4|0,0:0|2:0,0:0:0:0:
354,287,535,1,2,0:0:0:0:
406,114,701,1,8,1:0:0:0:
285,234,866,2,0,P|321:201|370:198,1,86,0|2,0:0|0:0,0:0:0:0:
271,322,1198,6,0,P|213:339|146:290,1,129,0|0,0:0|2:0,0:0:0:0:
112,243,1529,2,0,L|19:256,1,86,8|0,1:0|2:0,0:0:0:0:
10,71,1861,1,0,0:2:0:0:
96,72,2027,1,2,0:0:0:0:
169,37,2192,6,0,P|229:34|297:92,1,129,0|0,0:3|2:0,0:0:0:0:
322,135,2524,1,2,1:0:0:0:
410,76,2690,1,8,0:0:0:0:
409,288,2855,2,0,P|365:282|335:234,1,86,0|0,0:0|2:0,0:0:0:0:
410,76,3187,5,2,0:0:0:0:
260,270,3353,1,0,0:0:0:0:
471,140,3518,1,8,0:0:0:0:
159,139,3684,1,2,0:0:0:0:
467,226,3850,1,0,0:3:0:0:
289,23,4016,1,2,0:0:0:0:
408,288,4181,6,0,P|355:257|352:183,1,129,0|0,0:0|2:0,0:0:0:0:
321,121,4513,1,2,0:0:0:0:
260,270,4679,1,8,0:0:0:0:
159,139,4844,2,0,P|151:75|158:46,1,86,0|2,0:0|0:0,0:0:0:0:
165,237,5176,6,0,P|134:296|30:285,1,172,0|8,0:0|0:0,0:0:0:0:
37,143,5673,1,0,2:0:0:0:
72,65,5839,2,0,L|74:31,7,21.5,2|2|0|2|0|0|2|2,0:2|0:2|0:2|0:2|0:2|0:2|0:2|0:2,0:0:0:0:
37,143,6170,6,0,L|58:279,1,129,0|0,0:0|2:0,0:0:0:0:
111,333,6502,2,0,P|158:341|202:327,1,86,2|8,0:0|0:0,0:0:0:0:
250,118,6833,2,0,P|203:110|159:124,1,86,0|0,0:0|2:0,0:0:0:0:
332,218,7165,5,2,0:0:0:0:
452,172,7331,1,8,0:0:0:0:
445,43,7496,1,2,0:0:0:0:
321,9,7662,1,2,0:0:0:0:
250,118,7828,1,0,0:0:0:0:
164,312,7994,1,2,0:0:0:0:
395,284,8159,6,0,P|421:233|387:140,1,129,4|0,0:0|2:0,0:0:0:0:
329,125,8491,1,2,0:0:0:0:
381,298,8657,1,8,1:0:0:0:
260,180,8822,2,0,P|296:213|331:218,1,86,0|2,0:0|0:0,0:0:0:0:
164,312,9154,6,0,P|103:301|45:348,1,129,0|0,0:0|2:0,0:0:0:0:
31,269,9485,2,0,L|42:178,1,86,8|0,0:0|2:0,0:0:0:0:
156,23,9817,1,0,0:0:0:0:
185,121,9983,1,2,0:0:0:0:
292,40,10148,6,0,P|340:25|419:55,1,129,0|0,0:0|2:0,0:0:0:0:
469,119,10480,1,2,0:0:0:0:
316,187,10645,1,8,0:0:0:0:
483,237,10811,2,0,P|457:206|414:194,1,86,0|0,0:0|2:0,0:0:0:0:
251,269,11143,5,2,0:0:0:0:
33,218,11308,1,2,0:0:0:0:
218,162,11474,1,8,0:0:0:0:
65,325,11640,1,2,0:0:0:0:
109,136,11806,1,0,0:0:0:0:
174,350,11971,1,2,0:0:0:0:
141,248,12137,5,4,0:0:0:0:
265,41,12469,2,0,P|304:27|356:29,1,86,2|8,0:0|0:0,0:0:0:0:
468,213,12800,1,0,0:0:0:0:
399,290,12966,1,2,0:0:0:0:
297,309,13132,2,0,P|208:304|160:156,1,258,4|0,0:0|2:0,0:0:0:0:
264,42,13795,2,0,L|299:29,6,21.5,2|2|0|2|0|0|2,0:2|0:2|0:2|0:2|0:2|0:2|0:2,0:0:0:0:
185,82,14126,6,0,L|90:91,1,86,4|0,0:0|2:0,0:0:0:0:
341,152,14458,2,0,L|436:161,1,86,2|0,0:2|2:0,0:0:0:0:
136,202,14789,2,0,L|41:211,1,86,2|0,0:2|2:0,0:0:0:0:
92,319,15121,6,0,B|177:363|213:278|300:325,1,215,4|0,2:0|0:0,0:0:0:0:
375,356,16115,6,0,P|421:364|465:344,2,86,0|0|0,0:0|0:0|0:0,0:0:0:0:
325,235,17110,2,0,L|313:134,1,86
379,81,17773,1,0,0:0:0:0:
484,207,18104,6,0,P|452:231|389:231,1,86,0|0,0:0|0:0,0:0:0:0:
320,175,18767,1,0,0:0:0:0:
155,146,19099,2,0,P|187:122|250:122,1,86
320,175,19762,1,0,0:0:0:0:
320,176,19927,1,0,2:0:0:0:
320,175,20093,6,0,L|310:276,1,86,0|0,0:0|0:0,0:0:0:0:
233,316,20756,1,0,0:0:0:0:
84,192,21087,2,0,L|94:91,1,86
171,51,21750,1,0,0:0:0:0:
266,21,22082,6,0,L|348:16,1,64.5000024604798,0|2,0:2|0:2,0:2:0:0:
408,121,22413,2,0,L|326:126,1,64.5000024604798,2|0,0:2|0:2,0:0:0:0:
285,237,22745,2,0,L|367:232,1,64.5000024604798,2|0,0:2|0:2,0:0:0:0:
429,303,23076,5,2,0:3:0:0:
285,236,23408,1,8,2:3:0:0:
211,300,24071,6,0,P|177:319|117:309,1,86,0|0,0:0|0:0,0:0:0:0:
59,269,24734,1,0,0:0:0:0:
219,146,25065,2,0,P|243:176|242:237,1,86
211,300,25728,1,0,0:0:0:0:
83,164,26060,6,0,L|70:70,1,86
259,34,26723,1,0,0:0:0:0:
259,34,27054,2,0,L|272:128,1,86,0|0,0:0|0:0,0:0:0:0:
353,170,27717,1,0,0:0:0:0:
353,170,27883,1,0,2:0:0:0:
353,170,28049,6,0,P|393:185|445:172,2,86,0|0|0,0:0|0:0|0:0,0:0:0:0:
258,125,29043,2,0,L|165:132,1,86
92,286,29706,1,0,0:0:0:0:
181,328,30038,6,0,L|274:321,1,86,2|0,0:2|0:2,0:0:0:0:
354,368,30535,1,2,0:2:0:0:
345,183,30701,2,0,P|360:221|346:289,1,86,2|2,0:2|0:3,0:0:0:0:
331,313,31695,1,0,0:0:0:0:
195,337,32027,6,0,P|106:339|77:271,1,129.00000492096,4|0,0:0|2:0,0:0:0:0:
47,178,32358,1,2,0:2:0:0:
145,146,32524,1,0,0:0:0:0:
221,215,32690,2,0,P|262:231|303:221,1,86,2|0,0:2|0:0,0:0:0:0:
440,78,33021,2,0,L|267:62,1,172,8|2,0:0|0:2,0:0:0:0:
145,146,33518,1,0,0:0:0:0:
221,215,33684,1,2,0:2:0:0:
90,264,33850,1,0,0:0:0:0:
204,327,34016,6,0,P|277:341|337:294,1,129,0|0,0:3|2:0,0:0:0:0:
369,245,34347,2,0,L|353:141,1,86,0|0,0:0|0:0,0:0:0:0:
231,74,34679,2,0,L|247:178,1,86
370,245,35010,2,0,P|423:186|378:75,1,172,8|0,0:0|0:0,0:0:0:0:
274,249,35507,1,0,0:0:0:0:
351,343,35673,2,0,P|410:339|443:300,1,86
324,150,36005,6,0,L|220:146,1,86,2|0,0:3|2:0,0:0:0:0:
86,34,36336,2,0,P|52:93|100:185,1,172,2|0,0:2|0:0,0:0:0:0:
169,236,36833,1,0,0:0:0:0:
36,303,36999,1,8,0:0:0:0:
258,272,37331,1,2,0:2:0:0:
318,200,37496,1,0,0:2:0:0:
270,118,37662,1,2,0:2:0:0:
177,140,37828,1,0,0:0:0:0:
169,236,37994,6,0,P|163:277|170:327,1,86,8|0,0:3|0:0,0:0:0:0:
270,118,38325,2,0,P|237:92|190:73,1,86,0|0,0:3|0:0,0:0:0:0:
322,269,38657,2,0,P|360:253|400:222,1,86
365,137,38988,5,8,0:0:0:0:
159,124,39154,1,8,0:0:0:0:
235,310,39320,1,8,0:0:0:0:
211,218,39485,1,8,0:0:0:0:
303,244,39651,1,8,0:0:0:0:
235,310,39817,1,8,0:0:0:0:
76,192,39983,6,0,P|50:100|117:34,1,172,4|2,0:0|0:2,0:0:0:0:
245,128,40645,2,0,L|134:122,1,86,0|0,0:3|0:0,0:0:0:0:
209,19,40977,2,0,P|288:14|353:93,1,172,8|2,0:0|0:2,0:0:0:0:
309,216,41474,1,0,0:0:0:0:
394,256,41640,1,2,0:2:0:0:
215,318,41971,6,0,P|150:317|87:235,1,172,0|0,1:0|0:0,0:0:0:0:
258,222,42634,2,0,P|324:303|283:390,2,172,2|8|0,0:3|0:0|0:0,0:0:0:0:
48,169,43629,1,0,0:0:0:0:
48,169,43795,1,0,0:0:0:0:
122,283,43960,6,0,P|218:279|259:184,1,172,4|2,0:0|0:2,0:0:0:0:
121,85,44623,1,8,0:3:0:0:
243,356,44955,1,12,0:0:0:0:
420,291,45286,1,2,0:2:0:0:
409,196,45452,1,0,0:3:0:0:
448,110,45618,2,0,P|402:99|335:97,1,86,2|0,0:2|0:0,0:0:0:0:
135,196,45949,5,4,0:0:0:0:
220,264,46115,1,0,0:0:0:0:
130,316,46281,1,0,0:3:0:0:
250,162,46447,1,0,0:0:0:0:
243,357,46613,1,0,0:0:0:0:
318,262,46778,1,0,0:0:0:0:
339,266,46861,1,0,0:0:0:0:
360,270,46944,5,8,0:0:0:0:
243,357,47110,1,8,0:0:0:0:
433,337,47275,5,0,0:0:0:0:
220,264,47441,1,0,0:0:0:0:
339,368,47607,5,4,0:3:0:0:
250,162,47773,1,4,0:3:0:0:
45,251,47938,1,4,2:1:0:0:
88,113,48933,5,8,2:1:0:0:
141,211,49099,2,0,P|146:290|78:351,1,172,8|8,2:1|2:1,0:0:0:0:
45,251,49596,1,8,2:1:0:0:
88,113,49762,5,0,2:0:0:0:
88,113,49844,1,0,2:0:0:0:
88,113,49927,2,0,P|129:93|181:92,1,86,4|0,0:0|0:0,0:0:0:0:
270,140,50259,1,2,0:2:0:0:
356,69,50424,1,0,0:0:0:0:
369,180,50590,2,0,P|383:242|383:280,1,86,0|0,0:2|0:0,0:0:0:0:
270,140,50922,5,2,0:3:0:0:
467,347,51253,2,0,L|481:239,1,86,8|0,0:3|0:0,0:0:0:0:
471,37,51585,1,2,0:0:0:0:
356,69,51750,1,0,0:0:0:0:
270,140,51916,2,0,P|202:155|135:82,1,172,2|0,0:2|0:0,0:0:0:0:
68,306,52413,2,0,P|101:267|146:256,1,86,8|2,0:0|0:2,0:0:0:0:
250,286,52745,1,0,0:0:0:0:
282,169,52911,6,0,P|219:151|202:39,1,172,2|2,0:2|0:0,0:0:0:0:
356,58,53408,1,2,0:2:0:0:
404,215,53574,1,8,0:3:0:0:
270,308,53739,1,0,1:0:0:0:
139,210,53905,2,0,P|181:201|229:198,1,86
97,313,54237,5,0,0:0:0:0:
28,225,54402,1,8,0:0:0:0:
168,189,54568,2,0,L|342:167,1,172,0|2,0:0|0:3,0:0:0:0:
495,91,55065,1,0,0:0:0:0:
451,194,55231,2,0,P|452:243|457:288,1,86,8|0,0:3|0:0,0:0:0:0:
309,332,55563,6,0,P|205:342|177:282,1,172,2|0,0:0|0:0,0:0:0:0:
109,74,56226,1,0,0:0:0:0:
164,170,56391,1,8,0:0:0:0:
90,254,56557,2,0,P|84:309|103:360,1,86
257,308,56889,6,0,L|358:302,1,86
195,69,57220,2,0,L|94:75,1,86
404,209,57552,1,0,0:0:0:0:
48,168,57717,1,0,0:0:0:0:
286,278,57883,6,0,P|368:282|404:209,1,172,4|0,0:0|0:0,0:0:0:0:
352,34,58380,1,8,0:0:0:0:
441,103,58546,1,0,0:0:0:0:
441,103,58712,1,0,0:0:0:0:
385,265,58878,6,0,P|324:318|250:283,1,172,0|8,0:0|0:3,0:0:0:0:
154,226,59375,1,0,0:0:0:0:
270,123,59541,2,0,L|450:103,1,172
122,147,60038,1,0,0:0:0:0:
282,103,60203,2,0,L|386:91,1,86
498,281,60535,2,0,P|412:329|356:289,1,172
123,147,61198,5,0,0:0:0:0:
208,45,61364,1,0,0:0:0:0:
331,100,61530,1,0,0:0:0:0:
318,230,61696,1,0,0:0:0:0:
191,256,61861,1,0,0:0:0:0:
70,331,62192,6,0,L|76:246,1,86
117,62,62524,2,0,L|123:147,1,86,0|0,0:0|0:0,0:0:0:0:
61,346,62855,1,0,0:0:0:0:
69,331,63187,1,0,0:0:0:0:
172,374,63353,1,0,0:0:0:0:
244,289,63518,1,0,0:0:0:0:
182,195,63684,1,0,0:0:0:0:
73,221,63850,6,0,L|55:113,1,86
160,89,64181,1,0,0:0:0:0:
244,289,64347,2,0,L|262:181,1,86
172,374,64679,1,0,0:0:0:0:
260,195,64844,1,0,0:0:0:0:
265,185,65673,6,0,L|279:154,4,21.5,0|0|0|0|0,0:0|0:0|0:0|0:0|0:0,0:0:0:0:
240,176,81750,5,4,2:0:0:0:
140,228,82082,2,0,L|56:236,1,64.5000024604798
176,80,82413,2,0,L|324:68,2,129.00000492096
75,234,83242,2,0,L|140:228,1,64.5000024604798
56,64,83739,5,0,0:0:0:0:
92,336,84071,1,0,0:0:0:0:
100,322,84237,1,0,0:0:0:0:
288,321,84402,2,0,P|244:348|181:325,1,96.7500036907198
220,255,84734,2,0,L|246:121,2,129.00000492096,8|0|0,0:3|0:0|0:0,0:0:0:0:
365,362,85563,1,0,0:0:0:0:
366,278,85728,6,0,P|429:266|489:323,1,129.00000492096
285,319,86226,1,0,0:0:0:0:
362,168,86391,2,0,P|425:180|485:123,2,129.00000492096
292,120,87220,1,0,0:0:0:0:
359,181,87386,1,0,0:0:0:0:
392,32,87717,5,0,0:0:0:0:
292,120,87883,1,0,0:0:0:0:
439,176,88048,1,0,0:0:0:0:
431,334,88214,1,0,0:0:0:0:
279,374,88380,1,0,0:0:0:0:
193,242,88546,1,0,0:0:0:0:
292,120,88712,2,0,P|337:113|379:111,1,86
