osu file format v14

[General]
AudioFilename: Flandre.mp3
AudioLeadIn: 0
PreviewTime: 28423
Countdown: 0
SampleSet: Soft
StackLeniency: 0.7
Mode: 0
LetterboxInBreaks: 1
WidescreenStoryboard: 1

[Editor]
DistanceSpacing: 0.5
BeatDivisor: 4
GridSize: 4
TimelineZoom: 1

[Metadata]
Title:Gensou Kidan
TitleUnicode:幻想奇談
Artist:Hatsuki Yura
ArtistUnicode:葉月ゆら
Creator:Number5
Version:Lunatic
Source:Touhou
Tags:Flandre Scarlet th06 koumakyou Drop
BeatmapID:731929
BeatmapSetID:330230

[Difficulty]
HPDrainRate:6
CircleSize:4
OverallDifficulty:7
ApproachRate:9
SliderMultiplier:1.8
SliderTickRate:2

[Events]
//Background and Video events
0,0,"3a4256087a5875130b7b824c.jpg",0,0
//Break Periods
2,53397,68681
2,97326,101972
2,130042,136984
//Storyboard Layer 0 (Background)
//Storyboard Layer 1 (Fail)
//Storyboard Layer 2 (Pass)
//Storyboard Layer 3 (Foreground)
//Storyboard Sound Samples

[TimingPoints]
561,387.096774193548,5,2,3,50,1,0
16036,387.096774193548,4,2,3,50,1,0
28423,-100,4,2,3,50,0,1
53197,-100,4,2,2,50,0,0
97327,387.096774193548,4,2,3,50,1,1
97328,-100,4,2,3,50,0,0
103520,-100,4,2,3,50,0,1
122101,387.096774193548,5,2,2,50,1,0
122101,-100,4,2,2,50,0,0
129842,-100,4,2,2,5,0,0
137584,387.096774193548,4,2,3,50,1,0
143680,-100,4,2,3,5,0,0
143777,-100,4,2,3,50,0,0
149972,-100,4,2,3,50,0,1
159164,-100,4,2,3,5,0,1
159261,-100,4,2,3,50,0,1
186745,-100,4,2,3,5,0,1
187132,-100,4,2,3,50,0,0
187133,-100,4,2,2,50,0,1
187134,-100,4,2,2,50,0,0
187326,-100,4,2,2,50,0,1
187327,-100,4,2,2,50,0,0
187907,-100,4,2,2,50,0,1
187908,-100,4,2,2,50,0,0
188101,-100,4,2,2,50,0,1
188102,-100,4,2,2,50,0,0
188681,-100,4,2,2,50,0,1
189843,-100,4,2,3,50,0,0
193325,-100,4,2,3,5,0,0

[Colours]
Combo1 : 255,128,64
Combo2 : 0,255,128
Combo3 : 0,128,255
Combo4 : 255,255,128
Combo5 : 255,0,0

[HitObjects]
12,72,8302,6,0,P|64:72|112:64,1,90,2|2,0:0|0:0,0:0:0:0:
280,120,8690,2,0,P|228:120|184:136,1,90
36,208,9077,1,2,0:0:0:0:
136,280,9270,1,0,0:0:0:0:
256,340,9464,2,0,P|260:264|240:196,2,135
380,312,10238,6,0,B|388:264|388:264|380:216,1,90,2|2,0:0|0:0,0:0:0:0:
320,48,10625,2,0,B|312:96|312:96|320:144,1,90
200,144,11012,2,0,L|104:132,1,90,2|0,0:0|0:0,0:0:0:0:
16,188,11399,2,0,B|4:220|12:252|12:252|28:288|8:328,2,135
172,216,12173,6,0,L|76:224,1,90,2|2,0:0|0:0,0:0:0:0:
308,304,12560,2,0,L|212:296,1,90
400,224,12948,1,2,0:0:0:0:
280,192,13141,1,0,0:0:0:0:
144,108,13335,2,0,P|192:96|280:56,2,135
40,148,14109,6,0,P|52:96|44:56,1,90,2|2,0:0|0:0,0:0:0:0:
280,192,14496,2,0,P|268:244|276:284,1,90
80,248,14883,1,2,0:0:0:0:
144,108,15077,1,0,0:0:0:0:
240,44,15270,1,8,0:0:0:0:
256,48,15367,1,8,0:0:0:0:
272,52,15464,1,8,0:0:0:0:
288,56,15560,1,8,0:0:0:0:
328,72,15657,1,8,0:0:0:0:
344,68,15754,1,8,0:0:0:0:
360,64,15851,1,8,0:0:0:0:
376,60,15948,1,8,0:0:0:0:
408,36,16036,5,8,0:0:0:0:
416,40,16423,2,0,L|404:152,1,90,8|0,0:0|0:0,0:0:0:0:
268,272,16810,2,0,L|258:182,1,90
108,104,17197,2,0,L|96:216,1,90,8|0,0:0|0:0,0:0:0:0:
268,272,17584,5,0,0:0:0:0:
374,257,17777,1,0,0:0:0:0:
439,172,17971,1,8,0:0:0:0:
425,64,18165,1,0,0:0:0:0:
214,89,18358,1,0,0:0:0:0:
108,104,18551,1,0,0:0:0:0:
43,189,18745,1,8,0:0:0:0:
56,296,18939,1,0,0:0:0:0:
64,288,19132,5,0,0:0:0:0:
176,248,19326,2,0,L|216:340,1,90,0|8,0:0|0:0,0:0:0:0:
184,200,19713,2,0,L|198:299,1,90
200,156,20100,2,0,L|188:255,1,90,0|8,0:0|0:0,0:0:0:0:
108,104,20487,1,0,0:0:0:0:
128,92,20584,1,0,0:0:0:0:
148,80,20681,6,0,L|244:68,1,90
396,128,21068,2,0,L|300:140,1,90,8|0,0:0|0:0,0:0:0:0:
236,260,21455,1,0,0:0:0:0:
180,156,21648,1,0,0:0:0:0:
296,364,21842,1,8,0:0:0:0:
424,280,22035,2,0,L|432:236,2,45
396,128,22423,5,0,0:0:0:0:
388,108,22519,1,0,0:0:0:0:
376,88,22616,2,0,P|332:44|300:28,1,90,8|0,0:0|0:0,0:0:0:0:
272,144,23003,1,0,0:0:0:0:
164,112,23197,1,0,0:0:0:0:
142,113,23293,1,0,0:0:0:0:
119,118,23390,2,0,P|63:146|38:171,1,90,8|0,0:0|0:0,0:0:0:0:
140,240,23777,5,0,0:0:0:0:
40,344,23971,2,0,L|48:299,1,45
132,328,24165,2,0,P|200:316|252:332,1,90,8|0,0:0|0:0,0:0:0:0:
332,352,24552,1,0,0:0:0:0:
344,252,24745,2,0,L|288:240,1,45
360,168,24939,2,0,P|412:140|460:144,1,90,8|0,0:0|0:0,0:0:0:0:
428,224,25326,6,0,L|444:328,1,90
344,252,25616,1,0,0:0:0:0:
324,244,25713,2,0,L|220:208,1,90,8|0,0:0|0:0,0:0:0:0:
112,232,26100,2,0,P|112:160|116:124,1,90
188,76,26390,1,0,0:0:0:0:
208,84,26487,2,0,B|256:88|256:88|324:84,1,90,8|0,0:0|0:0,0:0:0:0:
424,48,26874,5,0,0:0:0:0:
336,164,27068,2,0,L|276:168,2,45,0|0|8,0:0|0:0|0:0,0:0:0:0:
244,264,27455,2,0,L|304:260,2,45
128,216,27842,1,0,0:0:0:0:
360,308,28035,1,8,0:0:0:0:
368,300,28423,6,0,B|372:248|400:216|400:216|392:176|336:164,1,180,0|2,0:0|0:0,0:0:0:0:
256,248,29003,1,0,0:0:0:0:
176,164,29197,2,0,B|120:176|112:216|112:216|140:248|144:300,1,180,0|2,0:0|0:0,0:0:0:0:
464,152,29971,6,0,P|394:96|306:85,1,180,0|2,0:0|0:0,0:0:0:0:
260,204,30551,1,0,0:0:0:0:
205,85,30745,2,0,P|117:96|48:152,1,180,0|6,0:0|0:0,0:0:0:0:
360,252,31519,6,0,B|376:188|356:152,1,90
150,163,31906,2,0,B|136:188|152:252,1,90,2|0,0:0|0:0,0:0:0:0:
148,348,32294,2,0,L|252:320,1,90
256,320,32584,1,0,0:0:0:0:
277,324,32681,2,0,L|364:348,1,90,2|0,0:0|0:0,0:0:0:0:
396,184,33068,5,0,0:0:0:0:
348,88,33261,1,0,0:0:0:0:
256,28,33455,1,2,0:0:0:0:
164,88,33648,1,0,0:0:0:0:
116,184,33841,1,8,0:0:0:0:
256,236,34035,1,8,0:0:0:0:
256,256,34132,1,8,0:0:0:0:
256,272,34229,1,14,0:0:0:0:
124,268,34616,6,0,P|108:212|124:164,1,90,2|0,0:0|0:0,0:0:0:0:
188,216,34906,1,0,0:0:0:0:
204,304,35003,2,0,B|180:348|132:356,1,90,10|0,0:0|0:0,0:0:0:0:
44,320,35294,1,0,0:0:0:0:
24,232,35390,2,0,L|16:136,1,90,2|0,0:0|0:0,0:0:0:0:
96,112,35681,1,0,0:0:0:0:
60,36,35777,2,0,P|120:32|164:64,1,90,10|0,0:0|0:0,0:0:0:0:
180,116,36068,1,0,0:0:0:0:
264,156,36165,6,0,L|352:188,1,90,2|0,0:0|0:0,0:0:0:0:
272,252,36455,1,0,0:0:0:0:
184,204,36552,2,0,P|172:152|192:96,2,90,10|0|2,0:0|0:0|0:0,0:0:0:0:
180,216,37326,1,14,0:0:0:0:
176,228,37713,6,0,L|192:328,1,90,2|0,0:0|0:0,0:0:0:0:
312,248,38100,2,0,L|328:148,1,90,10|0,0:0|0:0,0:0:0:0:
204,56,38487,1,2,0:0:0:0:
52,156,38681,1,0,0:0:0:0:
60,136,38777,1,0,0:0:0:0:
68,116,38874,1,10,0:0:0:0:
176,228,39068,1,0,0:0:0:0:
300,144,39261,6,0,L|356:136,1,45,2|0,0:0|0:0,0:0:0:0:
408,88,39455,2,0,L|432:138,1,45
492,176,39648,2,0,L|451:215,1,45,10|0,0:0|0:0,0:0:0:0:
437,284,39842,2,0,L|386:257,1,45
318,263,40035,1,2,0:0:0:0:
318,263,40423,1,14,0:0:0:0:
224,248,40810,6,0,L|228:148,1,90,2|0,0:0|0:0,0:0:0:0:
144,160,41100,1,0,0:0:0:0:
68,116,41197,2,0,P|104:84|168:76,1,90,10|0,0:0|0:0,0:0:0:0:
236,76,41487,2,0,L|256:28,1,45,0|2,0:0|0:0,0:0:0:0:
364,132,41777,1,0,0:0:0:0:
384,120,41874,1,0,0:0:0:0:
404,108,41971,1,10,0:0:0:0:
428,236,42165,2,0,L|484:232,2,45,0|0|2,0:0|0:0|0:0,0:0:0:0:
296,312,42552,5,0,0:0:0:0:
280,296,42648,1,0,0:0:0:0:
264,280,42745,2,0,L|164:268,1,90,10|0,0:0|0:0,0:0:0:0:
104,164,43132,1,2,0:0:0:0:
212,32,43326,1,0,0:0:0:0:
272,191,43519,1,10,0:0:0:0:
280,176,43906,6,0,L|376:164,1,90,2|0,0:0|0:0,0:0:0:0:
308,32,44294,2,0,L|212:44,1,90,10|0,0:0|0:0,0:0:0:0:
133,163,44681,1,2,0:0:0:0:
120,312,44874,1,0,0:0:0:0:
140,300,44971,1,0,0:0:0:0:
160,292,45068,2,0,P|232:280|280:288,1,90,10|0,0:0|0:0,0:0:0:0:
424,344,45455,5,2,0:0:0:0:
472,192,45648,1,0,0:0:0:0:
320,228,45842,1,10,0:0:0:0:
360,92,46035,1,0,0:0:0:0:
256,136,46229,1,2,0:0:0:0:
152,92,46423,1,0,0:0:0:0:
192,228,46616,1,10,0:0:0:0:
40,192,46810,1,0,0:0:0:0:
88,344,47003,6,0,L|192:328,1,90,2|0,0:0|0:0,0:0:0:0:
280,216,47390,2,0,L|176:232,1,90,10|0,0:0|0:0,0:0:0:0:
152,92,47777,2,0,L|160:0,1,90,2|0,0:0|0:0,0:0:0:0:
48,104,48165,2,0,L|40:196,1,90,10|0,0:0|0:0,0:0:0:0:
256,136,48552,6,0,P|304:140|360:128,1,90,2|0,0:0|0:0,0:0:0:0:
440,72,48939,1,10,0:0:0:0:
440,72,49132,1,0,0:0:0:0:
448,180,49326,2,0,L|440:292,2,90,2|0|10,0:0|0:0|0:0,0:0:0:0:
440,184,50100,5,2,0:0:0:0:
352,164,50294,1,0,0:0:0:0:
304,88,50487,1,10,0:0:0:0:
320,0,50681,1,0,0:0:0:0:
68,88,50874,1,2,0:0:0:0:
156,108,51068,1,0,0:0:0:0:
172,124,51165,1,0,0:0:0:0:
184,144,51261,2,0,P|188:216|184:268,1,90,10|0,0:0|0:0,0:0:0:0:
328,284,51648,6,8,L|376:276,3,45,10|8|8|8,0:0|0:0|0:0|0:0,0:0:0:0:
388,260,52035,2,8,L|444:268,3,45,10|8|8|8,0:0|0:0|0:0|0:0,0:0:0:0:
476,188,52423,2,8,L|480:136,1,45,10|8,0:0|0:0,0:0:0:0:
364,104,52616,2,8,L|372:168,1,45,10|8,0:0|0:0,0:0:0:0:
284,176,52810,1,10,0:0:0:0:
264,172,52906,1,10,0:0:0:0:
240,168,53003,1,10,0:0:0:0:
220,164,53100,1,10,0:0:0:0:
200,160,53197,5,14,0:0:0:0:
84,68,70229,6,8,B|144:60,3,45
148,72,70616,2,8,B|192:77,3,45
212,88,71003,5,12,0:0:0:0:
316,216,71294,1,12,0:0:0:0:
172,296,71584,1,12,0:0:0:0:
280,308,71777,6,0,L|376:304,1,90
448,236,72068,1,0,0:0:0:0:
436,216,72165,2,0,L|448:112,1,90,8|0,0:0|0:0,0:0:0:0:
312,88,72552,2,0,L|216:96,1,90
120,72,72842,1,0,0:0:0:0:
128,92,72938,2,0,L|120:204,1,90,8|0,0:0|0:0,0:0:0:0:
60,288,73326,5,0,0:0:0:0:
268,284,73519,2,0,L|328:288,2,45,0|0|8,0:0|0:0|0:0,0:0:0:0:
128,192,73906,1,0,0:0:0:0:
240,104,74100,1,0,0:0:0:0:
352,200,74294,2,0,L|356:144,2,45,0|0|8,0:0|0:0|0:0,0:0:0:0:
456,80,74681,2,0,L|452:124,2,45
312,96,75068,6,0,P|264:172|232:176,1,90,0|8,0:0|0:0,0:0:0:0:
256,32,75455,2,0,P|313:101|307:132,1,90
176,68,75842,2,0,P|259:34|287:50,1,90,0|8,0:0|0:0,0:0:0:0:
184,152,76229,2,0,P|178:62|201:40,1,90
268,168,76616,6,0,P|180:145|167:116,1,90,0|8,0:0|0:0,0:0:0:0:
336,140,77003,2,0,P|313:227|284:240,1,90
304,72,77390,2,0,P|391:94|404:123,1,90,0|8,0:0|0:0,0:0:0:0:
236,100,77777,2,0,P|258:12|287:0,1,90
120,40,78165,6,0,L|12:28,1,90,0|8,0:0|0:0,0:0:0:0:
144,112,78552,2,0,L|35:118,1,90
172,180,78939,2,0,L|66:205,1,90,0|8,0:0|0:0,0:0:0:0:
200,252,79326,2,0,L|100:295,1,90
394,288,79713,6,0,L|312:252,1,90,0|8,0:0|0:0,0:0:0:0:
427,201,80100,2,0,L|340:180,1,90
457,117,80487,2,0,L|368:112,1,90,0|8,0:0|0:0,0:0:0:0:
481,30,80874,2,0,L|392:40,1,90
252,112,81261,6,0,L|248:52,2,45,0|0|8,0:0|0:0|0:0,0:0:0:0:
120,116,81648,2,0,L|60:120,2,45
124,248,82035,2,0,L|128:308,2,45,0|0|8,0:0|0:0|0:0,0:0:0:0:
256,244,82422,2,0,L|316:240,2,45
380,124,82810,5,0,0:0:0:0:
384,104,82906,1,0,0:0:0:0:
388,84,83003,1,8,0:0:0:0:
328,212,83197,1,0,0:0:0:0:
348,216,83293,1,0,0:0:0:0:
368,220,83390,1,0,0:0:0:0:
224,124,83584,1,0,0:0:0:0:
204,120,83681,1,0,0:0:0:0:
184,116,83777,1,8,0:0:0:0:
160,112,83874,1,0,0:0:0:0:
136,108,83971,1,0,0:0:0:0:
112,104,84068,1,0,0:0:0:0:
88,100,84165,6,0,P|4:132|-24:220,1,180,0|8,0:0|0:0,0:0:0:0:
60,304,84745,1,0,0:0:0:0:
164,232,84939,2,0,L|52:192,1,90
256,152,85326,2,0,L|368:192,1,90,8|0,0:0|0:0,0:0:0:0:
476,220,85713,6,0,P|404:252|384:276,1,90
396,376,86100,2,0,P|468:344|488:320,1,90,8|0,0:0|0:0,0:0:0:0:
336,192,86487,2,0,P|264:160|244:136,1,90
256,36,86874,2,0,P|328:68|348:92,1,90,8|0,0:0|0:0,0:0:0:0:
160,56,87261,6,0,L|68:76,1,90
56,192,87552,1,0,0:0:0:0:
60,168,87648,2,0,L|80:280,1,90,8|0,0:0|0:0,0:0:0:0:
232,296,88035,2,0,L|244:176,1,90
372,232,88326,1,0,0:0:0:0:
364,252,88423,2,0,L|352:144,1,90,8|0,0:0|0:0,0:0:0:0:
392,44,88810,6,0,L|288:60,1,90
136,136,89197,2,0,L|240:120,1,90,8|0,0:0|0:0,0:0:0:0:
448,180,89584,1,0,0:0:0:0:
424,304,89777,1,0,0:0:0:0:
476,56,89971,1,8,0:0:0:0:
380,80,90165,1,0,0:0:0:0:
356,80,90261,1,0,0:0:0:0:
332,80,90358,6,0,P|260:104|232:128,1,90
232,128,90648,1,0,0:0:0:0:
216,144,90745,2,0,P|177:166|133:175,1,90,8|0,0:0|0:0,0:0:0:0:
232,128,91132,2,0,P|232:203|246:237,1,90
246,237,91422,1,0,0:0:0:0:
257,258,91519,2,0,P|266:301|261:346,1,90,8|0,0:0|0:0,0:0:0:0:
247,237,91906,6,0,P|319:259|356:256,1,90
356,256,92196,1,0,0:0:0:0:
378,253,92293,2,0,P|422:257|463:275,1,90,8|0,0:0|0:0,0:0:0:0:
356,256,92680,2,0,P|400:194|408:158,1,90
408,160,92970,1,0,0:0:0:0:
412,137,93067,2,0,P|430:96|460:62,1,90,8|0,0:0|0:0,0:0:0:0:
408,160,93455,5,0,0:0:0:0:
288,112,93648,2,0,L|236:88,2,45,0|0|8,0:0|0:0|0:0,0:0:0:0:
128,40,94035,1,0,0:0:0:0:
248,92,94229,1,0,0:0:0:0:
165,191,94422,2,0,L|126:233,2,45,0|0|8,0:0|0:0|0:0,0:0:0:0:
47,321,94810,1,0,0:0:0:0:
136,224,95003,5,8,0:0:0:0:
152,232,95100,1,8,0:0:0:0:
168,240,95197,1,8,0:0:0:0:
184,248,95294,1,8,0:0:0:0:
212,268,95390,1,8,0:0:0:0:
232,260,95487,1,8,0:0:0:0:
252,252,95584,1,8,0:0:0:0:
272,244,95681,1,8,0:0:0:0:
296,216,95777,1,8,0:0:0:0:
320,224,95874,1,8,0:0:0:0:
348,232,95971,1,8,0:0:0:0:
376,240,96068,1,8,0:0:0:0:
408,272,96165,1,8,0:0:0:0:
440,264,96261,1,8,0:0:0:0:
472,256,96358,1,8,0:0:0:0:
504,248,96455,1,8,0:0:0:0:
184,136,102939,5,8,0:0:0:0:
212,120,103036,1,8,0:0:0:0:
240,108,103133,1,8,0:0:0:0:
248,112,103520,6,0,P|304:128|332:192,1,90,2|0,0:0|0:0,0:0:0:0:
324,240,103810,1,0,0:0:0:0:
252,280,103907,2,0,P|244:216|268:176,1,90,10|0,0:0|0:0,0:0:0:0:
184,136,104197,1,0,0:0:0:0:
108,184,104294,2,0,P|120:226|109:269,1,90,2|0,0:0|0:0,0:0:0:0:
40,228,104585,1,0,0:0:0:0:
32,144,104681,2,0,P|68:108|124:100,1,90,10|0,0:0|0:0,0:0:0:0:
172,48,104972,2,0,L|132:24,1,45,0|2,0:0|0:0,0:0:0:0:
320,36,105262,5,0,0:0:0:0:
336,48,105359,1,0,0:0:0:0:
352,60,105456,2,0,L|460:92,1,90,10|0,0:0|0:0,0:0:0:0:
452,176,105843,2,0,L|279:124,1,180,2|14,0:0|0:0,0:0:0:0:
288,144,106617,6,0,P|212:140|192:136,1,90,2|0,0:0|0:0,0:0:0:0:
92,248,107004,2,0,P|168:252|188:256,1,90,10|0,0:0|0:0,0:0:0:0:
304,320,107391,1,2,0:0:0:0:
392,184,107585,1,0,0:0:0:0:
396,208,107681,1,0,0:0:0:0:
400,232,107778,1,10,0:0:0:0:
464,40,107972,1,0,0:0:0:0:
392,184,108165,6,0,L|436:190,1,45,2|0,0:0|0:0,0:0:0:0:
309,174,108359,2,0,L|328:133,1,45
277,253,108552,2,0,L|244:221,1,45,10|0,0:0|0:0,0:0:0:0:
339,309,108746,2,0,L|299:330,1,45
418,309,108939,1,2,0:0:0:0:
418,309,109326,1,14,0:0:0:0:
418,309,109714,6,0,P|408:200|424:108,1,180,2|10,0:0|0:0,0:0:0:0:
316,56,110294,1,0,0:0:0:0:
204,96,110488,2,0,L|100:100,1,90,2|0,0:0|0:0,0:0:0:0:
68,184,110875,2,0,L|172:180,1,90,10|0,0:0|0:0,0:0:0:0:
264,316,111262,6,0,P|308:280|428:320,1,180,2|10,0:0|0:0,0:0:0:0:
344,368,111843,1,0,0:0:0:0:
284,212,112036,2,0,P|276:112|276:108,2,90,2|0|10,0:0|0:0|0:0,0:0:0:0:
288,220,112810,6,0,L|388:192,1,90,2|0,0:0|0:0,0:0:0:0:
264,128,113197,2,0,L|164:156,1,90,10|0,0:0|0:0,0:0:0:0:
96,212,113585,1,2,0:0:0:0:
80,60,113778,1,0,0:0:0:0:
104,64,113875,1,0,0:0:0:0:
128,64,113972,1,10,0:0:0:0:
284,8,114165,1,0,0:0:0:0:
376,164,114359,6,0,L|368:272,1,90,2|0,0:0|0:0,0:0:0:0:
328,76,114746,2,0,L|436:84,1,90,10|0,0:0|0:0,0:0:0:0:
236,100,115133,2,0,L|244:-8,1,90,2|0,0:0|0:0,0:0:0:0:
284,188,115520,2,0,L|176:180,1,90,10|0,0:0|0:0,0:0:0:0:
76,88,115907,5,2,0:0:0:0:
60,236,116101,1,0,0:0:0:0:
76,248,116197,1,0,0:0:0:0:
96,260,116294,2,0,P|200:256|292:276,1,180,10|2,0:0|0:0,0:0:0:0:
500,224,116875,1,0,0:0:0:0:
484,212,116971,1,0,0:0:0:0:
464,200,117068,2,0,P|360:204|268:184,1,180,10|2,0:0|0:0,0:0:0:0:
168,136,117649,5,0,0:0:0:0:
172,112,117746,1,0,0:0:0:0:
176,88,117843,2,0,L|172:-8,1,90,10|0,0:0|0:0,0:0:0:0:
288,52,118230,1,2,0:0:0:0:
60,100,118423,1,0,0:0:0:0:
216,274,118617,1,10,0:0:0:0:
228,280,119004,6,0,P|276:268|324:268,1,90,2|0,0:0|0:0,0:0:0:0:
384,356,119391,2,0,P|336:368|288:368,1,90,10|0,0:0|0:0,0:0:0:0:
88,272,119778,2,0,L|96:156,1,90,2|0,0:0|0:0,0:0:0:0:
80,200,120068,1,0,0:0:0:0:
72,220,120165,2,0,L|64:104,1,90,10|0,0:0|0:0,0:0:0:0:
176,21,120552,5,10,0:0:0:0:
181,43,120649,1,8,0:0:0:0:
187,66,120746,1,8,0:0:0:0:
192,88,120843,1,8,0:0:0:0:
160,100,120939,1,10,0:0:0:0:
177,106,121036,1,8,0:0:0:0:
191,114,121133,1,8,0:0:0:0:
205,123,121230,1,8,0:0:0:0:
240,120,121326,1,10,0:0:0:0:
243,139,121423,1,8,0:0:0:0:
260,168,121520,1,10,0:0:0:0:
277,174,121617,1,8,0:0:0:0:
312,176,121714,1,10,0:0:0:0:
323,210,121810,1,10,0:0:0:0:
360,218,121907,1,10,0:0:0:0:
363,255,122004,1,10,0:0:0:0:
400,264,122101,5,14,0:0:0:0:
256,192,122294,12,0,129842,0:0:0:0:
48,60,137584,6,0,B|136:80|136:80|228:60,1,180,0|8,0:0|0:0,0:0:0:0:
328,84,138164,1,0,0:0:0:0:
316,180,138358,2,0,B|228:160|228:160|136:180,1,180,0|8,0:0|0:0,0:0:0:0:
36,156,138938,1,0,0:0:0:0:
40,256,139132,6,0,P|108:296|224:280,1,180,0|8,0:0|0:0,0:0:0:0:
292,248,139713,1,0,0:0:0:0:
392,172,139906,2,0,P|324:132|208:148,1,180,0|8,0:0|0:0,0:0:0:0:
140,180,140487,1,0,0:0:0:0:
40,232,140680,5,0,0:0:0:0:
44,120,140874,2,0,L|24:24,1,90,0|8,0:0|0:0,0:0:0:0:
140,180,141261,2,0,L|128:82,1,90
240,240,141648,2,0,L|236:141,1,90,0|8,0:0|0:0,0:0:0:0:
348,300,142035,2,0,L|353:202,1,90
464,360,142422,6,0,L|478:262,1,90,0|8,0:0|0:0,0:0:0:0:
451,168,142809,1,0,0:0:0:0:
348,300,143003,1,0,0:0:0:0:
112,152,143196,1,0,0:0:0:0:
280,132,143390,1,0,0:0:0:0:
112,152,143777,6,0,L|84:60,1,90
200,64,144164,2,0,P|276:28|376:88,1,180,8|0,0:0|0:0,0:0:0:0:
384,172,144745,1,0,0:0:0:0:
280,132,144938,2,0,P|204:168|104:108,1,180,8|0,0:0|0:0,0:0:0:0:
32,164,145519,5,0,0:0:0:0:
108,240,145713,2,0,L|96:344,1,90,8|0,0:0|0:0,0:0:0:0:
212,272,146100,2,0,L|200:168,1,90
328,208,146487,2,0,L|316:312,1,90,8|0,0:0|0:0,0:0:0:0:
464,116,146874,6,0,P|376:120|268:84,1,180,0|8,0:0|0:0,0:0:0:0:
172,144,147454,1,0,0:0:0:0:
88,240,147648,2,0,P|176:236|284:272,1,180,0|8,0:0|0:0,0:0:0:0:
376,324,148229,1,0,0:0:0:0:
432,260,148422,6,0,L|448:148,1,90
312,56,148809,2,0,L|328:168,1,90,8|0,0:0|0:0,0:0:0:0:
244,220,149196,2,0,B|200:216|176:192|176:192|176:156|176:156|132:208|132:208|115:158|19:146,1,315
0,132,149971,6,0,B|32:84|76:72|76:72|124:96|168:72,1,180
256,56,150551,1,0,0:0:0:0:
357,78,150745,2,0,B|388:96|436:72|436:72|480:84|512:132,1,180
488,220,151325,1,0,0:0:0:0:
380,328,151519,6,0,B|388:276|340:248|340:248|372:200|312:144,1,180
260,256,152100,1,0,0:0:0:0:
176,169,152293,2,0,B|140:200|172:248|172:248|124:276|132:328,1,180,0|4,0:0|0:0,0:0:0:0:
128,340,153067,5,0,0:0:0:0:
192,240,153261,1,0,0:0:0:0:
320,240,153454,1,0,0:0:0:0:
384,340,153648,1,0,0:0:0:0:
440,224,153842,2,0,L|416:116,1,90
232,152,154132,2,0,L|308:160,1,45
320,240,154422,1,0,0:0:0:0:
232,152,154616,6,0,P|168:128|148:108,1,90
240,32,155003,1,0,0:0:0:0:
368,56,155196,2,0,P|376:116|364:164,1,90
320,240,155583,2,8,L|320:292|320:296,2,45
312,224,156164,5,2,0:0:0:0:
140,260,156358,2,0,L|144:180,1,45
96,156,156551,1,10,0:0:0:0:
220,48,156745,2,0,L|236:112,1,45
304,124,156938,1,2,0:0:0:0:
484,192,157132,2,0,L|428:200,1,45
408,268,157325,1,10,0:0:0:0:
232,320,157519,2,0,L|236:364,1,45
312,336,157713,5,2,0:0:0:0:
184,228,157906,2,0,L|192:176,1,45
116,192,158100,1,10,0:0:0:0:
376,160,158293,1,0,0:0:0:0:
116,192,158487,1,2,0:0:0:0:
116,192,158874,2,0,P|124:252|116:340,1,135,10|0,0:0|0:0,0:0:0:0:
100,356,159261,6,0,L|200:344,1,90,2|0,0:0|0:0,0:0:0:0:
392,252,159648,2,0,L|292:264,1,90,10|0,0:0|0:0,0:0:0:0:
216,108,160035,2,0,L|316:96,1,90,2|0,0:0|0:0,0:0:0:0:
116,192,160325,1,0,0:0:0:0:
40,248,160422,2,0,P|24:184|40:124,1,90,10|0,0:0|0:0,0:0:0:0:
216,108,160809,5,2,0:0:0:0:
232,116,160906,1,0,0:0:0:0:
248,124,161003,1,0,0:0:0:0:
264,132,161100,1,0,0:0:0:0:
280,140,161196,1,10,0:0:0:0:
296,148,161293,1,0,0:0:0:0:
312,156,161390,1,0,0:0:0:0:
328,164,161487,1,0,0:0:0:0:
344,172,161583,2,0,B|352:208|384:216|384:216|360:236|360:236|408:252|436:308,1,180,2|14,0:0|0:0,0:0:0:0:
252,304,162358,6,0,L|156:348,1,90,2|0,0:0|0:0,0:0:0:0:
260,80,162745,2,0,L|356:36,1,90,10|0,0:0|0:0,0:0:0:0:
144,188,163132,2,0,L|100:92,1,90,2|0,0:0|0:0,0:0:0:0:
368,196,163519,2,0,L|412:292,1,90,10|0,0:0|0:0,0:0:0:0:
260,188,163906,6,0,B|208:160|144:188|144:188|168:224|128:284,1,180,2|10,0:0|0:0,0:0:0:0:
288,360,164487,1,0,0:0:0:0:
368,196,164680,1,2,0:0:0:0:
160,88,164874,1,0,0:0:0:0:
172,348,165067,1,10,0:0:0:0:
168,360,165454,6,0,L|152:252,1,90,2|0,0:0|0:0,0:0:0:0:
348,292,165842,2,0,L|364:184,1,90,10|0,0:0|0:0,0:0:0:0:
224,104,166229,2,0,L|237:193,1,90,2|0,0:0|0:0,0:0:0:0:
276,368,166519,2,0,L|276:312,1,45,0|10,0:0|0:0,0:0:0:0:
428,252,166809,1,0,0:0:0:0:
372,204,167003,5,2,0:0:0:0:
357,98,167196,1,0,0:0:0:0:
272,33,167390,1,10,0:0:0:0:
164,47,167584,1,0,0:0:0:0:
252,165,167777,1,2,0:0:0:0:
267,271,167970,1,0,0:0:0:0:
352,336,168164,1,10,0:0:0:0:
459,323,168358,1,0,0:0:0:0:
252,165,168551,6,0,P|148:180|64:152,1,180,2|10,0:0|0:0,0:0:0:0:
56,288,169132,1,0,0:0:0:0:
132,360,169325,2,0,L|172:272,1,90,2|0,0:0|0:0,0:0:0:0:
316,256,169713,2,0,L|356:344,1,90,10|0,0:0|0:0,0:0:0:0:
436,232,170100,6,0,P|440:152|412:48,1,180,2|10,0:0|0:0,0:0:0:0:
312,88,170680,1,0,0:0:0:0:
160,48,170874,1,2,0:0:0:0:
160,224,171067,1,0,0:0:0:0:
316,256,171261,1,10,0:0:0:0:
316,256,171648,6,8,L|368:236,3,45
400,224,172035,2,8,L|456:236,3,45,10|8|8|8,0:0|0:0|0:0|0:0,0:0:0:0:
476,264,172422,2,8,L|520:232,3,45,10|8|8|8,0:0|0:0|0:0|0:0,0:0:0:0:
492,196,172809,2,8,L|472:132,3,45,10|8|8|8,0:0|0:0|0:0|0:0,0:0:0:0:
464,112,173196,6,8,L|460:56,3,45,10|8|10|8,0:0|0:0|0:0|0:0,0:0:0:0:
428,36,173583,2,8,L|380:0,3,45,10|8|10|8,0:0|0:0|0:0|0:0,0:0:0:0:
348,12,173971,2,8,L|280:28,3,45,10|10|10|10,0:0|0:0|0:0|0:0,0:0:0:0:
264,40,174358,2,8,L|204:28,3,45,10|10|10|10,0:0|0:0|0:0|0:0,0:0:0:0:
176,36,174745,6,0,P|160:104|160:148,1,90,2|0,0:0|0:0,0:0:0:0:
400,228,175132,2,0,P|416:160|416:116,1,90,10|0,0:0|0:0,0:0:0:0:
352,64,175519,2,0,P|285:84|247:106,1,90,2|0,0:0|0:0,0:0:0:0:
297,353,175906,2,0,P|363:332|401:310,1,90,10|0,0:0|0:0,0:0:0:0:
284,224,176293,6,0,P|184:208|88:256,1,180,2|10,0:0|0:0,0:0:0:0:
376,276,176874,2,0,P|384:220|380:180,1,90,0|2,0:0|0:0,0:0:0:0:
376,180,177454,1,10,0:0:0:0:
376,180,177842,6,0,L|276:152,1,90,2|0,0:0|0:0,0:0:0:0:
200,112,178229,1,10,0:0:0:0:
84,100,178422,1,0,0:0:0:0:
124,304,178616,2,0,L|128:200,1,90,2|0,0:0|0:0,0:0:0:0:
228,252,178906,1,0,0:0:0:0:
248,272,179003,2,0,L|368:268,1,90,10|0,0:0|0:0,0:0:0:0:
424,340,179390,5,2,0:0:0:0:
456,224,179583,1,0,0:0:0:0:
352,128,179777,1,10,0:0:0:0:
216,88,179971,1,0,0:0:0:0:
88,132,180164,2,0,P|96:252|140:328,1,180,2|10,0:0|0:0,0:0:0:0:
112,316,180938,6,0,L|200:288,1,90,2|0,0:0|0:0,0:0:0:0:
300,180,181325,2,0,P|336:264|456:280,1,180,10|2,0:0|0:0,0:0:0:0:
408,184,181906,2,0,L|456:96,1,90,0|10,0:0|0:0,0:0:0:0:
328,80,182293,1,0,0:0:0:0:
208,68,182487,6,0,L|120:108,1,90,2|0,0:0|0:0,0:0:0:0:
112,200,182874,2,0,L|193:162,1,90,10|0,0:0|0:0,0:0:0:0:
272,220,183261,2,0,L|96:300,1,180,2|10,0:0|0:0,0:0:0:0:
256,192,184035,12,0,186745,0:0:0:0:
256,192,187132,5,4,0:0:0:0:
152,52,187325,1,12,0:0:0:0:
152,52,187713,5,8,0:0:0:0:
168,52,187809,1,8,0:0:0:0:
184,52,187906,1,12,0:0:0:0:
408,104,188100,1,12,0:0:0:0:
272,332,188680,5,0,0:0:0:0:
252,332,188777,1,0,0:0:0:0:
232,332,188874,1,0,0:0:0:0:
212,332,188971,1,0,0:0:0:0:
196,332,189067,1,0,0:0:0:0:
176,332,189164,1,0,0:0:0:0:
156,332,189261,1,0,0:0:0:0:
140,332,189358,1,0,0:0:0:0:
124,332,189454,1,0,0:0:0:0:
256,192,189842,5,12,0:0:0:0:
256,192,189938,12,0,193325,0:0:0:0:
