osu file format v10

[General]
AudioFilename: Ganbare! Koi no hana.mp3
AudioLeadIn: 1500
PreviewTime: 56356
Countdown: 0
SampleSet: Soft
StackLeniency: 0.7
Mode: 0
LetterboxInBreaks: 1

[Editor]
DistanceSpacing: 1.1
BeatDivisor: 4
GridSize: 8

[Metadata]
Title:Ganbare! Koi no Hana
TitleUnicode:Ganbare! Koi no Hana
Artist:Hatsuki Yura
ArtistUnicode:Hatsuki Yura
Creator:Kotone
Version:fanzhen
Source:Ganbare! Memekochan
Tags:La pucelle Seifuu meigetsu Seifuumeigetsu fanzhen0019 karenying kioukiou
BeatmapID:168904
BeatmapSetID:55359

[Difficulty]
HPDrainRate:7
CircleSize:4
OverallDifficulty:7
ApproachRate:8
SliderMultiplier:1.6
SliderTickRate:1

[Events]
//Background and Video events
0,0,"bg.jpg"
//Break Periods
2,84828,95878
//Storyboard Layer 0 (Background)
//Storyboard Layer 1 (Fail)
//Storyboard Layer 2 (Pass)
//Storyboard Layer 3 (Foreground)
//Storyboard Sound Samples
//Background Colour Transformations
3,100,163,162,255

[TimingPoints]
628,428.571428571429,4,2,2,60,1,0
14342,-100,4,2,1,60,0,0
26342,-100,4,1,1,40,0,0
28056,-100,4,2,1,60,0,0
40056,-100,4,1,1,40,0,0
41770,-100,4,2,1,60,0,0
55485,-100,4,2,1,50,0,0
57199,-100,4,2,1,70,0,1
84628,-100,4,2,1,70,0,0
110342,-100,4,1,1,40,0,0
112056,-100,4,2,1,60,0,0
127485,-100,4,2,1,70,0,1
154919,468.75,4,2,1,40,1,0
154919,-133.333333333333,4,2,1,40,0,0
156359,500,4,2,1,40,1,0
156855,750,4,2,1,40,1,0
157230,666.666666666667,4,2,1,40,1,0
157568,750,4,2,1,5,1,0
157568,-66.6666666666667,4,2,1,40,0,0
157955,750,4,2,1,40,1,0
158330,-100,4,2,1,5,0,0

[Colours]
Combo1 : 243,233,139
Combo2 : 228,27,27
Combo3 : 170,227,242

[HitObjects]
440,288,627,6,0,B|360:272|288:336,1,160,6|8,0:0|0:0,0:0:0
40,192,1485,1,0,0:0:0
124,208,1699,1,2,0:0:0
96,128,1913,1,8,0:0:0
72,288,2342,6,0,B|160:272|224:336,1,160,0|8,0:0|0:0,0:0:0
480,192,3199,1,0,0:0:0
392,208,3413,1,2,0:0:0
320,264,3628,2,0,B|304:304|312:352,1,80,8|0,0:0|0:0,0:0:0
392,208,4056,6,0,B|376:152|285:142|262:193|262:193,1,160,0|8,0:0|0:0,0:0:0
192,256,4699,2,0,B|200:304,2,40
112,224,5128,1,2,0:0:0
64,152,5342,1,8,0:0:0
280,56,5770,6,0,B|352:8|440:32,1,160,0|8,0:0|0:0,0:0:0
464,248,6628,2,0,B|392:296|304:272,1,160,0|8,0:0|0:0,0:0:0
241,221,7270,1,0,0:0:0
176,160,7485,6,0,B|104:112|16:136,1,160,4|8,0:0|0:0,0:0:0
387,125,8342,1,0,0:0:0
411,213,8556,1,2,0:0:0
324,190,8770,1,8,0:0:0
192,304,9199,6,0,B|272:328|345:278,1,160,0|8,0:0|0:0,0:0:0
184,128,10056,1,0,0:0:0
120,192,10270,1,2,0:0:0
101,281,10485,2,0,B|93:321|109:361,1,80,8|2,0:0|0:0,0:0:0
192,304,10913,6,0,B|352:320,1,160,4|8,0:0|0:0,0:0:0
504,104,11770,2,0,B|344:88,1,160,4|8,0:0|0:0,0:0:0
256,128,12413,1,0,0:0:0
144,32,12627,5,4,0:0:0
256,192,12735,12,4,14342,0:0:0
384,144,14770,6,0,B|360:176|360:224,1,80,8|0,0:0|0:0,0:0:0
384,296,15199,2,0,B|304:256|216:288,1,160,0|8,0:0|0:0,0:0:0
80,136,16056,5,0,0:0:0
72,48,16270,1,0,0:0:0
160,40,16485,1,8,0:0:0
168,128,16699,1,0,0:0:0
128,216,16913,6,0,B|96:240|40:240,2,80,0|0|8,0:0|0:0|0:0,0:0:0
167,180,17449,2,0,B|224:152|288:160,1,120
366,185,17985,6,0,B|406:177,2,40,0|0|8,0:0|0:0|0:0,0:0:0
302,243,18413,1,0,0:0:0
284,328,18628,2,0,B|300:368|348:376,1,80
302,243,19056,2,0,B|142:219,1,160,8|0,0:0|0:0,0:0:0
88,288,19699,1,0,0:0:0
8,272,19913,1,4,0:0:0
264,96,20342,5,0,0:0:0
320,159,20556,1,0,0:0:0
400,144,20770,1,4,0:0:0
120,56,21199,6,0,B|96:136|144:208,1,160,4|8,0:0|0:0,0:0:0
216,256,21842,2,0,B|256:248,2,40
71,281,22270,1,0,0:0:0
208,168,22485,1,8,0:0:0
336,304,22913,5,0,0:0:0
344,216,23128,1,0,0:0:0
432,224,23342,1,8,0:0:0
424,312,23556,1,0,0:0:0
303,330,23770,6,0,B|263:330|215:346,2,80,0|0|8,0:0|0:0|0:0,0:0:0
336,304,24306,2,0,B|272:296|208:320,1,120
136,288,24842,5,0,0:0:0
64,232,25056,1,4,0:0:0
64,232,25270,1,0,0:0:0
234,152,25485,5,0,0:0:0
152,192,25699,1,0,0:0:0
80,136,25913,1,4,0:0:0
80,136,26128,1,0,0:0:0
256,64,26342,6,0,B|344:80,1,80,0|0,0:0|0:0,0:0:0
496,112,26770,2,0,B|408:128,1,80,0|0,0:0|0:0,0:0:0
400,120,27092,2,0,B|376:176|416:240,1,120
496,224,27628,1,0,0:0:0
496,224,27842,1,0,0:0:0
328,248,28056,6,0,B|168:264,1,160,4|8,0:0|0:0,0:0:0
96,220,28699,2,0,B|88:180|96:140,1,80
168,264,29128,2,0,B|176:304|168:344,1,80,0|8,0:0|0:0,0:0:0
88,304,29556,1,0,0:0:0
248,304,29770,6,0,B|312:240|400:280,1,160,0|8,0:0|0:0,0:0:0
464,320,30413,1,0,0:0:0
512,184,30628,2,0,B|448:120|360:160,1,160,0|8,0:0|0:0,0:0:0
288,120,31270,2,0,B|240:112,2,40
360,80,31699,5,0,0:0:0
364,157,31913,1,8,0:0:0
328,232,32128,1,0,0:0:0
264,280,32342,5,0,0:0:0
224,208,32556,1,0,0:0:0
158,163,32770,1,8,0:0:0
80,144,32985,2,0,B|32:144,1,40
0,152,33199,6,0,B|-8:232|8:328,1,160,0|8,0:0|0:0,0:0:0
224,208,34056,2,0,B|232:128|216:32,1,160,0|8,0:0|0:0,0:0:0
218,48,34699,1,8,0:0:0
144,192,34913,6,0,B|240:192|288:256,1,160,4|8,0:0|0:0,0:0:0
312,328,35556,1,0,0:0:0
392,352,35770,2,0,B|472:360,1,80
512,376,36092,2,0,B|464:328|464:256,1,120,0|0,0:0|0:0,0:0:0
480,168,36628,6,0,B|464:104|384:96|357:148,1,160,0|8,0:0|0:0,0:0:0
312,216,37270,1,0,0:0:0
248,168,37485,2,0,B|221:117|141:125|128:192,1,160,0|8,0:0|0:0,0:0:0
104,272,38128,2,0,B|56:280,2,40
176,316,38556,5,0,0:0:0
216,240,38770,2,0,B|224:192|248:168,1,80,12|0,0:0|0:0,0:0:0
264,308,39199,5,8,0:0:0
264,308,39413,1,0,0:0:0
304,232,39628,2,0,B|312:184|336:160,1,80,12|0,0:0|0:0,0:0:0
353,299,40056,6,0,B|329:379,1,80
488,256,40485,2,0,B|512:336,1,80
352,192,40913,6,0,B|328:272,1,80
488,160,41342,2,0,B|504:208,4,40,0|0|0|0|4,0:0|0:0|0:0|0:0|0:0,0:0:0
256,80,42199,6,0,B|192:56|128:96,1,120,8|0,0:0|0:0,0:0:0
104,128,42628,5,8,0:0:0
160,208,42842,1,0,0:0:0
256,178,43056,1,8,0:0:0
256,80,43270,1,0,0:0:0
408,128,43485,5,8,0:0:0
352,208,43699,1,0,0:0:0
400,136,43913,1,8,0:0:0
351,220,44127,1,0,0:0:0
398,142,44342,5,8,0:0:0
354,226,44556,1,0,0:0:0
440,269,44771,1,8,0:0:0
482,182,44985,1,8,0:0:0
392,336,45199,6,0,B|336:320|272:352,1,120
272,368,45627,2,0,B|256:288,1,80,4|0,0:0|0:0,0:0:0
224,128,46056,1,8,0:0:0
224,128,46270,2,0,B|168:192|80:176,1,160,0|8,0:0|0:0,0:0:0
16,128,46913,6,0,B|72:72,1,80
79,175,47342,2,0,B|152:136,1,80,8|0,0:0|0:0,0:0:0
128,240,47770,2,0,B|216:216,1,80,0|8,0:0|0:0,0:0:0
152,312,48199,2,0,B|240:312,1,80,0|8,0:0|0:0,0:0:0
312,352,48627,6,0,B|296:288|328:224,1,120,4|0,0:0|0:0,0:0:0
336,224,49056,2,0,B|416:216,1,80,8|0,0:0|0:0,0:0:0
488,128,49485,5,0,0:0:0
408,136,49699,1,0,0:0:0
320,64,49913,1,8,0:0:0
400,56,50127,1,0,0:0:0
248,152,50342,1,0,0:0:0
248,152,50556,6,0,B|168:128,1,80,0|8,0:0|0:0,0:0:0
88,104,50985,1,0,0:0:0
224,232,51199,1,0,0:0:0
224,232,51627,6,0,B|144:224,1,80,8|0,0:0|0:0,0:0:0
64,216,52056,6,0,B|120:280|96:368,1,160,4|8,0:0|0:0,0:0:0
312,192,52913,2,0,B|256:128|280:40,1,160,0|8,0:0|0:0,0:0:0
279,42,53556,1,0,0:0:0
376,24,53770,5,4,0:0:0
424,312,54199,1,8,0:0:0
136,360,54627,1,4,0:0:0
88,72,55056,1,8,0:0:0
256,192,55485,12,8,56770,0:0:0
456,248,57199,6,0,B|376:208|304:264,1,160,4|8,0:0|0:0,0:0:0
264,328,57842,1,0,0:0:0
115,184,58056,6,0,B|195:144|267:200,1,160,0|8,0:0|0:0,0:0:0
307,264,58699,1,0,0:0:0
464,112,58913,6,0,B|392:80|328:128,1,120,0|0,0:0|0:0,0:0:0
320,136,59342,1,8,0:0:0
248,72,59556,1,0,0:0:0
224,256,59770,5,0,0:0:0
176,248,59985,1,2,0:0:0
128,256,60199,1,8,0:0:0
89,285,60413,1,2,0:0:0
64,328,60627,6,0,B|96:256|64:168,1,160,0|8,0:0|0:0,0:0:0
16,104,61270,1,0,0:0:0
224,144,61485,2,0,B|145:129,1,80
320,80,61913,2,0,B|398:94,1,80,8|0,0:0|0:0,0:0:0
232,160,62342,6,0,B|152:144|152:144|128:152|136:176,1,120
144,184,62770,2,0,B|48:208,1,80,8|0,0:0|0:0,0:0:0
208,256,63199,2,0,B|112:264,1,80,0|8,0:0|0:0,0:0:0
294,342,63628,2,0,B|142:334,1,120,8|8,0:0|0:0,0:0:0
168,344,64056,6,0,B|152:288|64:288|48:352,1,160,4|8,0:0|0:0,0:0:0
48,350,64699,1,0,0:0:0
208,256,64913,6,0,B|224:200|312:200|328:264,1,160,0|8,0:0|0:0,0:0:0
327,262,65556,1,0,0:0:0
504,128,65770,6,0,B|496:89|422:89|410:132,1,120,0|0,0:0|0:0,0:0:0
408,144,66199,2,0,B|416:232,1,80,8|0,0:0|0:0,0:0:0
288,160,66628,5,0,0:0:0
244,139,66843,1,2,0:0:0
195,133,67057,1,8,0:0:0
150,150,67271,1,2,0:0:0
114,185,67485,6,0,B|164:124|158:31,1,160,0|4,0:0|0:0,0:0:0
398,185,68342,2,0,B|347:124|353:31,1,160,0|4,0:0|0:0,0:0:0
256,16,68985,1,0,0:0:0
256,104,69199,6,0,B|216:120|208:176,1,80,0|8,0:0|0:0,0:0:0
328,248,69628,2,0,B|368:232|376:176,1,80,8|0,0:0|0:0,0:0:0
296,176,70056,2,0,B|264:192|256:248|216:272,1,120,8|8,0:0|0:0,0:0:0
208,272,70485,2,0,B|80:248,1,120,8|0,0:0|0:0,0:0:0
80,256,70913,6,0,B|168:232|176:136,1,160,4|8,0:0|0:0,0:0:0
219,4,71556,1,0,0:0:0
179,68,71770,6,0,B|155:156|234:211,1,160,0|8,0:0|0:0,0:0:0
363,269,72413,1,0,0:0:0
296,240,72628,6,0,B|243:188|173:221,1,120,0|0,0:0|0:0,0:0:0
160,224,73056,2,0,B|183:256|176:304,1,80,8|0,0:0|0:0,0:0:0
248,128,73485,5,0,0:0:0
295,122,73699,1,2,0:0:0
340,135,73913,1,8,0:0:0
377,165,74128,1,2,0:0:0
394,209,74342,6,0,B|398:113|446:53,1,160,0|8,0:0|0:0,0:0:0
512,16,74985,1,0,0:0:0
394,209,75199,2,0,B|338:185|274:193,1,120
258,201,75628,2,0,B|178:201,1,80,8|0,0:0|0:0,0:0:0
102,245,76056,5,0,0:0:0
48,176,76270,2,0,B|24:144,2,40,0|0|8,0:0|0:0|0:0,0:0:0
90,94,76699,2,0,B|82:38,2,40,0|0|8,0:0|0:0|0:0,0:0:0
168,48,77128,2,0,B|176:8,2,40,0|0|8,0:0|0:0|0:0,0:0:0
256,40,77556,1,8,0:0:0
344,64,77770,6,0,B|288:128|312:224,1,160,4|8,0:0|0:0,0:0:0
384,184,78413,1,0,0:0:0
200,152,78628,6,0,B|256:216|232:312,1,160,0|8,0:0|0:0,0:0:0
160,272,79271,1,0,0:0:0
368,256,79485,6,0,B|323:307|342:384,1,120,0|0,0:0|0:0,0:0:0
352,376,79913,2,0,B|248:368,1,80,8|0,0:0|0:0,0:0:0
160,272,80342,2,0,B|264:280,1,80,0|0,0:0|0:0,0:0:0
360,384,80770,2,0,B|227:374,1,120,8|8,0:0|0:0,0:0:0
224,360,81199,6,0,B|144:320|72:376,1,160,0|4,0:0|0:0,0:0:0
296,296,82056,2,0,B|376:256|448:312,1,160,0|4,0:0|0:0,0:0:0
256,192,82913,12,4,84628,0:0:0
256,192,96628,12,4,98342,0:0:0
416,208,98770,6,0,B|384:176|336:176,1,80,8|0,0:0|0:0,0:0:0
216,208,99199,2,0,B|248:240|296:240,1,80,0|0,0:0|0:0,0:0:0
416,208,99628,1,8,0:0:0
448,128,99842,1,0,0:0:0
360,272,100056,6,0,B|368:184|312:120,1,160,0|8,0:0|0:0,0:0:0
160,112,100699,1,0,0:0:0
128,184,100913,2,0,B|120:272|176:336,1,160,0|8,0:0|0:0,0:0:0
320,336,101556,2,0,B|336:376,2,40
360,272,101985,6,0,B|392:240|432:248,1,80,0|8,0:0|0:0,0:0:0
504,272,102413,1,0,0:0:0
320,336,102628,5,0,0:0:0
320,336,102842,1,0,0:0:0
312,208,103056,1,8,0:0:0
240,176,103270,2,0,B|200:184,1,40
168,192,103485,6,0,B|40:160,1,120
32,176,103913,2,0,B|16:216|32:256,1,80,8|0,0:0|0:0,0:0:0
168,192,104342,2,0,B|184:152|168:112,1,80,0|8,0:0|0:0,0:0:0
120,264,104770,1,8,0:0:0
120,264,104985,1,8,0:0:0
168,336,105199,6,0,B|328:312,1,160,4|8,0:0|0:0,0:0:0
344,232,105842,1,0,0:0:0
368,152,106056,6,0,B|504:128,1,120
496,136,106485,2,0,B|512:176|488:216,1,80,8|0,0:0|0:0,0:0:0
344,232,106913,2,0,B|256:216|224:312,1,160,0|8,0:0|0:0,0:0:0
138,331,107556,2,0,B|98:339,2,40
168,248,107985,1,0,0:0:0
94,199,108199,2,0,B|110:111,1,80,8|0,0:0|0:0,0:0:0
72,40,108628,6,0,B|112:128|208:104,1,160,0|4,0:0|0:0,0:0:0
448,192,109485,2,0,B|408:280|312:256,1,160,0|4,0:0|0:0,0:0:0
318,257,110128,1,0,0:0:0
208,240,110342,6,0,B|128:248,1,80
32,184,110770,2,0,B|112:176,1,80
224,96,111199,2,0,B|144:104,1,80
48,40,111628,2,0,B|120:32,4,40,0|0|0|0|4,0:0|0:0|0:0|0:0|0:0,0:0:0
352,32,112485,6,0,B|376:88|360:152,1,120,8|0,0:0|0:0,0:0:0
352,160,112913,2,0,B|272:168,1,80
232,80,113342,1,8,0:0:0
344,168,113556,2,0,B|168:184,1,160
104,144,114199,6,0,B|88:176|96:224,1,80,8|0,0:0|0:0,0:0:0
168,272,114628,2,0,B|176:312|216:336,1,80
296,304,115056,2,0,B|336:320|376:304,1,80,8|0,0:0|0:0,0:0:0
424,240,115485,6,0,B|464:192|464:128,1,120
456,120,115913,2,0,B|368:104,1,80,8|0,0:0|0:0,0:0:0
288,88,116342,1,0,0:0:0
288,88,116556,2,0,B|224:144|136:120,1,160,0|8,0:0|0:0,0:0:0
56,144,117199,6,0,B|48:64,1,80
139,120,117628,2,0,B|147:200,1,80,8|0,0:0|0:0,0:0:0
45,296,118056,2,0,B|37:216,1,80,0|8,0:0|0:0,0:0:0
128,272,118485,2,0,B|136:352,1,80,0|8,0:0|0:0,0:0:0
135,351,118913,6,0,B|200:360|264:328,1,120,4|0,0:0|0:0,0:0:0
264,328,119342,2,0,B|256:248,1,80,8|0,0:0|0:0,0:0:0
216,176,119770,1,0,0:0:0
264,104,119985,1,0,0:0:0
200,48,120199,1,8,0:0:0
304,184,120413,6,0,B|464:216,1,160
512,74,121056,1,8,0:0:0
440,128,121270,1,0,0:0:0
460,215,121485,1,0,0:0:0
460,215,121913,2,0,B|416:220|392:256,1,80,8|0,0:0|0:0,0:0:0
392,336,122342,6,0,B|344:264|248:264,1,160,4|8,0:0|0:0,0:0:0
120,48,123199,2,0,B|168:120|264:120,1,160,0|8,0:0|0:0,0:0:0
320,64,123842,1,0,0:0:0
403,79,124056,5,4,0:0:0
424,304,124485,1,8,0:0:0
200,336,124913,1,4,0:0:0
179,111,125342,1,8,0:0:0
256,192,125770,12,8,127056,0:0:0
344,272,127485,6,0,B|352:208|440:200|456:264,1,160,4|8,0:0|0:0,0:0:0
405,320,128128,1,0,0:0:0
288,184,128342,6,0,B|280:120|192:112|176:176,1,160,0|8,0:0|0:0,0:0:0
227,232,128985,1,0,0:0:0
360,80,129199,6,0,B|368:32|432:16|456:56,1,120
464,72,129628,1,8,0:0:0
416,135,129842,1,0,0:0:0
248,56,130056,5,0,0:0:0
208,48,130270,1,2,0:0:0
168,56,130484,1,0,0:0:0
136,80,130698,1,2,0:0:0
116,117,130913,6,0,B|24:136|24:240,1,160,0|8,0:0|0:0,0:0:0
72,312,131556,1,0,0:0:0
72,312,131770,2,0,B|152:296,1,80
232,185,132199,2,0,B|152:201,1,80,8|0,0:0|0:0,0:0:0
232,320,132628,2,0,B|312:304|312:304|336:304|352:328,1,120
344,336,133056,6,0,B|408:288,1,80,8|0,0:0|0:0,0:0:0
304,248,133485,2,0,B|352:184,1,80,0|8,0:0|0:0,0:0:0
232,184,133913,2,0,B|264:64,1,120,8|8,0:0|0:0,0:0:0
256,48,134342,6,0,B|296:128|392:112,1,160,4|8,0:0|0:0,0:0:0
344,32,134985,1,0,0:0:0
216,136,135199,6,0,B|176:216|80:200,1,160,0|8,0:0|0:0,0:0:0
128,120,135842,1,0,0:0:0
256,224,136056,6,0,B|280:288|360:296,1,120,0|0,0:0|0:0,0:0:0
392,288,136485,1,8,0:0:0
464,192,136699,1,0,0:0:0
368,48,136913,5,0,0:0:0
349,87,137128,1,2,0:0:0
353,131,137342,1,0,0:0:0
377,166,137556,1,2,0:0:0
416,184,137770,6,0,B|336:184|272:248,1,160,0|4,0:0|0:0,0:0:0
128,72,138628,2,0,B|208:72|272:136,1,160,0|4,0:0|0:0,0:0:0
312,224,139270,1,0,0:0:0
312,224,139485,6,0,B|304:264|320:312,1,80,8|0,0:0|0:0,0:0:0
447,290,139913,2,0,B|455:250|439:202,1,80,8|8,0:0|0:0,0:0:0
431,178,140235,2,0,B|367:162|314:193,1,120,0|8,0:0|0:0,0:0:0
344,320,140770,2,0,B|384:328|423:310,1,80,0|8,0:0|0:0,0:0:0
272,264,141199,6,0,B|176:288|208:232|112:256,1,160,4|8,0:0|0:0,0:0:0
152,328,141842,1,0,0:0:0
240,184,142056,6,0,B|331:161|299:217|395:193,1,160,0|8,0:0|0:0,0:0:0
352,120,142699,1,0,0:0:0
485,263,142913,6,0,B|424:248|432:280|368:272,1,120
344,280,143342,2,0,B|256:280,1,80,8|0,0:0|0:0,0:0:0
168,168,143770,5,0,0:0:0
128,165,143984,1,2,0:0:0
89,175,144198,1,0,0:0:0
54,195,144412,1,2,0:0:0
31,227,144628,6,0,B|120:240|144:328,1,160,0|8,0:0|0:0,0:0:0
208,272,145270,1,0,0:0:0
248,200,145485,2,0,B|240:120,1,80
328,24,145913,2,0,B|349:68|320:104,1,80,8|0,0:0|0:0,0:0:0
240,120,146342,6,0,B|120:96,1,120
112,88,146770,2,0,B|72:80|32:120,1,80,8|0,0:0|0:0,0:0:0
96,176,147199,2,0,B|144:168|176:208,1,80,0|8,0:0|0:0,0:0:0
120,264,147628,2,0,B|60:255|8:296,1,120,8|8,0:0|0:0,0:0:0
0,312,148056,6,0,B|24:152,1,160,4|8,0:0|0:0,0:0:0
208,80,148699,1,0,0:0:0
288,112,148913,6,0,B|264:272,1,160,0|8,0:0|0:0,0:0:0
80,344,149556,1,0,0:0:0
0,312,149770,6,0,B|24:176,1,120
32,176,150199,2,0,B|72:152|112:176,1,80,8|0,0:0|0:0,0:0:0
248,176,150628,5,0,0:0:0
234,222,150842,1,2,0:0:0
203,260,151056,1,0,0:0:0
159,279,151270,1,2,0:0:0
110,283,151485,6,0,B|200:292|252:356,1,160,0|4,0:0|0:0,0:0:0
484,181,152342,2,0,B|394:172|342:108,1,160,0|4,0:0|0:0,0:0:0
256,192,153199,12,4,154919,0:0:0
408,144,155387,6,0,B|344:152|304:200,1,120.000004577637
272,272,156359,1,0,0:0:0
272,272,156855,6,0,B|224:280|193:252,1,80
168,176,157568,2,0,B|104:152|48:184,1,124
256,192,158517,12,0,160955,0:0:0
