osu file format v10

[General]
AudioFilename: Ganbare! Koi no hana.mp3
AudioLeadIn: 1500
PreviewTime: 56356
Countdown: 0
SampleSet: Soft
StackLeniency: 0.7
Mode: 0
LetterboxInBreaks: 1

[Editor]
DistanceSpacing: 1.2
BeatDivisor: 4
GridSize: 8

[Metadata]
Title:Ganbare! Koi no Hana
TitleUnicode:Ganbare! Koi no Hana
Artist:Hatsuki Yura
ArtistUnicode:Hatsuki Yura
Creator:Kotone
Version:Normal
Source:Ganbare! Memekochan
Tags:La pucelle Seifuu meigetsu Seifuumeigetsu fanzhen0019 karenying kioukiou
BeatmapID:187955
BeatmapSetID:55359

[Difficulty]
HPDrainRate:4
CircleSize:4
OverallDifficulty:4
ApproachRate:6
SliderMultiplier:1.3
SliderTickRate:1

[Events]
//Background and Video events
0,0,"bg.jpg"
//Break Periods
2,84827,95578
//Storyboard Layer 0 (Background)
//Storyboard Layer 1 (Fail)
//Storyboard Layer 2 (Pass)
//Storyboard Layer 3 (Foreground)
//Storyboard Sound Samples
//Background Colour Transformations
3,100,163,162,255

[TimingPoints]
628,428.571428571429,4,2,1,60,1,0
628,-100,4,2,1,40,0,0
735,-100,4,2,1,60,0,0
7378,-100,4,2,1,40,0,0
7592,-100,4,2,1,60,0,0
10913,-100,4,2,1,40,0,0
14342,-100,4,2,1,60,0,0
26342,-100,4,1,1,40,0,0
28056,-100,4,2,1,60,0,0
40056,-100,4,1,1,40,0,0
41770,-100,4,2,1,60,0,0
42199,-100,4,2,1,50,0,0
42306,-100,4,2,1,60,0,0
55485,-100,4,1,1,50,0,0
57199,-100,4,2,1,70,0,1
62985,-100,4,1,1,50,0,1
64056,-100,4,2,1,70,0,1
69199,-100,4,1,1,50,0,1
70913,-100,4,2,1,70,0,1
76699,-100,4,1,1,50,0,1
77770,-100,4,2,1,70,0,1
82913,-100,4,1,1,50,0,1
84628,-100,4,2,1,60,0,0
110342,-100,4,1,1,40,0,0
112056,-100,4,2,1,60,0,0
125770,-100,4,1,1,40,0,0
127485,-100,4,2,1,70,0,1
133270,-100,4,1,1,50,0,1
134342,-100,4,2,1,70,0,1
139485,-100,4,1,1,50,0,1
141199,-100,4,2,1,70,0,1
146985,-100,4,1,1,50,0,1
148056,-100,4,2,1,70,0,1
153199,-100,4,1,1,50,0,1
154919,468.75,4,2,1,50,1,0
156325,-100,4,2,1,5,0,0
156359,500,4,2,1,50,1,0
156855,750,4,2,1,50,1,0
156855,-66.6666666666667,4,2,1,50,0,0
157230,666.666666666667,4,2,1,50,1,0
157568,750,4,2,1,5,1,0
157568,-66.6666666666667,4,2,1,50,0,0
157955,750,4,2,1,50,1,0
158330,-100,4,2,1,5,0,0

[Colours]
Combo1 : 243,233,139
Combo2 : 228,27,27
Combo3 : 170,227,242

[HitObjects]
178,322,628,1,4,0:0:0
56,281,1056,1,2,0:0:0
56,154,1485,1,0,0:0:0
178,115,1913,1,2,0:0:0
252,218,2342,2,0,B|284:232|319:226,1,65
355,300,2770,2,0,B|393:292|419:235|393:192,2,130,2|0|2,0:0|0:0|0:0,0:0:0
302,139,4056,5,2,0:0:0
153,57,4485,1,0,0:0:0
157,225,4913,2,0,B|128:284,2,65,2|0|2,0:0|0:0|0:0,0:0:0
241,78,5770,2,0,B|292:31|362:56,1,130,0|2,0:0|0:0,0:0:0
388,224,6628,2,0,B|337:271|266:245,1,130,0|2,0:0|0:0,0:0:0
216,177,7270,1,0,0:0:0
141,217,7485,6,0,B|101:283|156:341,2,130,4|2|0,0:0|0:0|0:0,0:0:0
78,60,8770,2,0,B|82:138,1,65,2|0,0:0|0:0,0:0:0
2,156,9199,2,0,B|-2:78,1,65
78,60,9628,2,0,B|134:20|201:45,1,130,2|0,0:0|0:0,0:0:0
293,187,10485,1,2,0:0:0
293,187,10699,1,0,0:0:0
293,187,10913,6,0,B|336:338,2,130,4|2|4,0:0|0:0|0:0,0:0:0
161,80,12199,2,0,B|182:155,1,65,2|0,0:0|0:0,0:0:0
256,192,12628,12,4,14342,0:0:0
114,90,14770,5,8,0:0:0
34,224,15199,1,2,0:0:0
87,280,15413,1,0,0:0:0
153,238,15628,2,0,B|195:228|211:167|179:130,1,130,8|2,0:0|0:0,0:0:0
114,90,16270,6,0,B|74:104|31:104,2,65,0|8|0,0:0|0:0|0:0,0:0:0
184,56,16913,2,0,B|247:40|312:56,1,130,2|8,0:0|0:0,0:0:0
404,182,17770,6,0,B|341:198|276:182,1,130,2|8,0:0|0:0,0:0:0
221,238,18413,2,0,B|224:280|241:324,2,65,0|2|0,0:0|0:0|0:0,0:0:0
187,167,19056,2,0,B|122:151|59:167,1,130,8|2,0:0|0:0,0:0:0
39,322,19913,5,4,0:0:0
193,345,20342,2,0,B|261:342|272:299,1,65,2|0,0:0|0:0,0:0:0
308,382,20770,2,0,B|371:341|350:258,1,130,8|4,0:0|0:0,0:0:0
443,141,21628,5,8,0:0:0
306,65,22056,2,0,B|240:44|175:66,1,130,2|8,0:0|0:0,0:0:0
173,221,22913,1,2,0:0:0
173,221,23128,1,0,0:0:0
173,221,23342,2,0,B|239:242|304:220,1,130,8|2,0:0|0:0,0:0:0
348,159,23985,2,0,B|445:174,2,65,0|8|0,0:0|0:0|0:0,0:0:0
270,151,24628,6,0,B|233:208|250:276,1,130,2|4,0:0|0:0,0:0:0
295,338,25270,1,0,0:0:0
327,268,25485,2,0,B|465:294,1,130,2|8,0:0|0:0,0:0:0
479,137,26342,6,0,B|460:108|428:101,3,65
350,85,27199,2,0,B|266:93,3,65
208,107,28056,6,0,B|164:128|153:186|188:227,1,130,4|8,0:0|0:0,0:0:0
247,177,28699,1,0,0:0:0
181,218,28913,2,0,B|164:311,1,65,2|0,0:0|0:0,0:0:0
239,317,29342,2,0,B|256:224,1,65,8|0,0:0|0:0,0:0:0
247,177,29770,6,0,B|223:139|170:128|132:156,2,130,2|8|2,0:0|0:0|0:0,0:0:0
310,319,31056,2,0,B|374:330,1,65,8|0,0:0|0:0,0:0:0
450,345,31485,6,0,B|456:300|425:257|376:253,1,130,2|8,0:0|0:0,0:0:0
256,155,32342,2,0,B|245:200|198:225|155:213,1,130,2|8,0:0|0:0,0:0:0
180,139,32985,1,0,0:0:0
232,81,33199,2,0,B|276:67|321:95|332:139,2,130,2|8|2,0:0|0:0|0:0,0:0:0
180,139,34270,1,0,0:0:0
114,95,34485,2,0,B|78:88|38:95,1,65,10|0,0:0|0:0,0:0:0
19,165,34913,6,0,B|30:305,1,130,4|8,0:0|0:0,0:0:0
96,335,35556,1,0,0:0:0
149,277,35770,2,0,B|212:252|276:274,1,130,2|8,0:0|0:0,0:0:0
277,352,36413,1,0,0:0:0
346,316,36628,2,0,B|410:338|472:312,2,130,2|8|0,0:0|0:0|0:0,0:0:0
295,168,37913,2,0,B|275:101,1,65,8|0,0:0|0:0,0:0:0
334,53,38342,6,0,B|372:67|393:119|376:163,1,130,0|4,0:0|0:0,0:0:0
178,331,39199,2,0,B|140:317|119:265|136:221,1,130,0|4,0:0|0:0,0:0:0
256,120,40056,6,0,B|256:56,2,65,0|0|0,1:0|0:0|1:0,1:0:0
217,188,40699,1,0,1:0:0
294,188,40913,2,0,B|337:207|348:262|320:300,1,130,0|0,1:0|1:0,1:0:0
256,256,41556,1,0,1:0:0
256,333,41770,6,0,B|215:341|169:302|176:255,1,130,4|8,0:0|0:0,0:0:0
217,188,42413,2,0,B|209:118,2,65,0|2|0,0:0|0:0|0:0,0:0:0
256,256,43056,2,0,B|222:317|144:304,2,130,8|2|8,0:0|0:0|0:0,0:0:0
293,187,44128,6,0,B|360:184,2,65,0|2|0,0:0|0:0|0:0,0:0:0
237,131,44770,1,8,0:0:0
312,109,44985,2,0,B|365:107|365:107|413:111|448:165|429:212,1,195,2|8,0:0|0:0,0:0:0
319,323,46056,6,0,B|210:327,1,65,2|0,0:0|0:0,0:0:0
254,325,46485,1,8,0:0:0
193,276,46699,2,0,B|135:305|64:272,1,130,2|0,0:0|0:0,0:0:0
71,195,47342,2,0,B|129:166|200:199,1,130,8|2,0:0|0:0,0:0:0
345,245,48199,1,10,0:0:0
400,99,48628,6,0,B|447:101|482:144|476:188,1,130,4|8,0:0|0:0,0:0:0
424,245,49270,1,0,0:0:0
345,245,49485,2,0,B|261:246,2,65,2|0|8,0:0|0:0|0:0,0:0:0
424,245,50128,5,2,0:0:0
308,140,50556,1,2,0:0:0
424,245,50985,2,0,B|464:224|480:175|459:131,1,130,2|0,0:0|0:0,0:0:0
419,65,51628,2,0,B|389:30|338:26|300:56,1,130,8|4,0:0|0:0,0:0:0
162,126,52485,5,8,0:0:0
316,147,52913,1,2,0:0:0
204,37,53342,1,8,0:0:0
231,190,53770,2,0,B|213:335,2,130,4|8|4,0:0|0:0|0:0,0:0:0
231,190,55056,1,8,0:0:0
360,102,55485,6,0,B|430:85,2,65
152,102,56342,2,0,B|82:85,2,65
109,252,57199,6,0,B|176:276|232:235,1,130,4|8,0:0|0:0,0:0:0
232,234,57842,1,0,0:0:0
297,276,58056,2,0,B|364:252|420:293,1,130,2|8,0:0|0:0,0:0:0
421,293,58699,1,0,0:0:0
476,238,58913,6,0,B|501:165|456:106,1,130,2|8,0:0|0:0,0:0:0
397,68,59556,1,0,0:0:0
336,116,59770,2,0,B|357:142|395:143,2,65,2|0|8,0:0|0:0|0:0,0:0:0
192,52,60628,6,0,B|119:27|60:72,1,130,2|8,0:0|0:0,0:0:0
23,130,61270,1,0,0:0:0
100,141,61485,2,0,B|132:206,2,65,2|0|8,0:0|0:0|0:0,0:0:0
23,130,62128,5,0,0:0:0
39,206,62342,2,0,B|94:328,1,130,2|8,0:0|0:0,0:0:0
166,350,62985,2,0,B|228:315|292:344,1,130
368,337,63628,2,0,B|400:268,1,65
434,210,64056,6,0,B|474:202|502:145|474:100,1,130,4|8,0:0|0:0,0:0:0
404,136,64699,1,0,0:0:0
326,129,64913,2,0,B|286:137|258:194|286:239,1,130,2|8,0:0|0:0,0:0:0
356,203,65556,1,0,0:0:0
404,136,65770,6,0,B|408:88|366:49|322:53,2,130,2|8|2,0:0|0:0|0:0,0:0:0
326,129,66842,2,0,B|262:131,2,65,2|8|0,0:0|0:0|0:0,0:0:0
302,203,67485,6,0,B|168:208,1,130,0|4,0:0|0:0,0:0:0
263,334,68342,2,0,B|397:329,1,130,0|4,0:0|0:0,0:0:0
457,187,69199,6,0,B|480:125,1,65
437,59,69628,2,0,B|372:28|309:40,1,130
257,97,70270,1,0,0:0:0
202,40,70485,2,0,B|140:28|75:59,1,130,0|4,0:0|0:0,0:0:0
136,202,71342,6,0,B|157:272,1,65,8|0,0:0|0:0,0:0:0
182,336,71770,2,0,B|143:356|85:336|77:282,1,130,2|8,0:0|0:0,0:0:0
104,135,72628,2,0,B|143:115|201:135|209:189,1,130,2|8,0:0|0:0,0:0:0
207,181,73270,1,0,0:0:0
276,218,73485,2,0,B|312:226|342:215,1,65,2|2,0:0|0:0,0:0:0
339,137,73913,2,0,B|303:129|273:140,1,65,8|0,0:0|0:0,0:0:0
207,181,74342,6,0,B|185:322,1,130,2|8,0:0|0:0,0:0:0
186,309,74985,1,0,0:0:0
260,336,75199,2,0,B|303:336|325:288,1,65,2|0,0:0|0:0,0:0:0
391,322,75628,2,0,B|417:288|393:241,1,65,8|0,0:0|0:0,0:0:0
478,249,76056,6,0,B|496:206|467:151|424:147,1,130,2|8,0:0|0:0,0:0:0
350,168,76699,2,0,B|309:164|280:109|298:66,1,130
386,28,77342,2,0,B|371:92,1,65
350,168,77770,6,0,B|342:208|284:231|243:208,1,130,4|8,0:0|0:0,0:0:0
179,164,78413,1,0,0:0:0
130,225,78628,2,0,B|156:256|218:248|243:209,1,130,2|8,0:0|0:0,0:0:0
278,138,79271,1,0,0:0:0
236,72,79485,6,0,B|175:34|105:70,2,130,2|8|2,0:0|0:0|0:0,0:0:0
278,138,80556,2,0,B|349:140,2,65,2|8|0,0:0|0:0|0:0,0:0:0
199,139,81199,6,0,B|127:186|178:282,1,130,0|4,0:0|0:0,0:0:0
301,328,82056,2,0,B|373:281|322:185,1,130,0|4,0:0|0:0,0:0:0
375,63,82913,6,0,B|444:57,2,65
301,90,83556,1,0,0:0:0
225,69,83770,2,0,B|155:87|76:67,2,130,0|0|4,0:0|0:0|0:0,0:0:0
256,192,96628,12,4,98342,0:0:0
195,215,98770,5,8,0:0:0
265,177,98985,1,0,0:0:0
331,218,99199,2,0,B|348:311,1,65,2|0,0:0|0:0,0:0:0
273,317,99628,2,0,B|256:224,1,65,8|0,0:0|0:0,0:0:0
265,177,100056,6,0,B|289:139|342:128|380:156,2,130,2|8|2,0:0|0:0|0:0,0:0:0
202,319,101342,2,0,B|138:330,1,65,8|0,0:0|0:0,0:0:0
62,345,101771,6,0,B|56:300|87:257|136:253,1,130,2|8,0:0|0:0,0:0:0
256,155,102628,2,0,B|267:200|314:225|357:213,1,130,2|8,0:0|0:0,0:0:0
332,139,103271,1,0,0:0:0
280,81,103485,2,0,B|236:67|191:95|180:139,2,130,2|8|2,0:0|0:0|0:0,0:0:0
332,139,104556,1,0,0:0:0
398,95,104771,2,0,B|434:88|474:95,1,65,10|0,0:0|0:0,0:0:0
493,165,105199,6,0,B|482:305,1,130,4|8,0:0|0:0,0:0:0
416,335,105842,1,0,0:0:0
363,277,106056,2,0,B|300:252|236:274,1,130,2|8,0:0|0:0,0:0:0
235,352,106699,1,0,0:0:0
166,316,106914,2,0,B|102:338|40:312,2,130,2|8|0,0:0|0:0|0:0,0:0:0
217,168,108199,2,0,B|237:101,1,65,8|0,0:0|0:0,0:0:0
178,53,108628,6,0,B|140:67|119:119|136:163,1,130,0|4,0:0|0:0,0:0:0
334,331,109485,2,0,B|372:317|393:265|376:221,1,130,0|4,0:0|0:0,0:0:0
256,120,110342,6,0,B|256:56,2,65,0|0|0,1:0|0:0|1:0,1:0:0
295,188,110985,1,0,1:0:0
218,188,111199,2,0,B|175:207|164:262|192:300,1,130,0|0,1:0|1:0,1:0:0
256,256,111842,1,0,1:0:0
256,333,112056,6,0,B|297:341|343:302|336:255,1,130,4|8,0:0|0:0,0:0:0
295,188,112699,2,0,B|303:118,2,65,0|2|0,0:0|0:0|0:0,0:0:0
256,256,113342,2,0,B|290:317|368:304,2,130,8|2|8,0:0|0:0|0:0,0:0:0
219,187,114414,6,0,B|152:184,2,65,0|2|0,0:0|0:0|0:0,0:0:0
275,131,115056,1,8,0:0:0
200,109,115271,2,0,B|147:107|147:107|99:111|64:165|83:212,1,195,2|8,0:0|0:0,0:0:0
193,323,116342,6,0,B|302:327,1,65,2|0,0:0|0:0,0:0:0
258,325,116771,1,8,0:0:0
319,276,116985,2,0,B|377:305|448:272,1,130,2|0,0:0|0:0,0:0:0
441,195,117628,2,0,B|383:166|312:199,1,130,8|2,0:0|0:0,0:0:0
167,245,118485,1,10,0:0:0
112,99,118914,6,0,B|65:101|30:144|36:188,1,130,4|8,0:0|0:0,0:0:0
88,245,119556,1,0,0:0:0
167,245,119771,2,0,B|251:246,2,65,2|0|8,0:0|0:0|0:0,0:0:0
88,245,120414,5,2,0:0:0
204,140,120842,1,2,0:0:0
88,245,121271,2,0,B|48:224|32:175|53:131,1,130,2|0,0:0|0:0,0:0:0
93,65,121914,2,0,B|123:30|174:26|212:56,1,130,8|4,0:0|0:0,0:0:0
350,126,122771,5,8,0:0:0
196,147,123199,1,2,0:0:0
308,37,123628,1,8,0:0:0
281,190,124056,2,0,B|299:335,2,130,4|8|4,0:0|0:0|0:0,0:0:0
281,190,125342,1,8,0:0:0
152,102,125771,6,0,B|82:85,2,65
360,102,126628,2,0,B|430:85,2,65
403,252,127485,6,0,B|336:276|280:235,1,130,4|8,0:0|0:0,0:0:0
280,234,128128,1,0,0:0:0
215,276,128342,2,0,B|148:252|92:293,1,130,2|8,0:0|0:0,0:0:0
91,293,128985,1,0,0:0:0
36,238,129199,6,0,B|11:165|56:106,1,130,2|8,0:0|0:0,0:0:0
115,68,129842,1,0,0:0:0
176,116,130056,2,0,B|155:142|117:143,2,65,2|0|8,0:0|0:0|0:0,0:0:0
320,52,130914,6,0,B|393:27|452:72,1,130,2|8,0:0|0:0,0:0:0
489,130,131556,1,0,0:0:0
412,141,131771,2,0,B|380:206,2,65,2|0|8,0:0|0:0|0:0,0:0:0
489,130,132414,5,0,0:0:0
473,206,132628,2,0,B|418:328,1,130,2|8,0:0|0:0,0:0:0
346,350,133271,2,0,B|284:315|220:344,1,130
144,337,133914,2,0,B|112:268,1,65
78,210,134342,6,0,B|38:202|10:145|38:100,1,130,4|8,0:0|0:0,0:0:0
108,136,134985,1,0,0:0:0
186,129,135199,2,0,B|226:137|254:194|226:239,1,130,2|8,0:0|0:0,0:0:0
156,203,135842,1,0,0:0:0
108,136,136056,6,0,B|104:88|146:49|190:53,2,130,2|8|2,0:0|0:0|0:0,0:0:0
186,129,137128,2,0,B|250:131,2,65,2|8|0,0:0|0:0|0:0,0:0:0
210,203,137771,6,0,B|344:208,1,130,0|4,0:0|0:0,0:0:0
249,334,138628,2,0,B|115:329,1,130,0|4,0:0|0:0,0:0:0
55,187,139485,6,0,B|32:125,1,65
75,59,139914,2,0,B|140:28|202:40,1,130
255,97,140556,1,0,0:0:0
309,40,140771,2,0,B|372:28|437:59,1,130,0|4,0:0|0:0,0:0:0
376,202,141628,6,0,B|355:272,1,65,8|0,0:0|0:0,0:0:0
330,336,142056,2,0,B|369:356|427:336|435:282,1,130,2|8,0:0|0:0,0:0:0
408,135,142914,2,0,B|369:115|311:135|303:189,1,130,2|8,0:0|0:0,0:0:0
304,181,143556,1,0,0:0:0
236,218,143771,2,0,B|200:226|170:215,1,65,2|2,0:0|0:0,0:0:0
173,137,144199,2,0,B|209:129|239:140,1,65,8|0,0:0|0:0,0:0:0
304,181,144628,6,0,B|327:322,1,130,2|8,0:0|0:0,0:0:0
325,309,145271,1,0,0:0:0
252,336,145485,2,0,B|209:336|187:288,1,65,2|0,0:0|0:0,0:0:0
121,322,145914,2,0,B|94:288|118:241,1,65,8|0,0:0|0:0,0:0:0
34,249,146342,6,0,B|16:206|45:151|88:147,1,130,2|8,0:0|0:0,0:0:0
162,168,146985,2,0,B|202:164|231:109|213:66,1,130
125,28,147628,2,0,B|141:92,1,65
162,168,148056,6,0,B|169:208|227:231|268:208,1,130,4|8,0:0|0:0,0:0:0
333,164,148699,1,0,0:0:0
381,223,148914,2,0,B|354:254|292:246|267:207,1,130,2|8,0:0|0:0,0:0:0
234,138,149557,1,0,0:0:0
276,72,149771,6,0,B|337:34|407:70,2,130,2|8|2,0:0|0:0|0:0,0:0:0
234,138,150842,2,0,B|163:140,2,65,2|8|0,0:0|0:0|0:0,0:0:0
313,139,151485,6,0,B|385:186|334:282,1,130,0|4,0:0|0:0,0:0:0
211,328,152342,2,0,B|139:281|190:185,1,130,0|4,0:0|0:0,0:0:0
137,63,153199,6,0,B|68:57,2,65
211,90,153842,1,0,0:0:0
287,69,154056,2,0,B|357:87|436:67,1,130
415,71,154699,1,0,0:0:0
415,71,154913,1,4,2:0:0
345,212,155387,6,0,B|376:286,1,65
315,326,155856,2,0,B|250:311|254:350|181:329,1,139
99,186,156855,6,0,B|54:220|72:285,1,97.50000371933
179,329,157568,2,0,B|246:293|212:215,1,101
256,192,158517,12,0,160955,0:0:0
