osu file format v10

[General]
AudioFilename: Ganbare! Koi no hana.mp3
AudioLeadIn: 1500
PreviewTime: 56356
Countdown: 0
SampleSet: Soft
StackLeniency: 0.7
Mode: 0
LetterboxInBreaks: 1

[Editor]
DistanceSpacing: 1
BeatDivisor: 4
GridSize: 32

[Metadata]
Title:Ganbare! Koi no Hana
TitleUnicode:Ganbare! Koi no Hana
Artist:Hatsuki Yura
ArtistUnicode:Hatsuki Yura
Creator:Kotone
Version:Easy
Source:Ganbare! Memekochan
Tags:La pucelle Seifuu meigetsu Seifuumeigetsu fanzhen0019 karenying kioukiou
BeatmapID:180096
BeatmapSetID:55359

[Difficulty]
HPDrainRate:3
CircleSize:3
OverallDifficulty:3
ApproachRate:4
SliderMultiplier:1
SliderTickRate:1

[Events]
//Background and Video events
0,0,"bg.jpg"
//Break Periods
2,84828,97022
//Storyboard Layer 0 (Background)
//Storyboard Layer 1 (Fail)
//Storyboard Layer 2 (Pass)
//Storyboard Layer 3 (Foreground)
//Storyboard Sound Samples
//Background Colour Transformations
3,100,163,162,255

[TimingPoints]
628,428.571428571429,4,2,1,60,1,0
628,-100,4,2,1,40,0,0
735,-100,4,2,1,60,0,0
7378,-100,4,2,1,40,0,0
7592,-100,4,2,1,60,0,0
10913,-100,4,2,1,40,0,0
14342,-100,4,2,1,60,0,0
26342,-100,4,1,1,40,0,0
28056,-100,4,2,1,60,0,0
28485,-100,4,1,1,50,0,0
28592,-100,4,2,1,60,0,0
40056,-100,4,1,1,40,0,0
41235,-100,4,1,1,40,0,0
41449,-100,4,1,1,40,0,0
41770,-100,4,2,1,60,0,0
42199,-100,4,1,1,50,0,0
42306,-100,4,2,1,60,0,0
45628,-100,4,1,1,50,0,0
45735,-100,4,2,1,60,0,0
46485,-100,4,1,1,50,0,0
46592,-100,4,2,1,60,0,0
52485,-100,4,1,1,50,0,0
52913,-100,4,2,2,60,0,0
53020,-100,4,1,1,50,0,0
53449,-100,4,2,1,60,0,0
55485,-100,4,1,1,50,0,0
57199,-100,4,2,1,70,0,1
60199,-100,4,1,1,60,0,1
60306,-100,4,2,1,70,0,1
63199,-100,4,1,1,50,0,1
64056,-100,4,2,1,60,0,1
64163,-100,4,1,1,60,0,1
64699,-100,4,2,1,70,0,1
65020,-100,4,1,1,60,0,1
65556,-100,4,2,1,70,0,1
65770,-100,4,2,1,70,0,1
70485,-100,4,1,1,50,0,1
70913,-100,4,2,1,70,0,1
71342,-100,4,1,1,60,0,1
71449,-100,4,2,1,70,0,1
73913,-100,4,1,1,60,0,1
74020,-100,4,2,1,70,0,1
76485,-100,4,1,1,60,0,1
77770,-100,4,2,1,70,0,1
78199,-100,4,1,1,60,0,1
78413,-100,4,2,1,70,0,1
82913,-100,4,1,1,50,0,1
84628,-100,4,2,1,70,0,0
98342,-100,4,2,1,60,0,0
98770,-100,4,1,1,50,0,0
98878,-100,4,2,1,60,0,0
102199,-100,4,1,1,50,0,0
102306,-100,4,2,1,60,0,0
105628,-100,4,1,1,50,0,0
105735,-100,4,2,1,60,0,0
107342,-100,4,1,1,50,0,0
107449,-100,4,2,1,60,0,0
110342,-100,4,1,1,40,0,0
112056,-100,4,2,1,60,0,0
112485,-100,4,1,1,50,0,0
112592,-100,4,2,1,60,0,0
115913,-100,4,1,1,50,0,0
116020,-100,4,2,1,60,0,0
120199,-100,4,1,1,50,0,0
120413,-100,4,2,1,60,0,0
122770,-100,4,1,1,50,0,0
123199,-100,4,2,1,60,0,0
123306,-100,4,1,1,50,0,0
123735,-100,4,2,1,60,0,0
125770,-100,4,1,1,50,0,0
127485,-100,4,2,1,70,0,1
130485,-100,4,1,1,60,0,1
130592,-100,4,2,1,70,0,1
133056,-100,4,1,1,60,0,1
133163,-100,4,2,1,70,0,1
134770,-100,4,1,1,60,0,1
134985,-100,4,2,1,70,0,1
135628,-100,4,1,1,60,0,1
135842,-100,4,2,1,70,0,1
139485,-100,4,1,1,50,0,1
141199,-100,4,2,1,70,0,1
141628,-100,4,1,1,60,0,1
141842,-100,4,2,1,70,0,1
142485,-100,4,1,1,60,0,1
142699,-100,4,2,1,70,0,1
146770,-100,4,1,1,60,0,1
147199,-100,4,1,1,50,0,1
148056,-100,4,2,1,70,0,1
148378,-100,4,1,1,60,0,1
148699,-100,4,2,1,70,0,1
153199,-100,4,1,1,60,0,1
154056,-100,4,1,1,40,0,1
154485,-100,4,2,1,70,0,1
154919,468.75,4,2,1,50,1,0
156359,500,4,2,1,50,1,0
156855,750,4,2,1,50,1,0
156855,-66.6666666666667,4,2,1,50,0,0
157230,666.666666666667,4,2,1,50,1,0
157568,750,4,2,1,5,1,0
157568,-66.6666666666667,4,2,1,50,0,0
157955,750,4,2,1,50,1,0
158330,-100,4,2,1,5,0,0

[Colours]
Combo1 : 243,233,139
Combo2 : 228,27,27
Combo3 : 170,227,242

[HitObjects]
76,127,627,5,4,0:0:0
68,226,1056,1,2,0:0:0
161,261,1485,1,0,0:0:0
223,182,1913,1,2,0:0:0
172,95,2342,2,0,B|210:56|264:74,1,100,0|2,0:0|0:0,0:0:0
343,134,3199,2,0,B|397:152|435:113,1,100,0|2,0:0|0:0,0:0:0
358,48,4056,6,0,B|407:134|365:244,1,200,0|2,0:0|0:0,0:0:0
313,326,5342,1,2,0:0:0
239,258,5770,2,0,B|198:265|172:244|172:244|102:269|42:243,2,200,2|2|4,0:0|0:0|0:0,0:0:0
310,187,7913,6,0,B|299:85,1,100,2|0,0:0|0:0,0:0:0
227,17,8770,1,2,0:0:0
204,114,9199,2,0,B|146:126|104:100,2,100,0|2|0,0:0|0:0|0:0,0:0:0
300,89,10485,6,0,B|358:77|400:103,1,100,2|4,0:0|0:0,0:0:0
329,289,11770,1,4,0:0:0
147,205,12627,1,4,0:0:0
55,164,14342,5,4,0:0:0
143,117,14770,2,0,B|197:107|246:148,1,100,8|2,0:0|0:0,0:0:0
256,239,15627,2,0,B|202:249|153:208,1,100,8|2,0:0|0:0,0:0:0
143,117,16485,2,0,B|208:30|322:56,1,200,8|10,0:0|0:0,0:0:0
399,116,17770,6,0,B|437:214,1,100,0|8,0:0|0:0,0:0:0
499,286,18628,1,2,0:0:0
438,365,19056,1,8,0:0:0
342,335,19485,1,2,0:0:0
339,235,19913,2,0,B|312:189|249:187,2,100,4|2|10,0:0|0:0|0:0,0:0:0
255,289,21199,5,4,0:0:0
165,244,21628,2,0,B|130:213|134:158|170:117|170:117|228:86,1,200,8|10,0:0|0:0,0:0:0
313,47,22913,1,2,0:0:0
304,146,23342,1,8,0:0:0
397,110,23770,2,0,B|454:123|487:81,1,100,2|10,0:0|0:0,0:0:0
410,16,24628,5,0,0:0:0
410,16,25056,2,0,B|396:228,1,200,4|8,0:0|0:0,0:0:0
416,313,26342,5,0,0:0:0
327,359,26770,1,0,0:0:0
249,295,27199,1,0,0:0:0
291,204,27628,1,0,0:0:0
191,214,28056,6,0,B|131:186|52:228|51:307,1,200,4|0,0:0|0:0,0:0:0
153,308,29342,1,8,0:0:0
251,290,29770,2,0,B|300:262|291:207,1,100,2|8,0:0|0:0,0:0:0
276,106,30628,2,0,B|253:54|197:57,1,100,0|8,0:0|0:0,0:0:0
192,157,31485,5,2,0:0:0
228,250,31913,1,8,0:0:0
328,248,32342,1,2,0:0:0
363,154,32770,2,0,B|481:146,2,100,8|2|8,0:0|0:0|0:0,0:0:0
263,161,34056,2,0,B|216:148|216:180|164:161,1,100,2|10,0:0|0:0,0:0:0
92,93,34913,5,4,0:0:0
67,189,35342,2,0,B|64:296,1,100,8|0,0:0|0:0,0:0:0
162,268,36199,2,0,B|195:308|252:311,2,100,8|2|8,0:0|0:0|0:0,0:0:0
171,168,37485,1,0,0:0:0
257,217,37913,2,0,B|326:217,1,50,8|0,0:0|0:0,0:0:0
357,217,38342,5,2,0:0:0
429,149,38770,2,0,B|424:108|406:83|370:73,1,100,6|0,0:0|0:0,0:0:0
303,1,39628,2,0,B|276:21|264:59|277:93,1,100,6|0,0:0|0:0,0:0:0
196,150,40485,6,0,B|205:207,1,50
213,248,40913,2,0,B|162:315|58:294,1,150
42,263,41770,6,0,B|-4:192|37:112,1,150,4|0,0:0|0:0,0:0:0
55,74,42628,2,0,B|158:50,1,100,0|8,0:0|0:0,0:0:0
201,138,43485,2,0,B|98:162,1,100,2|10,0:0|0:0,0:0:0
146,250,44342,2,0,B|129:297|66:310,1,100,0|8,0:0|0:0,0:0:0
150,370,45199,6,0,B|207:320|300:320,1,150,2|0,0:0|0:0,0:0:0
335,336,46056,2,0,B|481:294,2,150,2|2|10,0:0|0:0|0:0,0:0:0
302,241,47770,1,2,0:0:0
270,145,48199,1,10,0:0:0
236,50,48628,5,4,0:0:0
136,50,49056,1,8,0:0:0
63,119,49485,2,0,B|26:160|28:214,1,100,2|8,0:0|0:0,0:0:0
72,235,50128,2,0,B|77:335,1,100,2|2,0:0|0:0,0:0:0
174,313,50985,2,0,B|166:161,1,150,2|8,0:0|0:0,0:0:0
225,82,52056,6,0,B|331:55|423:106,2,200,4|0|4,0:0|0:0|0:0,0:0:0
303,266,54628,1,4,0:0:0
420,104,55485,6,0,B|364:68,2,50
425,203,56342,2,0,B|481:239,2,50
325,197,57199,6,0,B|266:192|235:238,1,100,4|8,0:0|0:0,0:0:0
223,333,58056,1,2,0:0:0
317,297,58485,1,8,0:0:0
325,197,58913,6,0,B|310:96,1,100,2|8,0:0|0:0,0:0:0
273,63,59556,1,0,0:0:0
226,44,59770,2,0,B|119:20|28:63,1,200,2|2,0:0|0:0,0:0:0
91,140,61056,1,8,0:0:0
36,223,61485,2,0,B|46:324,1,100,2|8,0:0|0:0,0:0:0
139,358,62342,5,2,0:0:0
177,265,62770,1,8,0:0:0
257,204,63199,1,0,0:0:0
356,208,63628,1,0,0:0:0
442,257,64056,6,0,B|472:290|466:335|431:359|381:346,1,150,4|0,0:0|0:0,0:0:0
336,332,64913,2,0,B|288:272|298:172,1,150,2|0,0:0|0:0,0:0:0
307,141,65770,5,2,0:0:0
366,60,66199,1,8,0:0:0
462,87,66628,1,2,0:0:0
465,186,67056,1,8,0:0:0
371,222,67485,6,0,B|322:251|259:235,1,100,0|6,0:0|0:0,0:0:0
209,162,68342,2,0,B|258:133|321:149,1,100,0|6,0:0|0:0,0:0:0
371,222,69199,2,0,B|336:323|208:333,1,200,2|2,0:0|0:0,0:0:0
129,285,70485,2,0,B|110:230,1,50
96,190,70913,6,0,B|72:100|151:59,1,150,4|0,0:0|0:0,0:0:0
195,53,71770,2,0,B|247:55|284:95,2,100,2|8|2,0:0|0:0|0:0,0:0:0
198,153,73056,1,8,0:0:0
290,191,73485,2,0,B|359:205|434:169|444:97,1,200,2|2,0:0|0:0,0:0:0
361,42,74770,5,8,0:0:0
263,64,75199,2,0,B|212:83|193:140,1,100,2|8,0:0|0:0,0:0:0
196,233,76056,2,0,B|194:302|268:352|344:322,1,200,2|0,0:0|0:0,0:0:0
418,262,77342,5,0,0:0:0
418,262,77556,1,0,0:0:0
418,262,77770,2,0,B|463:194|414:117,1,150,4|0,0:0|0:0,0:0:0
380,85,78628,1,2,0:0:0
283,60,79056,1,8,0:0:0
224,141,79485,1,2,0:0:0
288,217,79913,1,8,0:0:0
384,191,80342,2,0,B|438:194|472:151,1,100,2|8,0:0|0:0,0:0:0
480,51,81199,6,0,B|426:48|392:91,1,100,0|6,0:0|0:0,0:0:0
302,133,82056,2,0,B|242:125|208:82,1,100,0|6,0:0|0:0,0:0:0
300,37,82913,2,0,B|341:137|257:235,1,200
173,282,84199,1,0,0:0:0
175,181,84628,1,4,0:0:0
196,96,98342,6,0,B|146:76|80:99|53:156|67:211|67:211,1,200,4|0,0:0|0:0,0:0:0
165,193,99628,1,8,0:0:0
121,283,100056,2,0,B|172:304|216:278,1,100,2|8,0:0|0:0,0:0:0
310,242,100913,2,0,B|354:215|405:236,1,100,0|8,0:0|0:0,0:0:0
367,329,101770,6,0,B|319:251|362:134,1,200,2|0,0:0|0:0,0:0:0
346,36,103056,1,8,0:0:0
246,24,103485,1,2,0:0:0
196,110,103913,1,8,0:0:0
267,179,104342,2,0,B|248:227|272:228|256:280,1,100,2|10,0:0|0:0,0:0:0
163,312,105199,6,0,B|93:334|25:283|33:206,1,200,4|0,0:0|0:0,0:0:0
93,127,106485,1,8,0:0:0
132,218,106913,2,0,B|344:193,1,200
339,94,108199,2,0,B|388:104,1,50,8|0,0:0|0:0,0:0:0
437,113,108628,5,0,0:0:0
413,210,109056,1,6,0:0:0
508,181,109485,1,0,0:0:0
485,278,109913,1,6,0:0:0
413,210,110342,2,0,B|332:189|256:228,1,150
222,246,111199,2,0,B|175:269|114:254,1,100
52,186,112056,6,0,B|29:97|108:61,1,150,4|0,0:0|0:0,0:0:0
155,52,112913,1,0,0:0:0
244,97,113342,1,8,0:0:0
178,172,113770,1,2,0:0:0
88,126,114199,1,10,0:0:0
95,225,114628,2,0,B|121:275|176:271,1,100,2|8,0:0|0:0,0:0:0
269,234,115485,6,0,B|327:207|403:212|461:250,1,200,2|0,0:0|0:0,0:0:0
396,327,116770,1,8,0:0:0
296,332,117199,2,0,B|198:332,1,100,2|8,0:0|0:0,0:0:0
170,235,118056,2,0,B|268:235,1,100,2|10,0:0|0:0,0:0:0
292,137,118913,6,0,B|390:137,1,100,4|8,0:0|0:0,0:0:0
423,41,119770,2,0,B|510:77|483:185,1,150,2|2,0:0|0:0,0:0:0
401,213,120842,1,2,0:0:0
484,267,121270,2,0,B|452:311|397:322|348:296,1,150,2|8,0:0|0:0,0:0:0
282,222,122342,6,0,B|168:222|192:185|80:185,2,200,4|0|4,0:0|0:0|0:0,0:0:0
217,32,124913,1,4,0:0:0
87,185,125770,6,0,B|82:253,2,50
96,85,126628,2,0,B|101:17,2,50,0|0|0,0:0|0:0|0:0,0:0:0
183,132,127485,6,0,B|238:138|262:185,1,100,4|8,0:0|0:0,0:0:0
175,234,128342,2,0,B|175:289|132:318,1,100,2|8,0:0|0:0,0:0:0
70,239,129199,1,2,0:0:0
30,146,129628,1,8,0:0:0
100,74,130056,2,0,B|127:39|172:19|224:19|285:39,1,200,2|2,0:0|0:0,0:0:0
265,137,131342,6,0,B|320:150|357:112,1,100,8|2,0:0|0:0,0:0:0
449,73,132199,1,8,0:0:0
435,172,132628,2,0,B|381:197|332:267|351:339,1,200,2|0,0:0|0:0,0:0:0
260,378,133913,1,8,0:0:0
173,328,134342,6,0,B|95:346|70:252|122:225,1,150,4|0,0:0|0:0,0:0:0
138,197,135199,2,0,B|168:117|122:51,1,150,2|0,0:0|0:0,0:0:0
77,35,136056,5,2,0:0:0
3,102,136485,1,8,0:0:0
50,189,136913,1,2,0:0:0
148,172,137342,1,8,0:0:0
168,74,137770,6,0,B|220:52|267:73,1,100,0|6,0:0|0:0,0:0:0
269,172,138628,2,0,B|318:170|355:127,1,100,0|6,0:0|0:0,0:0:0
391,34,139485,2,0,B|441:44|471:101|466:161|424:197,1,200
342,249,140770,6,0,B|283:286,1,50
255,298,141199,2,0,B|184:327|104:289,1,150,4|0,0:0|0:0,0:0:0
81,249,142056,2,0,B|78:172|141:110,1,150,2|0,0:0|0:0,0:0:0
177,85,142913,5,2,0:0:0
270,49,143342,1,8,0:0:0
338,121,143770,1,2,0:0:0
279,202,144199,1,8,0:0:0
181,179,144628,2,0,B|147:220|169:273,1,100,2|8,0:0|0:0,0:0:0
249,331,145485,5,2,0:0:0
346,317,145913,1,8,0:0:0
416,245,146342,2,0,B|446:183|414:104|344:78,1,200,2|0,0:0|0:0,0:0:0
252,51,147628,5,0,0:0:0
252,51,147842,1,0,0:0:0
252,51,148056,2,0,B|172:35|105:74,1,150,4|0,0:0|0:0,0:0:0
68,104,148913,1,2,0:0:0
121,188,149342,2,0,B|102:290,2,100,8|2|8,0:0|0:0|0:0,0:0:0
210,144,150628,1,2,0:0:0
229,241,151056,6,0,B|280:255|339:227,1,100,8|0,0:0|0:0,0:0:0
375,144,151913,1,6,0:0:0
312,65,152342,2,0,B|261:51|202:79,1,100,0|6,0:0|0:0,0:0:0
156,155,153199,2,0,B|91:243|175:337,1,200
257,280,154485,1,2,0:0:0
337,337,154919,6,0,B|421:243|356:145,1,200,4|2,0:0|0:0,0:0:0
297,76,156359,1,0,0:0:0
256,192,156855,12,0,160955,0:0:0
