osu file format v13

[General]
AudioFilename: Winter.mp3
AudioLeadIn: 1500
PreviewTime: 78553
Countdown: 0
SampleSet: Soft
StackLeniency: 0.4
Mode: 0
LetterboxInBreaks: 0
WidescreenStoryboard: 0

[Editor]
DistanceSpacing: 1
BeatDivisor: 4
GridSize: 4
TimelineZoom: 1

[Metadata]
Title:Winter Bells Gasshou Version
TitleUnicode:Winter Bells♪ 合唱バージョン
Artist:Hatori Sora, Arisugawa Miyabi, Nanahara Kotomi & Sakaki Runa
ArtistUnicode:羽鳥空, 有栖川みや美, 七原ことみ & 榊るな
Creator:Gamu
Version:Mochi's Normal
Source:しろくまベルスターズ♪
Tags:Oyatsu Momochikun Sekai-nyan Sekai Shirokuma Bell Stars PULLTOP Grand Ending Theme christmas xmas Hoshina Nanami Tsukimori Ririka Hiinoki Suzuri Waniguchi Kirara Chorus
BeatmapID:550421
BeatmapSetID:232558

[Difficulty]
HPDrainRate:3.5
CircleSize:3.5
OverallDifficulty:3.5
ApproachRate:4.5
SliderMultiplier:1.12
SliderTickRate:1

[Events]
//Background and Video events
0,0,"BG.jpg",0,0
//Break Periods
//Storyboard Layer 0 (Background)
//Storyboard Layer 1 (Fail)
//Storyboard Layer 2 (Pass)
//Storyboard Layer 3 (Foreground)
//Storyboard Sound Samples
//Background Colour Transformations
3,100,163,162,255

[TimingPoints]
409,379.746835443038,4,2,1,50,1,0
409,-100,4,2,1,50,0,0
13890,-100,4,2,1,5,0,0
14554,333.333333333333,4,2,1,40,1,0
14554,-100,4,2,1,40,0,0
15220,333.333333333333,4,2,2,50,1,0
17886,-100,4,2,1,50,0,0
18053,-100,4,2,2,50,0,0
18553,-100,4,2,1,50,0,0
18719,-100,4,2,2,50,0,0
19219,-100,4,2,1,50,0,0
19386,-100,4,2,2,50,0,0
19886,-100,4,2,1,50,0,0
20053,-100,4,2,2,50,0,0
23219,-100,4,2,2,60,0,0
25886,-100,4,2,2,70,0,1
26053,-100,4,2,2,70,0,0
36053,-100,4,2,2,50,0,0
36553,-100,4,2,2,60,0,0
55219,-100,4,2,2,40,0,0
55386,-100,4,2,2,60,0,0
61886,-100,4,2,1,60,0,0
62886,-100,4,2,2,60,0,0
78553,-100,4,2,1,60,0,0
79219,-100,4,2,2,70,0,1
81886,-100,4,2,1,55,0,1
83553,-100,4,2,2,70,0,1
89219,-100,4,2,1,70,0,0
89886,-100,4,2,2,70,0,1
92553,-100,4,2,1,55,0,1
94219,-100,4,2,2,70,0,1
107053,-100,4,2,2,60,0,1
108553,-100,4,2,2,70,0,0
108886,-100,4,2,2,60,0,0
109219,-100,4,2,2,50,0,0
109553,-100,4,2,2,40,0,0
109886,-100,4,2,2,30,0,0
110219,-100,4,2,2,20,0,0
110553,-100,4,2,2,15,0,0
110886,-100,4,2,2,10,0,0
111219,-100,4,2,2,5,0,0

[Colours]
Combo1 : 142,199,255
Combo2 : 255,128,128
Combo3 : 128,255,255
Combo4 : 128,255,128
Combo5 : 255,187,255
Combo6 : 255,177,140

[HitObjects]
414,315,409,6,0,L|281:330,1,112,2|0,0:0|0:0,0:0:0:0:
350,226,1168,2,0,L|461:213,2,112,2|0|2,0:0|0:0|0:0,0:0:0:0:
238,237,2307,1,0,0:0:0:0:
127,252,2687,1,2,0:0:0:0:
144,141,3067,2,0,L|131:77,1,56,0|0,0:0|0:0,0:0:0:0:
167,41,3446,6,0,P|227:34|277:56,1,112,2|0,0:0|0:0,0:0:0:0:
371,108,4206,2,0,P|422:128|477:120,2,112,2|0|2,0:0|0:0|0:0,0:0:0:0:
274,164,5345,2,0,L|258:223,1,56,0|0,0:0|0:0,0:0:0:0:
212,249,5725,2,0,P|223:311|229:363,1,112,2|0,0:0|0:0,0:0:0:0:
339,342,6484,6,0,P|345:286|355:231,2,112,2|0|2,0:0|0:0|0:0,0:0:0:0:
448,368,7624,1,0,0:0:0:0:
490,264,8003,2,0,P|483:208|473:153,1,112,2|0,0:0|0:0,0:0:0:0:
395,72,8763,1,2,0:0:0:0:
285,94,9143,2,0,P|249:85|221:79,1,56,0|0,0:0|0:0,0:0:0:0:
179,57,9522,6,0,P|129:70|68:81,1,112,2|0,0:0|0:0,0:0:0:0:
112,184,10282,2,0,P|167:193|221:207,1,112,2|0,0:0|0:0,0:0:0:0:
313,270,11041,1,2,0:0:0:0:
352,166,11421,2,0,L|341:110,2,56,0|0|2,0:0|0:0|0:0,0:0:0:0:
413,260,12181,2,0,L|402:314,1,56,2|0,0:0|0:0,0:0:0:0:
256,192,12560,12,0,13890,0:0:0:0:
357,74,15220,6,0,P|373:182|380:209,1,112,4|2,1:2|0:0,0:0:0:0:
395,236,15720,1,0,0:0:0:0:
286,265,16053,1,2,0:0:0:0:
178,294,16386,2,0,B|86:286|86:286|43:274|43:221,1,168,4|2,1:2|0:0,0:0:0:0:
63,177,17053,2,0,P|70:129|46:72,1,112,4|4,1:2|1:2,0:0:0:0:
12,26,17553,1,4,1:3:0:0:
123,28,17886,6,0,P|184:36|236:44,1,112,6|2,1:2|0:0,0:0:0:0:
305,129,18553,2,0,P|360:120|415:113,1,112,2|2,0:0|0:0,0:0:0:0:
470,124,19053,1,4,1:2:0:0:
310,281,19719,2,0,P|254:273|199:265,1,112,4|4,1:2|1:2,0:0:0:0:
144,251,20219,2,0,L|152:313,2,56,0|0|4,0:0|0:0|1:2,0:0:0:0:
216,165,20886,6,0,L|223:109,1,56,2|0,0:0|0:0,0:0:0:0:
386,71,21553,2,0,L|378:15,1,56,4|4,1:2|1:2,0:0:0:0:
351,181,22219,2,0,L|358:236,1,56,2|4,0:0|1:2,0:0:0:0:
320,278,22553,2,0,L|336:334,2,56,2|4|0,0:0|1:2|0:0,0:0:0:0:
207,264,23219,6,0,P|156:240|101:240,1,112,4|8,1:2|0:0,0:0:0:0:
47,257,23719,1,4,1:2:0:0:
37,145,24053,1,8,0:0:0:0:
37,145,24219,2,0,L|27:20,2,112,4|0|2,1:2|0:0|1:2,0:0:0:0:
146,167,25219,2,0,L|150:111,2,56,2|2|0,1:2|1:2|1:2,0:0:0:0:
203,263,25886,6,0,P|261:253|328:233,1,112,4|8,1:2|0:0,0:0:0:0:
392,160,26553,2,0,P|447:169|501:184,1,112,0|8,1:0|0:0,0:0:0:0:
481,131,27053,2,0,L|471:15,1,112,4|0,1:2|0:0,0:0:0:0:
418,1,27553,1,8,0:0:0:0:
316,49,27886,2,0,P|262:64|206:73,1,112,0|8,1:0|0:0,0:0:0:0:
144,166,28553,6,0,P|159:219|168:275,2,112,4|8|0,1:2|0:0|1:0,0:0:0:0:
102,127,29386,2,0,L|45:115,2,56,0|8|4,1:0|0:0|1:2,0:0:0:0:
140,86,29886,2,0,L|256:70,1,112,0|8,1:0|0:0,0:0:0:0:
336,143,30553,2,0,L|446:158,1,112,0|8,1:0|0:0,0:0:0:0:
483,263,31219,6,0,P|485:323|454:373,2,112,4|8|0,1:2|0:0|1:0,0:0:0:0:
446,158,32219,2,0,L|384:149,2,56,8|4|0,0:0|1:2|1:0,0:0:0:0:
486,53,32886,1,8,0:0:0:0:
379,19,33219,2,0,P|330:35|277:62,1,112,0|8,1:0|0:0,0:0:0:0:
244,109,33719,6,0,P|190:91|141:65,1,112,4|2,1:2|1:2,0:0:0:0:
88,47,34219,2,0,L|98:178,1,112,10|2,1:2|1:2,0:0:0:0:
146,259,34886,2,0,P|185:268|211:270,1,56,10|4,1:2|1:2,0:0:0:0:
300,320,35386,2,0,P|296:347|289:374,2,56,2|2|6,1:2|1:2|1:2,0:0:0:0:
276,210,36053,2,0,P|268:182|265:155,1,56,0|0,1:3|1:0,0:0:0:0:
346,77,36553,6,0,B|402:60|470:35|470:35,2,112,4|8|0,1:2|0:0|1:0,0:0:0:0:
238,44,37553,1,8,0:0:0:0:
180,139,37886,2,0,B|129:123|61:98|79:105,1,112,0|8,1:0|0:0,0:0:0:0:
33,73,38386,2,0,L|54:200,1,112,0|0,1:0|1:0,0:0:0:0:
60,238,38886,1,8,0:0:0:0:
170,257,39219,6,0,L|151:367,2,112,0|12|0,1:0|0:0|1:0,0:0:0:0:
205,213,40053,2,0,P|254:197|279:198,1,56,4|8,0:0|0:0,0:0:0:0:
312,208,40386,2,0,P|361:224|386:223,1,56,0|2,0:0|1:2,0:0:0:0:
468,181,40886,1,10,0:0:0:0:
468,181,41053,2,0,L|453:299,1,112,2|2,1:2|1:2,0:0:0:0:
410,327,41553,2,0,P|359:348|290:333,1,112,10|0,0:0|1:0,0:0:0:0:
214,273,42219,6,0,P|159:265|107:286,2,112,8|0|8,0:0|1:0|0:0,0:0:0:0:
300,201,43219,2,0,P|307:146|286:94,1,112,0|8,1:0|0:0,0:0:0:0:
262,44,43719,2,0,L|393:63,1,112,0|0,1:0|1:0,0:0:0:0:
421,88,44219,2,0,L|476:80,1,56,8|0,0:0|1:0,0:0:0:0:
398,229,44886,6,0,P|343:232|299:200,1,112,12|0,0:0|1:0,0:0:0:0:
249,172,45386,2,0,L|193:179,1,56,4|8,0:0|0:0,0:0:0:0:
133,274,45886,2,0,B|78:280|46:307|46:307|6:275|18:233,2,168,2|2|10,1:2|1:2|0:0,0:0:0:0:
238,312,47219,5,4,1:2:0:0:
339,264,47553,1,8,0:0:0:0:
440,217,47886,2,0,L|432:104,1,112,0|8,1:0|0:0,0:0:0:0:
331,55,48553,2,0,L|323:166,1,112,0|8,1:0|0:0,0:0:0:0:
269,183,49053,2,0,P|203:199|138:201,1,112,0|0,1:0|1:0,0:0:0:0:
110,174,49553,1,8,0:0:0:0:
38,259,49886,6,0,P|42:314|56:368,1,112,0|8,1:0|0:0,0:0:0:0:
168,379,50553,2,0,P|223:374|277:360,1,112,0|8,1:0|0:0,0:0:0:0:
328,336,51053,2,0,L|386:344,1,56,0|0,0:0|1:0,0:0:0:0:
480,286,51553,1,8,0:0:0:0:
480,286,51719,2,0,P|464:230|470:176,1,112,0|0,1:0|1:0,0:0:0:0:
491,125,52219,2,0,L|483:60,1,56,8|4,0:0|1:2,0:0:0:0:
378,33,52719,6,0,L|371:88,1,56,0|8,1:0|0:0,0:0:0:0:
354,142,53053,1,2,0:0:0:0:
317,184,53219,2,0,P|272:189|210:162,1,112,0|8,1:0|0:0,0:0:0:0:
130,84,53886,2,0,P|80:60|24:63,1,112,0|8,1:0|0:0,0:0:0:0:
6,116,54386,2,0,P|22:172|28:234,1,112,0|0,1:0|1:0,0:0:0:0:
15,280,54886,1,8,0:0:0:0:
124,256,55219,6,0,B|209:243|209:243|243:252,2,112,4|12|0,0:0|0:0|1:0,0:0:0:0:
15,280,56219,1,8,0:0:0:0:
69,181,56553,2,0,L|132:171,1,56,4|0,1:2|1:0,0:0:0:0:
153,124,56886,2,0,L|216:114,2,56,8|4|8,0:0|1:2|0:0,0:0:0:0:
215,31,57553,2,0,L|278:21,1,56,0|8,1:0|0:0,0:0:0:0:
325,33,57886,6,0,P|355:94|354:140,1,112,6|8,1:2|0:0,0:0:0:0:
287,226,58553,2,0,P|289:281|316:329,2,112,2|8|2,1:2|0:0|1:2,0:0:0:0:
354,136,59553,1,8,0:0:0:0:
386,244,59886,2,0,L|505:227,1,112,2|8,0:0|0:0,0:0:0:0:
506,339,60553,6,0,L|395:354,1,112,2|8,1:2|0:0,0:0:0:0:
284,373,61219,1,2,1:2:0:0:
187,315,61553,2,0,P|140:304|124:302,1,56,8|2,0:0|0:0,0:0:0:0:
82,329,61886,2,0,P|63:275|60:207,1,112,2|10,1:2|0:0,0:0:0:0:
85,171,62386,2,0,P|103:118|108:62,1,112,2|0,1:2|1:0,0:0:0:0:
85,11,62886,6,0,L|206:32,2,112,8|6|8,0:0|1:2|0:0,0:0:0:0:
132,112,63886,2,0,L|253:133,1,112,2|10,1:2|0:0,0:0:0:0:
352,156,64553,1,2,1:2:0:0:
460,132,64886,2,0,P|472:85|465:18,2,112,8|2|8,0:0|0:0|0:0,0:0:0:0:
362,185,65886,6,0,B|348:268|348:268|353:302,1,112,2|8,1:2|0:0,0:0:0:0:
249,340,66553,2,0,B|235:257|235:257|240:223,1,112,2|8,1:2|0:0,0:0:0:0:
275,123,67219,1,2,1:2:0:0:
175,70,67553,1,10,0:0:0:0:
175,70,67719,2,0,P|121:88|55:86,1,112,2|0,1:2|1:0,0:0:0:0:
19,56,68219,2,0,P|40:113|39:168,1,112,8|6,0:0|1:2,0:0:0:0:
22,274,68886,5,8,0:0:0:0:
131,248,69219,2,0,L|251:268,1,112,2|8,1:2|0:0,0:0:0:0:
345,309,69886,1,2,1:2:0:0:
344,197,70219,2,0,L|233:178,2,112,8|2|8,0:0|1:2|0:0,0:0:0:0:
451,227,71219,5,2,1:2:0:0:
504,128,71553,2,0,P|509:78|487:11,1,112,12|2,0:0|1:2,0:0:0:0:
381,1,72219,2,0,P|376:51|398:118,1,112,12|2,0:0|1:2,0:0:0:0:
340,208,72886,2,0,P|284:212|231:195,1,112,12|2,0:0|1:2,0:0:0:0:
145,123,73553,1,12,0:0:0:0:
55,190,73886,6,0,P|59:267|66:325,1,112,6|8,1:2|0:0,0:0:0:0:
155,365,74553,2,0,B|258:350|258:350|303:368|329:366,2,168,10|8|8,0:0|0:0|0:2,0:0:0:0:
194,259,75886,2,0,L|262:249,1,56,10|0,0:0|1:0,0:0:0:0:
290,212,76219,6,0,P|312:165|308:105,1,112,8|6,0:0|1:2,0:0:0:0:
216,42,76886,2,0,P|194:89|198:149,1,112,8|10,0:0|0:0,0:0:0:0:
194,259,77553,1,0,1:0:0:0:
194,259,77719,2,0,L|321:244,1,112,14|14,0:0|0:0,0:0:0:0:
355,270,78219,1,14,0:0:0:0:
438,194,78553,6,0,L|452:130,1,56,2|0,1:2|1:0,0:0:0:0:
417,93,78886,2,0,L|431:29,1,56,8|8,1:2|1:2,0:0:0:0:
381,8,79219,2,0,P|327:27|265:36,1,112,4|8,1:2|0:0,0:0:0:0:
230,72,79719,2,0,P|182:57|122:44,1,112,2|0,0:0|0:0,0:0:0:0:
66,37,80219,1,8,0:0:0:0:
44,147,80553,6,0,P|59:195|71:254,1,112,0|8,1:0|0:0,0:0:0:0:
153,331,81219,1,0,1:0:0:0:
257,291,81553,2,0,L|317:298,1,56,8|0,0:0|0:0,0:0:0:0:
368,302,81886,1,2,1:2:0:0:
473,263,82219,1,8,0:0:0:0:
467,150,82553,1,2,1:2:0:0:
358,122,82886,1,8,0:0:0:0:
307,221,83219,6,0,L|192:239,1,112,2|8,1:2|0:0,0:0:0:0:
145,262,83719,2,0,P|118:211|121:146,1,112,2|8,0:0|0:0,0:0:0:0:
129,104,84219,1,8,0:0:0:0:
214,31,84553,2,0,L|324:48,1,112,4|8,1:2|0:0,0:0:0:0:
425,97,85219,1,0,1:0:0:0:
460,203,85553,2,0,P|470:244|473:267,1,56,8|0,0:0|0:0,0:0:0:0:
455,311,85886,6,0,P|391:301|319:298,1,112,0|8,1:0|0:0,0:0:0:0:
247,239,86553,2,0,P|183:249|111:252,2,112,0|8|4,1:0|0:0|1:2,0:0:0:0:
317,151,87553,1,8,0:0:0:0:
317,151,87719,2,0,L|325:40,1,112,4|0,0:0|0:0,0:0:0:0:
371,7,88219,1,12,0:0:0:0:
212,62,88719,2,0,L|222:127,1,56,8|8,0:0|0:0,0:0:0:0:
219,229,89219,5,2,1:2:0:0:
219,229,89386,2,0,P|171:223|152:214,2,56,8|8|8,0:0|0:0|0:0,0:0:0:0:
271,208,89886,2,0,P|335:198|402:199,1,112,4|8,1:2|0:0,0:0:0:0:
422,235,90386,2,0,L|404:116,1,112,0|0,0:0|0:0,0:0:0:0:
417,69,90886,1,8,0:0:0:0:
309,36,91219,6,0,P|237:36|193:50,1,112,0|8,1:0|0:0,0:0:0:0:
149,147,91886,2,0,P|221:147|265:133,1,112,0|8,1:0|0:0,0:0:0:0:
311,116,92386,2,0,L|303:180,1,56,0|2,0:0|1:2,0:0:0:0:
251,270,92886,1,8,0:0:0:0:
150,319,93219,1,2,1:2:0:0:
248,372,93553,2,0,B|275:356|275:356|309:380|382:357,1,112,8|2,0:0|1:2,0:0:0:0:
401,264,94219,5,8,0:0:0:0:
401,264,94386,2,0,P|401:216|384:152,1,112,2|8,0:0|0:0,0:0:0:0:
417,108,94886,2,0,P|361:106|307:92,1,112,8|4,0:0|1:2,0:0:0:0:
214,32,95553,2,0,P|160:17|104:16,1,112,8|0,0:0|1:0,0:0:0:0:
34,103,96219,2,0,P|65:115|89:119,1,56,8|0,0:0|0:0,0:0:0:0:
126,159,96553,6,0,P|148:218|154:279,1,112,0|8,1:0|0:0,0:0:0:0:
246,329,97219,2,0,P|253:273|274:221,1,112,0|8,1:0|0:0,0:0:0:0:
367,159,97886,1,4,1:2:0:0:
451,85,98219,2,0,L|510:76,1,56,8|4,0:0|1:2,0:0:0:0:
423,1,98719,2,0,L|367:9,1,56,0|12,1:0|0:0,0:0:0:0:
250,130,99386,1,10,0:0:0:0:
250,130,99553,2,0,L|171:122,1,56,10|10,0:0|0:0,0:0:0:0:
138,116,99886,1,10,0:0:0:0:
32,77,100219,1,10,1:2:0:0:
15,187,100553,6,0,P|24:249|52:299,1,112,4|8,1:2|0:0,0:0:0:0:
148,339,101219,2,0,P|197:314|253:307,1,112,0|8,1:0|0:0,0:0:0:0:
306,325,101719,2,0,P|361:318|411:293,1,112,0|0,1:0|1:0,0:0:0:0:
447,250,102219,1,8,0:0:0:0:
405,145,102553,2,0,P|349:151|299:176,1,112,0|8,1:0|0:0,0:0:0:0:
199,227,103219,6,0,P|174:177|167:121,2,112,0|8|0,1:0|0:0|1:0,0:0:0:0:
258,322,104219,1,8,0:0:0:0:
258,322,104386,2,0,L|377:308,1,112,0|0,1:0|1:0,0:0:0:0:
390,360,104886,2,0,L|509:346,1,112,8|0,0:0|1:0,0:0:0:0:
478,237,105553,1,8,0:0:0:0:
454,127,105886,5,4,1:2:0:0:
356,72,106219,2,0,P|283:71|239:89,1,112,8|0,0:0|1:2,0:0:0:0:
214,191,106886,1,8,0:0:0:0:
214,191,107053,2,0,P|160:207|105:203,2,112,4|4|4,0:0|0:0|0:0,0:0:0:0:
316,146,108053,2,0,L|305:64,2,56,8|0|0,0:3|1:0|0:0,0:0:0:0:
256,192,108553,12,0,111219,0:0:0:0:
