osu file format v9

[General]
AudioFilename: BMS - encore _ Hate (BGA S.P.S.B.).mp3
AudioLeadIn: 3000
PreviewTime: 89638
Countdown: 0
SampleSet: Soft
StackLeniency: 0.7
Mode: 0
LetterboxInBreaks: 1

[Editor]
DistanceSpacing: 1.1
BeatDivisor: 2
GridSize: 4

[Metadata]
Title:encore
Artist:Hate+
Creator:Copter-kun
Version:Hyper
Source:BOF2009
Tags:BMS IDM

[Difficulty]
HPDrainRate:5
CircleSize:4
OverallDifficulty:5
ApproachRate:8
SliderMultiplier:1.6
SliderTickRate:1

[Events]
//Background and Video events
0,0,"aaaaaaaa.jpg"
Video,-3000,"encore_BGA.avi"
//Break Periods
2,40681,50575
2,78272,87081
//Storyboard Layer 0 (Background)
//Storyboard Layer 1 (Fail)
//Storyboard Layer 2 (Pass)
//Storyboard Layer 3 (Foreground)
//Storyboard Sound Samples
//Background Colour Transformations
3,100,163,162,255

[TimingPoints]
0,361.44578313253,4,2,0,70,1,0
34698,-100,4,1,0,50,0,0
51325,-100,4,1,0,70,0,0
75361,-100,4,2,0,60,0,0
87831,-100,4,1,0,70,0,0
89638,-100,4,1,0,80,0,1
112771,-100,4,1,0,20,0,0
118373,-100,4,2,0,5,0,0

[Colours]
Combo1 : 128,128,128
Combo2 : 192,192,192

[HitObjects]
32,136,0,2,0,B|56:204|148:208|204:144|164:76,1,240
80,60,722,2,0,B|168:296,1,240,8|0
252,284,1445,2,0,B|192:128,2,160,0|0|2
48,340,2891,6,0,B|-20:300|-12:224|52:176|120:224,1,240
200,192,3614,2,0,B|268:232|260:308|196:356|128:308,1,240,8|0
120,220,4337,2,0,B|80:132|132:60,2,160,0|0|2
440,76,5783,6,0,B|440:164,2,80
356,108,6325,2,0,B|356:196,2,80,0|8|0
276,144,6867,2,0,B|276:232,1,80
348,276,7228,2,0,B|320:336|236:340|212:284|176:236|112:232|68:292,1,320,0|2
424,308,8674,6,0,B|496:344,2,80
336,308,9216,2,0,B|264:344,2,80,0|8|0
376,228,9759,2,0,B|376:144,1,80
320,80,10120,2,0,B|280:80,7,40,2|0|2|0|2|0|2|0
268,80,10843,1,2
256,80,10933,1,0
244,80,11024,1,2
232,80,11114,1,0
220,80,11204,1,2
208,80,11295,1,0
196,80,11385,1,2
184,80,11475,1,0
172,80,11566,6,0,B|116:148|176:232,2,160,4|0|8
336,144,12650,2,0,B|424:144,1,80
460,220,13012,2,0,B|436:324|316:268,2,160,0|0|8
396,56,14096,1,0
228,112,14457,6,0,B|60:112,2,160,0|0|8
256,196,15361,2,0,B|256:280,2,80
316,132,15903,2,0,B|380:60|464:124,2,160,0|0|8
360,304,16987,1,0
360,304,17168,1,0
272,320,17349,6,0,B|136:224,2,160,0|0|8
400,200,18433,2,0,B|400:116,1,80
320,160,18795,2,0,B|320:244,2,80
160,88,19518,2,0,B|180:132|144:180|88:176|56:132,1,160,8|0
52,316,20240,6,0,B|120:356|120:356|196:324,1,160
252,256,20783,1,0
317,324,20963,2,0,B|392:356|392:356|460:316,1,160,8|0
436,232,21506,1,0
376,168,21686,2,0,B|336:144|300:168,1,80
212,168,22048,2,0,B|172:144|136:168,1,80
76,232,22409,1,8
76,232,22590,1,0
76,232,22771,1,0
76,232,22951,1,0
144,288,23132,6,0,B|224:288,1,80
292,232,23493,1,0
356,172,23674,2,0,B|444:172,1,80,0|8
492,240,24036,2,0,B|520:280|492:316,1,80
408,336,24397,1,0
336,284,24578,2,0,B|260:216|327:144,2,160,0|0|8
164,328,25662,1,0
48,196,26024,6,0,B|60:148|108:152,1,80
164,216,26385,2,0,B|152:264|104:260,1,80,0|0
128,344,26746,2,0,B|224:336|248:244,1,160,8|0
288,176,27289,1,0
216,128,27469,2,0,B|184:88|216:56,1,80
296,56,27831,2,0,B|328:88|296:128,1,80
256,208,28192,1,8
412,292,28554,1,0
412,292,28734,1,0
336,332,28915,6,0,B|280:272|328:180,1,160
256,132,29457,1,0
185,183,29638,2,0,B|232:272|176:332,1,160,8|0
104,280,30180,1,0
56,204,30361,2,0,B|9:115|65:55,2,160,0|0|8
176,76,31445,2,0,B|256:76,1,80
256,164,31807,6,0,B|248:220|248:220|264:256|264:256|256:320,2,160,0|0|8
328,112,32710,2,0,B|424:112|424:112|424:112,2,80,0|8|8
372,188,33253,2,0,B|356:240|404:276,1,80,8|0
424,288,33524,2,0,B|432:332|388:360,1,80,8|0
352,340,33795,2,0,B|272:340,1,80,8|8
232,320,34066,2,0,B|200:276|232:244,1,80,8|0
256,212,34337,2,2,B|256:180,5,20,10|2|2|2|2|2
328,120,34698,6,0,B|384:152|448:112,1,120
460,100,35060,1,0
484,184,35240,2,0,B|456:228|500:272,1,80,0|8
328,336,35783,1,0
328,336,35963,1,0
256,288,36144,2,0,B|256:232,3,40
256,204,36506,2,0,B|256:184,3,20
176,108,36867,1,0
212,28,37048,1,0
300,28,37228,1,0
336,108,37409,1,0
356,196,37590,6,0,B|384:240,2,40,0|0|8
424,140,37951,1,8
464,220,38132,1,8
464,220,38222,1,0
464,220,38313,2,0,B|464:284|464:284|448:300,1,80,8|0
384,352,38674,2,0,B|320:352|320:352|304:336,1,80,8|0
236,288,39036,5,0
160,336,39216,1,0
92,280,39397,1,0
20,332,39578,1,0
16,244,39759,1,0
64,168,39939,1,0
8,100,40120,2,0,B|4:64,8,20
256,192,51325,12,0,52048
196,164,52409,6,0,B|156:244|56:204,1,160
40,120,52951,2,0,B|80:40|180:80,1,160
264,100,53493,2,0,B|432:100,1,160
460,180,54036,2,0,B|292:180,1,160
256,256,54578,1,0
116,148,54939,6,0,B|88:112|108:68,2,80
196,188,55481,2,0,B|241:181|269:221,2,80,0|8|0
124,240,56024,2,0,B|106:282|58:286,1,80
128,344,56385,1,0
208,308,56566,1,0
292,328,56746,1,0
372,292,56927,1,0
456,312,57108,2,0,B|484:268|456:232,1,80
388,116,57469,2,0,B|360:160|388:196,1,80
312,56,57831,5,0
312,56,58012,2,0,B|280:136|176:112,1,160
112,52,58554,2,0,B|56:144|144:196,1,160,8|0
216,228,59096,1,0
296,268,59277,2,0,B|464:268,1,160
488,188,59819,2,0,B|320:188,1,160
284,112,60361,1,0
116,64,60722,6,0,B|44:132|112:220,1,160
168,268,61265,2,0,B|248:268,1,80,0|8
408,336,61626,2,0,B|328:336,1,80
452,260,61987,1,0
396,48,62168,5,0
416,136,62349,1,0
328,152,62530,1,0
304,68,62710,1,0
208,68,62891,1,0
184,152,63071,1,0
96,136,63252,1,0
116,48,63433,1,0
96,136,63614,6,0,B|40:216|104:292,1,160
97,283,64337,1,8
160,348,64518,1,0
236,304,64699,1,0
224,216,64879,1,0
136,204,65060,2,0,B|160:116|264:124,1,160
257,123,65783,1,8
344,136,65963,1,0
496,88,66144,1,0
409,75,66324,1,0
444,204,66506,6,0,B|456:232,8,20,0|0|0|0|0|0|0|0|8
332,340,67228,2,0,B|292:356|292:356|256:340,1,80
120,288,67590,2,0,B|160:272|160:272|196:288,1,80,8|0
264,236,67951,1,0
264,236,68042,1,0
264,236,68132,1,0
328,176,68313,2,0,B|416:176,1,80
444,256,68674,1,8
444,256,68855,1,0
400,332,69036,1,0
400,332,69216,1,0
444,256,69397,5,0
440,168,69578,2,0,B|454:117|431:75|384:60|340:89,1,160
308,160,70120,2,0,B|144:160,1,160,8|0
148,160,70662,1,0
200,232,70843,2,0,B|164:252|144:296|160:344|200:364,1,160
313,362,71385,2,0,B|352:344|368:296|348:252|312:232,1,160
256,300,71927,1,8
256,300,72108,1,0
328,152,72289,6,0,B|308:68,2,80
404,196,72831,2,0,B|412:228,4,20
384,64,73192,2,0,B|296:64,1,80,0|8
208,64,73554,2,0,B|120:64,1,80
72,132,73915,1,0
72,132,74006,1,0
72,132,74096,2,0,B|68:304,1,160,0|8
152,324,74638,1,0
232,288,74819,1,0
216,200,74999,1,0
136,232,75180,1,0
128,56,75542,6,0,B|368:44,1,240,2|2
384,328,76626,2,0,B|144:340,1,240,2|2
256,192,77710,1,2
256,192,78072,1,0
200,244,87831,6,0,B|172:208|200:168,1,80
312,140,88192,2,0,B|340:176|312:216,1,80
368,328,88554,1,0
272,288,88734,1,0
192,352,88915,1,0
104,296,89096,1,0
40,216,89277,2,0,B|20:172,3,40
40,140,89638,6,0,B|112:88|196:128,1,160
256,192,90180,1,0
320,258,90361,2,0,B|400:296|472:244,1,160,8|0
496,160,90903,1,0
448,88,91084,2,0,B|432:40,3,40,2|0|2|0
392,36,91445,2,0,B|348:40,3,40,2|0|2|0
320,68,91807,2,0,B|304:152,1,80,10|0
224,112,92168,2,0,B|208:196,1,80
80,104,92530,6,0,B|128:184|72:264,1,160
140,316,93072,1,0
216,272,93253,2,0,B|300:272,3,80,8|0|0|0
348,200,93975,2,0,B|348:152|388:128|432:120|464:168,1,160
164,184,94698,2,0,B|164:232|124:256|80:264|48:216,1,160,8|0
108,52,95421,6,0,B|184:36|184:36|272:48,1,160
308,124,95963,1,0
296,212,96144,2,0,B|296:296,1,80,8|0
216,252,96506,2,0,B|216:172,1,80
120,120,96867,1,2
116,132,96957,1,0
112,144,97048,1,2
108,156,97138,1,0
104,168,97228,2,0,B|88:216,3,40,2|0|2|0
84,216,97590,2,0,B|40:308|128:352,1,160,10|0
196,296,98132,1,0
204,296,98222,1,0
212,296,98313,6,0,B|296:296,1,80
448,252,98674,2,0,B|368:252,1,80
276,180,99036,2,0,B|228:100|300:36,1,160,8|8
344,112,99578,1,8
352,200,99759,2,0,B|300:264,1,80,8|8
160,248,100120,2,0,B|212:312,1,80,8|8
388,276,100481,2,0,B|336:340,1,80,8|8
120,320,100842,2,0,B|172:384,1,80,8|8
32,332,101204,6,0,B|32:260|32:260|16:240|16:240|16:168,1,160
92,104,101746,1,0
168,176,101927,2,0,B|240:220|328:160,1,160,8|0
380,84,102469,1,0
448,164,102650,1,2
448,176,102740,1,0
448,188,102831,1,2
448,200,102921,1,0
448,212,103012,2,0,B|448:264,3,40,2|0|2|0
448,264,103373,2,0,B|400:336,3,80,10|0|0|0
328,284,104096,6,0,B|292:312|252:288,1,80
188,232,104457,1,0
152,152,104638,2,0,B|124:116|148:76,1,80
224,36,104999,1,0
284,100,105180,2,0,B|368:100,1,80
452,100,105542,1,0
424,184,105722,2,0,B|424:272,1,80
360,324,106084,1,0
280,288,106265,2,0,B|228:356|136:312,1,160
80,244,106807,1,0
76,232,106897,1,0
72,220,106987,6,0,B|80:128|184:128,1,160
256,176,107530,1,0
208,252,107710,2,0,B|140:304,1,80,8|0
304,252,108072,2,0,B|372:304,1,80
448,264,108433,1,2
452,252,108524,1,0
456,240,108614,1,2
456,228,108704,1,0
452,216,108795,2,0,B|428:176,3,40,2|0|2|0
424,172,109156,6,0,B|364:92|268:152,1,160,2|0
282,143,109698,1,0
200,172,109879,2,0,B|96:180,1,80
316,256,110421,2,0,B|420:264,1,80
256,344,110783,1,0
176,308,110963,1,0
92,332,111144,1,0
44,260,111325,2,0,B|28:228,4,20
56,172,111686,1,0
108,100,111867,2,0,B|136:100,11,20
152,100,112409,2,0,B|180:100,9,20
256,192,113855,12,0,118373
