osu file format v14

[General]
AudioFilename: Qubism.mp3
AudioLeadIn: 0
PreviewTime: 88356
Countdown: 1
SampleSet: Soft
StackLeniency: 0.7
Mode: 0
LetterboxInBreaks: 1
WidescreenStoryboard: 0

[Editor]
DistanceSpacing: 0.6
BeatDivisor: 3
GridSize: 4
TimelineZoom: 1.499999

[Metadata]
Title:Qubism
TitleUnicode:Qubism
Artist:Hate vs Brilliance
ArtistUnicode:Hate vs Brilliance
Creator:BluOxy
Version:INFINITE
Source:SOUND VOLTEX II -infinite infection-
Tags:sdvx konami FLOOR Quark
BeatmapID:726070
BeatmapSetID:327107

[Difficulty]
HPDrainRate:7
CircleSize:4
OverallDifficulty:7
ApproachRate:9.4
SliderMultiplier:1.7
SliderTickRate:1

[Events]
//Background and Video events
0,0,"16825894_p9.jpg",0,0
//Break Periods
//Storyboard Layer 0 (Background)
//Storyboard Layer 1 (Fail)
//Storyboard Layer 2 (Pass)
//Storyboard Layer 3 (Foreground)
//Storyboard Sound Samples

[TimingPoints]
357,333.333333333333,4,2,2,80,1,0
357,-100,4,2,2,80,0,0
1356,-50,4,2,2,80,0,0
1690,-100,4,2,2,80,0,0
7023,-100,4,1,1,80,0,0
9023,-125,4,1,1,80,0,0
9690,-100,4,1,1,80,0,0
11690,-83.3333333333333,4,1,1,80,0,0
12023,-71.4285714285714,4,1,1,80,0,0
12356,-100,4,1,1,80,0,0
14356,-125,4,1,1,80,0,0
15023,-100,4,1,1,80,0,0
39023,-100,4,2,1,80,0,0
42690,-75.7575757575758,4,2,1,80,0,0
43023,-100,4,2,1,80,0,0
43690,-62.5,4,2,1,80,0,0
44023,-128.205128205128,4,2,1,80,0,0
44356,-55.5555555555556,4,2,1,80,0,0
44690,-100,4,2,1,80,0,0
46023,-128.205128205128,4,2,1,80,0,0
46690,-100,4,2,1,80,0,0
47690,-62.5,4,2,1,80,0,0
47856,-100,4,2,1,80,0,0
49023,-100,4,2,1,80,0,0
49690,-100,4,1,1,80,0,0
50023,-100,4,2,1,80,0,1
68356,-62.5,4,2,1,80,0,1
69690,-158.730158730159,4,2,1,80,0,0
69856,-158.730158730159,4,2,1,80,0,0
77690,-121.951219512195,4,2,1,80,0,0
80356,-109.89010989011,4,2,1,80,0,0
81023,-100,4,2,1,80,0,0
81690,-100,4,2,1,60,0,0
84356,-100,4,2,1,70,0,0
85690,-100,4,2,1,40,0,0
86023,-100,4,2,1,50,0,0
86356,-100,4,2,1,60,0,0
86690,-100,4,2,1,70,0,0
86856,-100,4,2,1,80,0,0
88356,-100,4,1,1,80,0,1
97690,-62.5,4,1,1,80,0,1
99023,-100,4,1,1,80,0,1
101690,-100,4,1,1,80,0,1
103023,-100,4,1,1,50,0,1
103690,-100,4,1,1,60,0,1
104356,-100,4,2,1,80,0,0
105356,-100,4,2,1,80,0,1
105523,-100,4,2,1,80,0,0
105690,-100,4,2,1,80,0,1
106023,-100,4,2,1,80,0,0
106690,-75.7575757575758,4,2,1,80,0,1
107023,-62.5,4,2,2,80,0,1
108245,-200,4,2,2,80,0,0
108579,-100,4,2,2,5,0,0
108690,-100,4,2,1,80,0,1
111356,-100,4,2,1,80,0,0

[Colours]
Combo1 : 255,128,64
Combo2 : 192,192,192
Combo3 : 255,128,128
Combo4 : 0,128,255

[HitObjects]
315,57,357,5,2,0:0:0:0:
209,189,690,5,2,0:0:0:0:
377,212,1023,5,2,0:0:0:0:
377,212,1190,1,0,0:0:0:0:
41,270,1356,6,0,P|84:173|152:256,1,255
103,319,1690,5,14,0:0:0:0:
141,301,1773,1,0,0:0:0:0:
183,298,1856,1,0,0:0:0:0:
223,312,1940,1,0,0:0:0:0:
252,341,2023,1,0,0:0:0:0:
291,355,2106,1,0,0:0:0:0:
333,352,2190,1,0,0:0:0:0:
371,334,2273,1,0,0:0:0:0:
398,301,2356,5,0,0:0:0:0:
412,260,2440,1,0,0:0:0:0:
409,217,2523,1,0,0:0:0:0:
392,178,2606,1,0,0:0:0:0:
357,152,2690,2,0,L|312:145,1,42.5,8|0,0:0|0:0,0:0:0:0:
459,119,2856,2,0,L|504:112,1,42.5
380,50,3023,5,14,0:0:0:0:
350,80,3106,1,0,0:0:0:0:
309,94,3190,1,0,0:0:0:0:
266,93,3273,1,0,0:0:0:0:
226,78,3356,1,0,0:0:0:0:
204,75,3440,1,0,0:0:0:0:
183,77,3523,2,0,P|155:82|130:92,1,42.5
59,109,3690,6,0,P|135:101|188:121,1,127.5
207,152,4023,6,0,P|152:116|89:114,1,127.5,8|0,0:0|0:0,0:0:0:0:
51,128,4356,5,10,0:0:0:0:
70,35,4468,1,8,0:0:0:0:
58,137,4579,5,10,0:0:0:0:
65,43,4690,1,8,0:0:0:0:
70,145,4801,5,14,0:0:0:0:
67,54,4912,1,8,0:0:0:0:
174,210,5023,5,10,0:0:0:0:
155,117,5135,1,8,0:0:0:0:
167,219,5246,5,10,0:0:0:0:
160,125,5357,1,8,0:0:0:0:
155,227,5468,5,14,0:0:0:0:
158,136,5579,1,8,0:0:0:0:
254,295,5690,6,0,B|232:199|276:227|257:128,1,170,12|0,0:0|0:0,0:0:0:0:
419,248,6356,6,0,P|376:245|334:255,1,85,2|0,0:0|0:0,0:0:0:0:
169,319,6690,1,0,0:0:0:0:
331,345,6856,1,0,0:0:0:0:
110,383,7023,6,0,B|86:347|86:347|86:282,1,85,8|0,0:0|0:0,0:0:0:0:
233,175,7356,2,0,B|257:211|257:211|257:252,1,85,8|0,0:0|0:0,0:0:0:0:
233,373,7690,1,8,0:0:0:0:
166,237,7856,1,0,0:0:0:0:
421,322,8023,2,0,L|313:329,1,85,8|0,0:0|0:0,0:0:0:0:
154,340,8356,5,8,0:0:0:0:
258,130,8523,1,0,0:0:0:0:
4,205,8690,2,0,L|101:196,1,85,8|0,0:0|0:0,0:0:0:0:
345,185,9023,6,0,L|350:99,1,68,8|0,0:0|0:0,0:0:0:0:
166,79,9356,2,0,L|172:160,1,68,8|0,0:0|0:0,0:0:0:0:
254,295,9690,6,0,P|219:277|174:269,1,85,8|0,0:0|0:0,0:0:0:0:
60,279,10023,1,8,0:0:0:0:
248,207,10190,1,0,0:0:0:0:
88,384,10356,2,8,B|64:350|64:350|68:306,1,85,8|0,0:0|0:0,0:0:0:0:
320,82,10690,2,8,B|344:116|344:116|339:159,1,85,8|0,0:0|0:0,0:0:0:0:
165,213,11023,5,8,0:0:0:0:
94,98,11190,1,0,0:0:0:0:
0,252,11356,6,0,P|41:240|85:247,1,85,8|0,0:0|0:0,0:0:0:0:
296,316,11690,6,0,P|246:316|197:295,1,101.999996887207,8|0,0:0|0:0,0:0:0:0:
427,133,12023,6,0,L|442:263,1,118.999996368408,12|0,0:0|0:0,0:0:0:0:
387,332,12356,5,12,0:0:0:0:
434,113,12523,1,0,0:0:0:0:
265,175,12690,2,0,P|311:177|356:198,1,85,8|0,0:0|0:0,0:0:0:0:
440,251,13023,5,8,0:0:0:0:
250,197,13190,1,0,0:0:0:0:
328,27,13356,2,0,L|335:112,1,85,8|0,0:0|0:0,0:0:0:0:
186,346,13690,6,0,L|193:261,1,85,8|0,0:0|0:0,0:0:0:0:
241,93,14023,2,0,P|202:112|148:116,1,85,8|0,0:0|0:0,0:0:0:0:
19,161,14356,6,0,L|13:94,1,68,8|0,0:0|0:0,0:0:0:0:
64,301,14690,2,0,P|30:306|0:322,1,68,8|0,0:0|0:0,0:0:0:0:
276,302,15023,5,8,0:0:0:0:
113,234,15190,1,0,0:0:0:0:
190,158,15356,2,0,L|194:242,1,85,8|0,0:0|0:0,0:0:0:0:
34,195,15690,5,8,0:0:0:0:
241,93,15857,1,0,0:0:0:0:
183,333,16023,1,8,0:0:0:0:
125,67,16190,1,0,0:0:0:0:
361,224,16356,6,0,B|373:147|373:147|384:140|384:140|397:55,1,170,12|0,0:0|0:0,0:0:0:0:
438,308,16856,1,0,0:0:0:0:
438,308,16940,1,0,0:0:0:0:
438,308,17023,5,2,2:0:0:0:
410,275,17107,1,0,0:0:0:0:
373,253,17190,1,0,0:0:0:0:
331,244,17273,1,0,0:0:0:0:
288,249,17357,1,2,2:0:0:0:
249,267,17440,1,0,0:0:0:0:
206,271,17523,1,0,0:0:0:0:
164,261,17606,1,0,0:0:0:0:
129,235,17690,6,0,P|111:197|114:145,1,85,8|0,0:0|0:0,0:0:0:0:
183,99,18023,2,0,L|279:105,1,85,8|0,0:0|0:0,0:0:0:0:
473,21,18356,2,0,P|491:59|488:111,1,85,8|0,0:0|0:0,0:0:0:0:
428,158,18689,2,0,L|343:163,1,85,8|0,0:0|0:0,0:0:0:0:
262,191,19023,5,8,0:0:0:0:
346,53,19190,1,0,0:0:0:0:
183,99,19356,2,0,P|223:109|279:104,1,85,8|0,0:0|0:0,0:0:0:0:
442,45,19690,1,8,0:0:0:0:
353,190,19856,1,0,0:0:0:0:
512,124,20023,2,0,P|469:121|428:132,1,85,8|0,0:0|0:0,0:0:0:0:
262,191,20356,5,8,0:0:0:0:
427,258,20523,1,0,0:0:0:0:
322,346,20690,2,0,L|329:248,1,85,8|0,0:0|0:0,0:0:0:0:
360,117,21023,5,8,0:0:0:0:
171,205,21190,1,0,0:0:0:0:
256,22,21356,2,0,L|267:119,1,85,8|0,0:0|0:0,0:0:0:0:
289,271,21690,5,8,0:0:0:0:
97,224,21856,1,0,0:0:0:0:
211,326,22023,1,8,0:0:0:0:
142,120,22190,1,0,0:0:0:0:
49,350,22356,5,8,0:0:0:0:
202,236,22523,1,2,2:0:0:0:
202,236,22579,1,2,2:0:0:0:
202,236,22634,1,2,2:0:0:0:
202,236,22690,1,8,0:0:0:0:
7,161,22856,1,0,0:0:0:0:
142,359,23023,6,0,P|131:309|95:266,1,85,8|0,0:0|0:0,0:0:0:0:
33,251,23356,1,8,0:0:0:0:
297,294,23523,1,0,0:0:0:0:
166,199,23690,2,0,P|178:238|209:271,1,85,8|0,0:0|0:0,0:0:0:0:
352,362,24023,1,8,0:0:0:0:
401,176,24190,1,0,0:0:0:0:
511,309,24356,6,0,L|425:317,1,85,8|0,0:0|0:0,0:0:0:0:
226,337,24690,1,8,0:0:0:0:
374,254,24856,1,0,0:0:0:0:
175,272,25023,5,8,0:0:0:0:
352,362,25190,1,0,0:0:0:0:
258,147,25356,1,8,0:0:0:0:
226,337,25523,1,0,0:0:0:0:
42,217,25690,6,0,L|128:209,1,85,8|0,0:0|0:0,0:0:0:0:
322,195,26023,1,8,0:0:0:0:
196,96,26190,1,0,0:0:0:0:
469,113,26356,6,0,L|383:105,1,85,8|0,0:0|0:0,0:0:0:0:
41,35,26690,2,0,L|130:45,1,85,8|0,0:0|0:0,0:0:0:0:
270,65,27023,6,0,P|290:36|256:40,1,85,8|0,0:0|0:0,0:0:0:0:
107,183,27356,2,0,P|87:154|121:157,1,85,8|0,0:0|0:0,0:0:0:0:
187,213,27606,1,0,2:0:0:0:
187,213,27690,5,12,0:0:0:0:
202,173,27773,1,0,2:0:0:0:
197,130,27856,1,0,2:0:0:0:
175,92,27940,1,12,0:0:0:0:
139,69,28023,1,0,2:0:0:0:
97,63,28106,1,0,2:0:0:0:
55,74,28190,1,12,0:0:0:0:
26,105,28273,1,0,2:0:0:0:
13,145,28356,6,0,P|11:169|14:188,1,42.5,14|0,0:0|0:0,0:0:0:0:
47,265,28523,1,0,0:0:0:0:
47,265,28606,1,2,0:0:0:0:
47,265,28690,2,0,P|94:260|133:272,1,85,8|2,0:0|0:0,0:0:0:0:
206,308,28940,1,0,0:0:0:0:
206,308,29023,6,0,L|200:250,1,42.5,10|0,0:0|0:0,0:0:0:0:
180,182,29190,1,0,0:0:0:0:
180,182,29273,1,2,0:0:0:0:
180,182,29357,2,0,P|227:184|265:170,1,85,8|2,0:0|0:0,0:0:0:0:
337,131,29607,1,0,0:0:0:0:
337,131,29690,6,0,L|332:204,1,42.5,10|0,0:0|0:0,0:0:0:0:
280,288,29856,2,0,L|283:246,1,42.5,0|2,0:0|0:0,0:0:0:0:
417,164,30023,2,0,L|412:237,1,42.5,8|0,0:0|0:0,0:0:0:0:
359,313,30189,2,0,L|361:270,1,42.5,2|0,0:0|0:0,0:0:0:0:
486,123,30356,5,10,0:0:0:0:
464,125,30440,1,0,0:0:0:0:
443,120,30523,1,0,0:0:0:0:
424,108,30606,1,0,0:0:0:0:
408,92,30690,1,8,0:0:0:0:
490,236,30856,1,0,0:0:0:0:
315,214,31023,6,0,P|357:202|404:205,1,85,8|0,0:0|0:0,0:0:0:0:
490,236,31356,2,0,L|480:330,1,85,8|0,0:0|0:0,0:0:0:0:
408,92,31690,2,0,P|368:104|323:102,1,85,8|0,0:0|0:0,0:0:0:0:
229,72,32023,2,0,L|237:156,1,85,8|0,0:0|0:0,0:0:0:0:
309,307,32356,5,8,0:0:0:0:
332,172,32523,1,0,0:0:0:0:
134,105,32690,5,8,0:0:0:0:
157,240,32857,1,0,0:0:0:0:
260,61,33023,5,8,0:0:0:0:
0,171,33190,1,2,2:0:0:0:
0,171,33245,1,2,2:0:0:0:
0,171,33301,1,2,2:0:0:0:
0,171,33356,2,0,P|39:167|83:178,1,85,8|0,0:0|0:0,0:0:0:0:
246,228,33690,6,0,L|237:140,1,85,8|0,0:0|0:0,0:0:0:0:
216,60,33940,1,0,0:0:0:0:
216,60,34023,2,0,P|256:72|298:68,1,85,8|0,0:0|0:0,0:0:0:0:
389,44,34273,1,0,0:0:0:0:
389,44,34356,2,0,L|385:129,1,85,8|0,0:0|0:0,0:0:0:0:
408,211,34606,1,0,0:0:0:0:
408,211,34690,2,0,P|368:199|326:203,1,85,8|0,0:0|0:0,0:0:0:0:
246,228,34940,1,0,0:0:0:0:
246,228,35023,5,8,0:0:0:0:
472,343,35190,1,0,0:0:0:0:
483,302,35273,1,0,0:0:0:0:
478,259,35356,1,8,0:0:0:0:
321,163,35523,1,0,0:0:0:0:
313,204,35606,1,0,0:0:0:0:
322,245,35689,5,8,0:0:0:0:
152,363,35856,1,0,0:0:0:0:
163,322,35939,1,0,0:0:0:0:
158,279,36022,1,8,0:0:0:0:
94,103,36189,1,0,0:0:0:0:
61,221,36355,5,8,0:0:0:0:
61,221,36440,1,0,0:0:0:0:
61,221,36523,2,0,P|78:214|104:208,1,42.5
358,130,36690,1,8,0:0:0:0:
358,130,36773,1,0,0:0:0:0:
358,130,36856,2,0,P|340:138|316:144,1,42.5
128,89,37023,5,8,0:0:0:0:
158,59,37106,1,0,0:0:0:0:
198,43,37190,1,0,0:0:0:0:
240,42,37273,1,0,0:0:0:0:
280,55,37356,1,8,0:0:0:0:
314,79,37440,1,0,0:0:0:0:
353,92,37523,1,0,0:0:0:0:
395,91,37606,1,0,0:0:0:0:
432,70,37690,6,0,L|427:131,1,42.5,8|0,0:0|0:0,0:0:0:0:
291,193,37856,2,0,L|294:150,1,42.5,8|0,0:0|0:0,0:0:0:0:
447,61,38023,6,0,L|442:122,1,42.5,8|0,0:0|0:0,0:0:0:0:
276,202,38190,2,0,L|279:159,1,42.5,8|0,0:0|0:0,0:0:0:0:
461,51,38356,5,8,0:0:0:0:
461,51,38440,1,8,0:0:0:0:
461,51,38523,1,8,0:0:0:0:
461,51,38606,1,8,0:0:0:0:
461,51,38690,2,0,L|458:102,1,42.5,8|0,0:0|0:0,0:0:0:0:
377,214,38856,2,0,L|373:170,1,42.5,8|0,0:0|0:0,0:0:0:0:
506,257,39023,6,0,B|499:270|497:285|497:285|419:250|364:294,1,170,4|0,0:0|0:0,0:0:0:0:
297,360,39523,1,0,0:0:0:0:
93,278,39690,5,8,0:0:0:0:
122,248,39773,1,0,0:0:0:0:
159,228,39856,1,0,0:0:0:0:
201,223,39940,1,0,0:0:0:0:
242,230,40023,2,0,P|266:238|288:253,1,42.5
402,311,40190,2,0,P|378:303|356:288,1,42.5
317,168,40356,5,8,0:1:0:0:
297,360,40468,1,8,0:1:0:0:
331,178,40579,1,8,0:1:0:0:
279,353,40690,2,0,B|290:301|290:301|297:296|297:296|311:240,1,113.333333333333,8|8,0:1|0:1,0:0:0:0:
366,110,41023,6,0,P|328:133|272:135,1,85,0|8,0:0|0:1,0:0:0:0:
203,123,41273,1,8,0:1:0:0:
203,123,41356,1,8,0:1:0:0:
203,123,41440,1,8,0:1:0:0:
203,123,41523,2,8,L|209:181,1,42.5,8|8,0:1|0:1,0:1:0:0:
105,66,41690,6,0,L|118:164,1,85,4|0,0:0|0:0,0:0:0:0:
163,282,42023,1,0,0:0:0:0:
56,211,42190,1,0,0:0:0:0:
71,342,42356,6,0,L|85:269,1,56.6666666666667,8|8,0:0|0:0,0:0:0:0:
116,150,42579,1,8,0:0:0:0:
217,275,42690,6,0,L|161:280,1,56.0999998287964,8|0,0:0|0:0,0:0:0:0:
0,206,42856,2,0,L|55:210,1,56.0999998287964,8|0,0:0|0:0,0:0:0:0:
231,184,43023,5,2,0:0:0:0:
110,108,43190,1,2,0:0:0:0:
110,108,43273,1,2,0:0:0:0:
110,108,43356,2,0,L|117:156,1,42.5,2|0,0:0|0:0,0:0:0:0:
284,348,43523,2,0,L|290:305,1,42.5,2|0,0:0|0:0,0:0:0:0:
342,139,43690,6,0,P|285:115|360:50,1,204,8|0,0:0|0:0,0:0:0:0:
455,97,44023,6,0,L|423:104,1,33.1500011128235,8|0,0:1|0:0,0:0:0:0:
174,158,44190,2,0,L|207:162,1,33.1500011128235,8|0,0:1|0:0,0:0:0:0:
398,233,44356,6,0,B|288:291|283:209|176:263,1,229.499992996216,2|0,0:0|0:0,0:0:0:0:
77,312,44690,6,0,L|69:222,1,85,4|0,0:0|0:0,0:0:0:0:
115,51,45023,6,0,L|109:107,2,56.6666666666667
24,137,45356,1,8,0:1:0:0:
212,141,45468,1,8,0:1:0:0:
28,154,45579,1,8,0:1:0:0:
211,122,45690,6,8,P|154:124|104:150,1,113.333333333333,8|8,0:1|0:1,0:1:0:0:
40,207,46023,6,0,L|33:174,1,33.1500011128235,8|0,0:1|0:0,0:0:0:0:
195,11,46190,2,0,L|191:47,1,33.1500011128235,8|0,0:1|0:0,0:0:0:0:
238,300,46356,6,0,B|240:258|240:258|245:250|245:250|247:201,1,99.4500033384706,8|0,0:0|0:0,0:0:0:0:
320,314,46690,5,8,0:1:0:0:
323,271,46773,1,8,0:1:0:0:
327,228,46856,2,8,L|330:177,1,42.5,8|8,0:1|0:1,0:1:0:0:
400,329,47023,5,12,0:0:0:0:
420,172,47190,1,0,0:0:0:0:
486,307,47356,1,8,0:1:0:0:
486,307,47440,2,0,P|443:290|405:290,1,85,8|0,0:1|0:0,0:0:0:0:
320,314,47690,6,0,B|311:252|311:252|315:244|315:244|306:174,1,136,8|8,0:0|0:1,0:0:0:0:
300,137,47940,1,8,0:1:0:0:
460,18,48106,1,8,0:1:0:0:
458,39,48190,1,8,0:1:0:0:
456,60,48273,1,8,0:1:0:0:
454,81,48356,5,8,0:1:0:0:
411,74,48440,1,0,0:0:0:0:
371,87,48523,1,8,0:0:0:0:
341,117,48606,1,0,0:0:0:0:
326,157,48690,1,8,0:1:0:0:
331,198,48773,1,0,0:0:0:0:
353,233,48856,1,8,0:1:0:0:
360,275,48940,1,0,0:0:0:0:
347,315,49023,5,8,0:1:0:0:
314,342,49106,1,8,0:1:0:0:
272,350,49190,1,8,0:1:0:0:
230,341,49273,1,8,0:1:0:0:
196,315,49356,1,8,0:1:0:0:
153,306,49440,1,8,0:1:0:0:
111,314,49523,1,8,0:1:0:0:
78,341,49606,1,8,0:1:0:0:
61,380,49690,6,0,L|57:333,3,42.5,2|0|0|0,0:0|0:0|0:0|0:0,0:0:0:0:
189,225,50023,6,0,L|185:267,3,42.5,4|0|0|0,0:0|0:0|0:0|0:0,0:0:0:0:
12,202,50356,5,2,0:0:0:0:
53,211,50440,1,0,0:0:0:0:
94,203,50523,1,8,0:1:0:0:
130,182,50606,1,0,0:0:0:0:
157,148,50690,1,2,0:0:0:0:
193,125,50773,1,0,0:0:0:0:
234,115,50856,1,8,1:0:0:0:
276,121,50940,1,0,0:0:0:0:
312,142,51023,5,2,0:0:0:0:
332,148,51106,1,0,0:0:0:0:
353,148,51190,2,0,P|376:143|399:131,1,42.5,8|0,0:1|0:0,0:0:0:0:
422,277,51356,1,2,0:0:0:0:
438,261,51440,1,0,0:0:0:0:
449,242,51523,2,0,P|461:216|463:194,1,42.5,8|0,0:1|0:0,0:0:0:0:
475,83,51690,5,2,0:0:0:0:
445,52,51773,1,0,0:0:0:0:
404,39,51856,1,8,0:1:0:0:
361,45,51940,1,0,0:0:0:0:
325,68,52023,2,0,P|303:73|270:71,3,42.5,2|0|8|0,0:0|0:0|0:1|0:0,0:0:0:0:
181,125,52356,5,10,0:1:0:0:
222,115,52440,1,0,0:0:0:0:
263,121,52523,1,8,0:1:0:0:
299,142,52606,1,0,0:0:0:0:
324,176,52690,1,2,0:0:0:0:
360,196,52773,1,0,0:0:0:0:
402,201,52856,1,8,0:1:0:0:
442,188,52940,1,0,0:0:0:0:
476,163,53023,5,2,0:0:0:0:
475,184,53106,1,0,0:0:0:0:
474,205,53190,2,0,L|470:262,1,42.5,8|0,0:1|0:0,0:0:0:0:
270,344,53356,1,2,0:0:0:0:
269,323,53439,1,0,0:0:0:0:
268,302,53523,2,0,L|264:245,1,42.5,8|0,0:1|0:0,0:0:0:0:
119,35,53690,5,2,0:0:0:0:
117,56,53773,1,0,0:0:0:0:
115,77,53856,1,8,0:1:0:0:
113,98,53940,1,0,0:0:0:0:
87,132,54023,1,2,0:0:0:0:
85,153,54106,1,0,0:0:0:0:
83,174,54189,1,8,0:1:0:0:
81,195,54273,1,0,0:0:0:0:
61,232,54356,6,0,L|65:270,3,28.3333333333333,2|2|2|8,0:0|0:0|0:0|0:1,0:0:0:0:
312,270,54690,2,0,P|270:257|224:263,1,85,2|0,0:0|0:0,0:0:0:0:
148,289,54940,1,0,0:0:0:0:
148,289,55023,6,0,L|145:232,2,42.5,6|0|8,0:1|0:0|0:1,0:0:0:0:
357,162,55273,2,0,L|353:204,2,42.5,2|0|0,0:1|0:0|0:0,0:0:0:0:
185,169,55523,2,0,L|182:126,1,42.5,10|0,0:1|0:0,0:0:0:0:
277,48,55690,5,2,0:0:0:0:
276,69,55774,1,0,0:0:0:0:
275,90,55857,2,0,L|272:132,1,42.5,8|0,0:1|0:0,0:0:0:0:
147,0,56023,1,2,0:0:0:0:
138,19,56106,1,0,0:0:0:0:
128,38,56190,2,0,L|102:85,1,42.5,8|0,0:1|0:0,0:0:0:0:
23,107,56356,5,2,0:0:0:0:
23,107,56440,2,0,P|63:103|114:119,1,85,2|0,0:0|0:0,0:0:0:0:
141,138,56690,1,10,0:0:0:0:
486,52,56856,1,8,0:1:0:0:
486,52,56939,1,0,0:0:0:0:
486,52,57023,2,0,P|446:48|395:64,1,85,2|8,0:0|0:1,0:0:0:0:
316,127,57356,2,0,L|318:88,3,28.3333333333333,2|2|2|8,0:0|0:0|0:0|0:0,0:0:0:0:
231,164,57606,1,0,0:0:0:0:
231,164,57690,6,0,L|279:158,2,42.5,2|0|8,0:0|0:0|0:1,0:0:0:0:
417,229,57940,2,0,L|369:223,2,42.5,2|0|0,0:0|0:0|0:0,0:0:0:0:
214,252,58190,2,0,L|262:246,1,42.5,10|0,0:1|0:0,0:0:0:0:
424,318,58356,5,2,0:0:0:0:
382,306,58440,1,0,0:0:0:0:
340,312,58523,1,8,0:1:0:0:
304,335,58606,1,0,0:0:0:0:
282,372,58690,2,0,L|271:318,1,42.5,2|0,0:0|0:0,0:0:0:0:
183,284,58856,1,8,0:1:0:0:
183,284,58940,6,0,B|196:241|196:241|191:199,1,85,8|0,0:1|0:0,0:0:0:0:
115,161,59190,2,0,L|68:169,2,42.5,10|0|0,0:0|0:0|0:0,0:0:0:0:
289,193,59440,2,0,L|338:197,2,42.5,8|0|0,0:0|0:0|0:0,0:0:0:0:
231,108,59690,1,10,0:0:0:0:
263,136,59773,1,0,0:0:0:0:
303,147,59856,1,8,0:1:0:0:
345,140,59940,1,0,0:0:0:0:
379,115,60023,1,10,0:1:0:0:
420,108,60106,1,8,0:1:0:0:
460,121,60190,1,0,0:0:0:0:
489,151,60273,1,8,0:1:0:0:
500,191,60356,5,14,0:1:0:0:
492,233,60440,1,0,0:0:0:0:
465,265,60523,1,8,0:1:0:0:
425,280,60606,1,0,0:0:0:0:
382,275,60690,1,2,0:0:0:0:
343,293,60773,1,0,0:0:0:0:
314,323,60856,2,8,P|306:348|309:370,1,42.5,8|8,0:1|0:1,0:1:0:0:
261,257,61023,5,2,0:0:0:0:
232,225,61106,1,0,0:0:0:0:
192,212,61190,1,8,0:1:0:0:
151,219,61273,1,0,0:0:0:0:
117,244,61356,1,2,0:0:0:0:
74,251,61440,1,0,0:0:0:0:
33,240,61523,1,8,0:1:0:0:
4,208,61606,1,0,0:0:0:0:
0,165,61690,5,2,0:0:0:0:
4,144,61773,1,0,0:0:0:0:
8,123,61856,2,0,L|17:72,1,42.5,8|0,0:1|0:0,0:0:0:0:
204,129,62023,1,2,0:0:0:0:
202,149,62106,1,0,0:0:0:0:
198,169,62189,2,0,L|190:222,1,42.5,8|0,0:1|0:0,0:0:0:0:
144,315,62356,5,2,0:0:0:0:
171,282,62440,1,0,0:0:0:0:
207,260,62523,1,8,0:1:0:0:
248,253,62606,1,0,0:0:0:0:
289,261,62690,1,2,0:0:0:0:
326,280,62773,1,0,0:0:0:0:
367,288,62856,1,8,0:1:0:0:
409,283,62940,1,0,0:0:0:0:
443,258,63023,5,2,0:0:0:0:
447,237,63106,1,0,0:0:0:0:
451,216,63189,2,0,L|460:165,1,42.5,8|0,0:1|0:0,0:0:0:0:
314,207,63356,5,2,0:0:0:0:
318,186,63439,1,0,0:0:0:0:
322,165,63522,2,0,L|331:114,1,42.5,8|0,0:1|0:0,0:0:0:0:
197,165,63690,5,2,0:0:0:0:
201,144,63773,1,0,0:0:0:0:
205,123,63856,2,0,L|214:72,1,42.5,8|0,0:1|0:0,0:0:0:0:
91,124,64023,5,2,0:0:0:0:
93,110,64079,1,2,0:0:0:0:
96,96,64134,1,2,0:0:0:0:
99,82,64190,2,0,L|111:18,1,42.5,8|0,0:1|0:0,0:0:0:0:
12,162,64356,5,2,0:0:0:0:
53,151,64440,1,0,0:0:0:0:
95,155,64523,1,8,0:1:0:0:
132,174,64606,1,0,0:0:0:0:
160,206,64690,1,2,0:0:0:0:
172,246,64773,1,2,0:0:0:0:
168,288,64856,1,10,0:1:0:0:
148,326,64940,1,2,0:0:0:0:
113,351,65023,6,0,B|90:366|90:366|46:335|60:272,1,127.5,2|0,0:0|0:0,0:0:0:0:
93,177,65356,6,2,L|94:199,1,21.25
114,180,65440,2,2,L|114:201,1,21.25
134,184,65523,2,2,L|134:205,1,21.25
154,189,65606,2,2,L|154:210,1,21.25
175,192,65690,5,6,0:0:0:0:
58,277,65912,1,2,0:0:0:0:
17,134,66134,1,2,0:0:0:0:
239,263,66356,5,2,0:0:0:0:
9,350,66579,1,2,0:0:0:0:
68,62,66801,1,2,0:0:0:0:
144,253,66912,1,2,0:0:0:0:
205,105,67023,6,2,L|140:96,1,56.6666666666667
15,211,67245,6,2,L|81:198,1,56.6666666666667
239,263,67468,6,2,L|174:254,1,56.6666666666667
9,350,67690,6,2,L|1:280,1,56.6666666666667
148,97,67912,6,2,L|139:153,1,56.6666666666667
253,379,68134,6,2,L|241:306,1,56.6666666666667
354,60,68356,6,0,P|355:104|381:150,1,90.6666666666667,10|0,0:0|0:0,0:0:0:0:
487,239,68579,6,0,P|448:217|395:217,1,90.6666666666667,10|0,0:0|0:0,0:0:0:0:
239,263,68801,5,10,0:0:0:0:
473,314,68912,1,10,0:0:0:0:
334,349,69023,6,0,L|321:245,1,90.6666666666667,10|0,0:0|0:0,0:0:0:0:
119,289,69245,6,0,L|170:213,1,90.6666666666667,10|0,0:0|0:0,0:0:0:0:
5,122,69468,6,0,L|93:97,1,90.6666666666667,10|0,0:0|0:0,0:0:0:0:
284,21,69690,6,0,B|234:6|179:53|205:120|205:120|231:127|249:150|249:150|308:158|339:108|339:108|370:115|393:145,1,374.849988560486,4|0,0:1|0:0,0:0:0:0:
367,212,70940,1,0,0:0:0:0:
438,195,71023,6,0,P|449:225|451:260,1,53.5499983657837,6|0,0:0|0:0,0:0:0:0:
330,317,71356,2,0,P|316:285|312:248,1,53.5499983657837,2|0,0:0|0:0,0:0:0:0:
311,132,71690,2,0,P|325:164|329:201,1,53.5499983657837,2|0,0:0|0:0,0:0:0:0:
215,259,72023,2,0,P|201:227|197:190,1,53.5499983657837,2|0,0:0|0:0,0:0:0:0:
217,85,72356,5,2,0:0:0:0:
217,85,72523,1,0,0:0:0:0:
79,163,72690,2,0,L|143:155,1,53.5499983657837,2|0,0:0|0:0,0:0:0:0:
307,186,73023,1,2,0:0:0:0:
307,186,73190,1,0,0:0:0:0:
442,124,73356,2,0,L|378:116,1,53.5499983657837,2|0,0:0|0:0,0:0:0:0:
217,85,73690,6,0,P|215:118|225:149,1,53.5499983657837,2|0,0:0|0:0,0:0:0:0:
348,317,74023,2,0,P|350:284|340:253,1,53.5499983657837,2|0,0:0|0:0,0:0:0:0:
110,234,74356,2,0,P|139:242|181:244,1,53.5499983657837,2|0,0:0|0:0,0:0:0:0:
453,165,74690,2,0,P|424:157|382:155,1,53.5499983657837,2|0,0:0|0:0,0:0:0:0:
307,186,75023,5,2,0:0:0:0:
465,36,75356,1,2,0:0:0:0:
399,248,75690,2,0,L|391:175,1,53.5499983657837,2|0,0:0|0:0,0:0:0:0:
387,109,76023,1,2,0:0:0:0:
482,265,76190,5,0,0:0:0:0:
482,265,76273,1,0,0:0:0:0:
482,265,76356,2,0,P|449:262|419:268,1,53.5499983657837,2|0,0:0|0:0,0:0:0:0:
225,203,76690,2,0,P|258:206|288:200,1,53.5499983657837,2|0,0:0|0:0,0:0:0:0:
372,347,77023,1,2,0:0:0:0:
324,282,77190,1,0,0:0:0:0:
250,250,77356,1,2,0:0:0:0:
169,254,77523,1,0,0:0:0:0:
98,293,77690,6,0,P|88:248|100:204,1,69.7000010635376,2|0,0:0|0:0,0:0:0:0:
98,209,77940,1,0,0:0:0:0:
109,195,78023,1,2,0:0:0:0:
160,353,78190,1,0,0:0:0:0:
16,295,78356,1,2,0:0:0:0:
16,295,78440,1,0,0:0:0:0:
206,253,78606,1,0,0:0:0:0:
206,253,78690,1,2,0:0:0:0:
16,192,78856,1,0,0:0:0:0:
128,31,79023,6,0,P|142:63|142:97,1,69.7000010635376,2|0,0:0|0:0,0:0:0:0:
132,112,79273,2,0,L|219:105,1,69.7000010635376,2|0,0:0|0:0,0:0:0:0:
219,105,79523,1,2,0:0:0:0:
385,203,79690,1,2,0:0:0:0:
385,203,79773,2,0,P|344:195|314:199,1,69.7000010635376,0|2,0:0|0:0,0:0:0:0:
301,207,80023,2,0,L|305:118,1,69.7000010635376,0|2,0:0|0:0,0:0:0:0:
457,34,80356,6,0,B|466:154,1,116.025003894882,2|2,0:0|0:0,0:0:0:0:
468,171,80689,1,2,0:0:0:0:
455,18,80856,1,2,0:0:0:0:
337,360,81023,2,0,B|329:233,1,127.5,2|2,0:0|0:0,0:0:0:0:
326,212,81356,1,2,0:0:0:0:
340,376,81523,1,2,0:0:0:0:
468,171,81690,5,10,0:0:0:0:
447,177,81773,1,0,0:0:0:0:
426,181,81856,1,0,0:0:0:0:
404,181,81940,1,2,0:0:0:0:
383,178,82023,1,8,0:0:0:0:
362,171,82106,1,0,0:0:0:0:
343,160,82190,1,2,0:0:0:0:
325,147,82273,1,0,0:0:0:0:
310,131,82356,1,8,0:0:0:0:
292,118,82439,1,2,0:0:0:0:
273,107,82523,1,2,0:0:0:0:
252,100,82606,1,0,0:0:0:0:
231,97,82690,1,10,0:0:0:0:
209,97,82773,1,0,0:0:0:0:
188,101,82856,1,2,0:0:0:0:
29,152,83023,5,10,0:0:0:0:
48,144,83106,1,2,0:0:0:0:
68,140,83190,1,2,0:0:0:0:
88,139,83273,1,2,0:0:0:0:
108,141,83356,1,8,0:0:0:0:
128,146,83440,1,0,0:0:0:0:
147,154,83523,1,2,0:0:0:0:
165,165,83606,1,0,0:0:0:0:
180,179,83690,1,10,0:0:0:0:
193,194,83773,1,2,0:0:0:0:
207,211,83856,1,0,0:0:0:0:
216,232,83940,1,0,0:0:0:0:
224,252,84023,1,10,0:0:0:0:
226,273,84106,1,0,0:0:0:0:
225,296,84190,1,2,0:0:0:0:
183,376,84356,5,10,0:0:0:0:
212,381,84440,1,0,0:0:0:0:
241,378,84523,1,8,0:0:0:0:
269,370,84606,1,2,0:0:0:0:
295,356,84690,1,8,0:0:0:0:
323,347,84773,1,0,0:0:0:0:
352,345,84856,1,10,0:0:0:0:
381,347,84940,1,0,0:0:0:0:
407,360,85023,5,8,0:0:0:0:
390,325,85106,1,2,0:0:0:0:
390,286,85190,1,8,0:0:0:0:
408,252,85273,1,0,0:0:0:0:
437,227,85356,1,10,0:0:0:0:
474,217,85440,1,0,0:0:0:0:
511,224,85523,1,10,0:0:0:0:
393,122,85690,5,10,0:0:0:0:
354,148,85773,1,8,0:0:0:0:
308,159,85856,1,8,0:0:0:0:
261,154,85940,1,10,0:0:0:0:
217,137,86023,1,8,0:0:0:0:
181,106,86106,1,8,0:0:0:0:
137,86,86190,1,10,0:0:0:0:
90,88,86273,1,8,0:0:0:0:
51,114,86356,5,8,0:1:0:0:
67,133,86440,1,8,0:1:0:0:
51,153,86523,1,8,0:1:0:0:
71,168,86606,1,8,0:1:0:0:
50,183,86690,6,8,L|18:185,1,21.25,8|8,0:1|0:1,0:1:0:0:
67,193,86773,2,8,L|99:195,1,21.25,8|8,0:1|0:1,0:1:0:0:
52,204,86856,2,8,L|25:206,1,21.25,8|8,0:1|0:1,0:1:0:0:
72,211,86940,2,8,L|94:214,1,21.25,8|8,0:1|0:1,0:1:0:0:
297,174,88023,5,4,0:0:0:0:
227,222,88106,1,0,0:0:0:0:
304,259,88190,2,0,L|347:261,1,42.5
229,306,88356,6,0,L|145:311,1,85,10|0,0:0|0:0,0:0:0:0:
64,283,88690,2,0,B|57:323|57:323|76:365,1,85,10|0,0:0|0:0,0:0:0:0:
191,231,89023,1,10,0:0:0:0:
0,180,89190,1,0,0:0:0:0:
0,180,89273,1,2,0:0:0:0:
0,180,89356,2,0,P|24:180|49:175,1,42.5,8|0,0:0|0:0,0:0:0:0:
122,140,89523,2,0,L|121:186,1,42.5,10|0,0:0|0:0,0:0:0:0:
269,211,89690,6,0,L|274:126,1,85,10|0,0:0|0:0,0:0:0:0:
351,253,90023,1,10,0:0:0:0:
361,94,90190,1,0,0:0:0:0:
438,292,90356,1,10,0:0:0:0:
451,62,90523,1,0,0:0:0:0:
451,62,90606,1,2,0:0:0:0:
451,62,90690,2,0,P|423:66|397:62,1,42.5,8|0,0:0|0:0,0:0:0:0:
329,40,90856,2,0,L|334:91,1,42.5,10|0,0:0|0:0,0:0:0:0:
357,175,91023,5,10,0:0:0:0:
248,14,91190,1,0,0:0:0:0:
439,144,91356,5,10,0:0:0:0:
173,53,91523,1,0,0:0:0:0:
512,112,91690,5,10,0:0:0:0:
99,98,91856,1,0,0:0:0:0:
99,98,91940,1,2,0:0:0:0:
99,98,92023,2,0,P|122:98|147:103,1,42.5,8|0,0:0|0:0,0:0:0:0:
217,133,92190,2,0,L|215:73,1,42.5,10|0,0:0|0:0,0:0:0:0:
290,184,92356,5,2,0:0:0:0:
285,50,92523,1,2,2:0:0:0:
285,50,92579,1,2,2:0:0:0:
285,50,92634,1,2,2:0:0:0:
285,50,92690,1,10,0:0:0:0:
365,233,92856,1,0,0:0:0:0:
512,112,93023,6,0,P|471:113|430:99,1,85,10|0,0:0|0:0,0:0:0:0:
395,72,93273,2,0,L|401:124,1,42.5,2|8,0:0|0:0,0:0:0:0:
440,286,93440,1,0,0:0:0:0:
440,286,93523,2,0,P|416:267|395:260,1,42.5,2|0,0:0|0:0,0:0:0:0:
321,242,93690,5,10,0:0:0:0:
477,199,93856,1,0,0:0:0:0:
252,178,94023,5,10,0:0:0:0:
512,112,94190,1,0,0:0:0:0:
187,108,94356,5,10,0:0:0:0:
403,143,94523,1,0,0:0:0:0:
403,143,94606,1,2,0:0:0:0:
403,143,94690,2,0,P|370:147|343:159,1,42.5,8|0,0:0|0:0,0:0:0:0:
286,182,94856,2,0,L|285:121,1,42.5,2|0,0:0|0:0,0:0:0:0:
215,230,95023,5,10,0:0:0:0:
187,108,95190,1,2,2:0:0:0:
187,108,95245,1,2,2:0:0:0:
187,108,95301,1,2,2:0:0:0:
187,108,95356,1,10,0:0:0:0:
149,292,95523,1,0,0:0:0:0:
0,188,95690,6,0,P|41:193|92:178,1,85,10|0,0:0|0:0,0:0:0:0:
118,159,95940,2,0,L|113:213,1,42.5,2|8,0:0|0:0,0:0:0:0:
218,280,96106,1,0,0:0:0:0:
218,280,96190,2,0,P|189:277|166:281,1,42.5,2|0,0:0|0:0,0:0:0:0:
77,338,96356,5,10,0:0:0:0:
118,159,96523,1,0,0:0:0:0:
165,356,96690,5,10,0:0:0:0:
204,140,96856,1,0,0:0:0:0:
255,374,97023,6,0,P|254:326|272:288,1,85,10|0,0:0|0:0,0:0:0:0:
297,261,97273,2,0,L|241:267,1,42.5,2|8,0:0|0:0,0:0:0:0:
83,295,97440,1,0,0:0:0:0:
83,295,97523,2,0,P|79:257|71:238,1,42.5,2|0,0:0|0:0,0:0:0:0:
29,182,97690,6,0,P|86:211|168:200,1,136,14|0,0:0|0:0,0:0:0:0:
219,139,97940,2,0,B|247:185|247:185|220:284,1,136,14|0,0:0|0:0,0:0:0:0:
165,356,98190,2,0,P|199:352|246:357,1,68,14|0,0:0|0:0,0:0:0:0:
314,380,98356,5,14,0:0:0:0:
463,183,98606,1,8,0:0:0:0:
463,183,98690,2,0,P|395:193|322:169,1,136,8|2,0:0|2:0,0:0:0:0:
265,114,98912,1,0,2:0:0:0:
265,114,98968,1,2,2:0:0:0:
265,114,99023,5,10,0:0:0:0:
364,277,99190,1,0,0:0:0:0:
400,70,99356,1,10,0:0:0:0:
215,187,99523,1,0,0:0:0:0:
454,273,99690,5,10,0:0:0:0:
348,141,99856,1,0,0:0:0:0:
316,350,100023,1,10,0:0:0:0:
486,104,100190,5,2,2:0:0:0:
486,104,100245,1,2,2:0:0:0:
486,104,100301,1,2,2:0:0:0:
486,104,100356,1,10,0:0:0:0:
133,160,100523,1,0,0:0:0:0:
364,277,100690,1,10,0:0:0:0:
435,20,100856,1,0,0:0:0:0:
209,262,101023,5,10,0:0:0:0:
475,190,101190,1,0,0:0:0:0:
133,160,101356,1,10,0:0:0:0:
292,237,101523,5,2,2:0:0:0:
292,237,101579,1,2,2:0:0:0:
292,237,101634,1,2,2:0:0:0:
292,237,101690,1,10,0:0:0:0:
335,49,101856,1,8,0:0:0:0:
209,262,102023,5,10,0:0:0:0:
476,155,102190,1,8,0:0:0:0:
276,317,102356,5,10,0:0:0:0:
22,238,102523,1,8,0:0:0:0:
194,347,102690,5,10,0:0:0:0:
122,109,102856,2,2,L|118:81,2,28.3333333333333,2|2|2,2:0|2:0|2:0,2:0:0:0:
42,204,103023,5,10,0:0:0:0:
79,185,103106,1,8,0:0:0:0:
121,185,103190,1,8,0:0:0:0:
161,197,103273,1,8,0:0:0:0:
193,224,103356,1,10,0:0:0:0:
232,239,103440,1,8,0:0:0:0:
274,237,103523,1,8,0:0:0:0:
313,221,103606,1,8,0:0:0:0:
345,192,103690,5,10,0:0:0:0:
336,233,103773,1,8,0:0:0:0:
356,269,103856,1,8,0:0:0:0:
395,284,103940,1,8,0:0:0:0:
436,278,104023,1,10,0:0:0:0:
470,252,104106,1,8,0:0:0:0:
487,212,104190,1,8,0:0:0:0:
476,170,104273,1,8,0:0:0:0:
444,142,104356,6,0,P|441:125|442:90,3,42.5,4|0|0|0,0:1|0:0|0:0|0:0,0:0:0:0:
349,41,104690,2,0,P|352:58|351:93,3,42.5
345,192,105023,5,0,0:0:0:0:
316,161,105106,1,0,0:0:0:0:
275,142,105190,1,0,0:0:0:0:
232,138,105273,1,0,0:0:0:0:
191,149,105356,1,4,1:0:0:0:
156,174,105440,1,0,0:0:0:0:
115,185,105523,1,0,0:0:0:0:
72,181,105606,1,0,0:0:0:0:
35,158,105690,5,4,1:0:0:0:
34,149,105773,1,0,0:0:0:0:
33,140,105856,1,0,0:0:0:0:
33,131,105940,1,0,0:0:0:0:
32,122,106023,5,0,0:0:0:0:
72,147,106107,1,0,0:0:0:0:
119,151,106190,1,0,0:0:0:0:
165,139,106273,1,0,0:0:0:0:
203,112,106357,1,0,0:0:0:0:
248,100,106440,1,0,0:0:0:0:
295,104,106523,1,0,0:0:0:0:
341,125,106607,1,0,0:0:0:0:
372,157,106690,6,0,P|361:91|442:102,1,168.299999486389,4|0,0:1|0:0,0:0:0:0:
456,189,107023,6,8,L|470:291,2,90.6666666666667
439,96,107356,6,8,L|510:40,2,90.6666666666667
372,157,107690,6,8,P|330:134|279:121,1,90.6666666666667
165,113,107912,6,8,P|166:160|182:211,1,90.6666666666667
230,304,108134,5,0,0:0:0:0:
230,304,108245,2,0,B|266:296|298:269|310:236|310:236,1,85,8|0,0:0|0:0,0:0:0:0:
256,192,108690,5,4,1:0:0:0:
256,192,108773,12,0,111356,0:0:0:0:
