osu file format v9

[General]
AudioFilename: quark-hatevsbri.mp3
AudioLeadIn: 1500
PreviewTime: 79999
Countdown: 0
SampleSet: Normal
StackLeniency: 0.7
Mode: 0
LetterboxInBreaks: 1

[Editor]
Bookmarks: 13346,22666,33333,44000,54666,57333,68000,80000,82679,90666,101333,103666
DistanceSpacing: 1
BeatDivisor: 4
GridSize: 8

[Metadata]
Title:Quark
Artist:Hate vs Brilliance
Creator:tsuka
Version:Normal
Source:BMS
Tags:Alace Dr_dy yeahyeahyeahhh

[Difficulty]
HPDrainRate:3
CircleSize:4
OverallDifficulty:3
ApproachRate:3
SliderMultiplier:0.800000005960464
SliderTickRate:1

[Events]
//Background and Video events
0,0,"sp_stfile.png"
//Break Periods
2,57545,65238
//Storyboard Layer 0 (Background)
//Storyboard Layer 1 (Fail)
//Storyboard Layer 2 (Pass)
//Storyboard Layer 3 (Foreground)
//Storyboard Sound Samples
//Background Colour Transformations
3,100,163,162,255

[TimingPoints]
12,333.333333333333,4,1,0,70,1,0
6512,-100,4,1,0,80,0,0
33345,-200,4,1,0,80,0,0
38011,-100,4,1,0,80,0,0
38678,-133.333333333333,4,1,0,80,0,0
44566,-133.333333333333,4,2,0,80,0,0
46566,-133.333333333333,4,1,0,80,0,0
47233,-133.333333333333,4,2,0,80,0,0
49233,-133.333333333333,4,1,0,80,0,0
57345,-100,4,2,0,80,0,0
66345,-200,4,2,0,80,0,0
67900,-100,4,1,0,80,0,0
69233,-100,4,1,0,60,0,0
70567,-100,4,1,0,80,0,0
71900,-100,4,1,0,70,0,0
72567,-100,4,1,0,80,0,0
74567,-100,4,1,0,70,0,0
75900,-100,4,1,0,80,0,0
78595,-100,4,2,0,80,0,0
78678,-200,4,2,0,80,0,0
79678,-100,4,2,0,80,0,0
79928,-100,4,1,0,80,0,0
111844,-100,4,1,0,30,0,0
112177,-100,4,1,0,80,0,0

[Colours]
Combo1 : 255,255,128
Combo2 : 255,128,255
Combo3 : 255,60,157
Combo4 : 0,128,255

[HitObjects]
120,192,1345,2,0,B|208:120|272:232|344:152,1,240.000001788139,4|0
383,89,2678,2,0,B|335:113|343:177,1,80.0000005960464
422,144,3345,2,0,B|382:136|342:152,1,80.0000005960464
408,208,4011,6,0,B|304:160|256:272|152:216,1,240.000001788139
99,237,5345,2,0,B|139:213|187:229,1,80.0000005960464
130,165,6011,2,0,B|186:197|178:261,1,80.0000005960464
208,144,6678,5,0
352,72,7345,1,0
208,144,8011,1,0
208,144,8345,1,0
208,144,8678,2,0,B|296:120|376:144,1,160.000001192093,0|0
366,141,9678,2,0,B|416:128|432:88,2,80.0000005960464,0|0|0
256,192,10678,12,0,12011
145,242,12345,2,0,B|96:256|80:296,2,80.0000005960464,0|0|0
224,272,13345,2,0,B|273:258|289:218,2,80.0000005960464,0|0|0
145,242,14345,1,0
112,168,14678,5,0
112,168,15011,2,0,B|152:96|240:80,1,160.000001192093
216,160,16011,2,0,B|176:240|216:320,1,160.000001192093
213,314,17011,1,0
288,288,17345,6,0,B|360:264,1,40.0000002980232,0|2
400,248,17845,1,2
400,248,18178,2,2,B|440:248,2,40.0000002980232
384,208,18678,2,0,B|376:160|320:120,3,80.0000005960464,0|2|0|2
288,80,20011,6,0,B|216:104,1,40.0000002980232,0|2
176,120,20511,1,2
176,120,20844,2,2,B|104:120,2,40.0000002980232
192,160,21345,2,0,B|208:208|184:240,3,80.0000005960464,0|2|0|2
216,312,22678,6,0,B|280:336,2,40.0000002980232,0|2|2
272,256,23345,1,0
272,256,23678,1,2
328,192,24011,2,0,B|424:160,1,80.0000005960464,0|2
280,128,24678,2,0,B|176:160,1,80.0000005960464,0|2
280,128,25345,5,0
360,104,25678,2,0,B|424:160|424:256,1,160.000001192093,2|2
344,224,26678,2,0,B|264:192|160:232,1,160.000001192093,0|0
187,222,27678,1,6
112,248,28011,5,4
72,176,28345,2,0,B|48:128,1,40.0000002980232,2|0
120,96,28845,2,0,B|144:40,1,40.0000002980232,2|2
216,72,29345,2,0,B|248:48|312:48,3,80.0000005960464,0|2|0|2
360,88,30678,6,0,B|424:80,2,40.0000002980232,0|2|2
288,128,31345,1,0
256,200,31678,1,2
256,280,32011,2,0,B|272:368,1,80.0000005960464
192,360,32678,2,0,B|176:272,1,80.0000005960464
112,208,33345,6,0,B|192:96|352:144,1,240.000001788139,0|0
400,176,36011,6,0,B|320:288|160:240,1,240.000001788139,0|0
200,176,38678,5,0
200,176,39345,2,0,B|216:112|280:72,2,119.999997317791
312,208,41345,5,0
312,208,42012,2,0,B|296:272|232:312,2,119.999997317791
328,88,44011,5,0
328,88,44345,1,0
328,88,44678,2,0,B|304:168,1,59.9999986588955
296,200,45345,2,0,B|224:200,1,59.9999986588955
176,200,46011,2,0,B|144:272,1,59.9999986588955
128,312,46678,5,0
128,312,47011,1,0
128,312,47345,2,0,B|160:240,1,59.9999986588955
176,200,48011,2,0,B|248:200,1,59.9999986588955
296,200,48678,2,0,B|320:144,1,59.9999986588955
336,88,49345,5,0
336,88,49678,2,0,B|464:176|384:344|224:320,1,359.999991953373
176,312,52011,5,0
176,312,52345,2,0,B|48:224|128:56|288:80,1,359.999991953373
256,192,54678,12,0,57345
256,136,66678,6,0,B|296:256,1,120.00000089407
368,248,68011,5,0
368,248,68345,1,0
320,96,69345,1,4
320,96,69678,1,4
152,136,70678,1,0
152,136,71011,1,0
192,296,72011,1,4
192,296,72345,1,4
192,296,72678,2,0,B|136:312,3,40,4|0|4|0
112,320,73345,5,0
112,320,73678,1,0
176,136,74678,1,4
176,136,75011,1,4
328,256,76011,1,0
328,256,76345,1,0
416,80,77344,1,4
416,80,77677,1,4
416,80,78011,2,0,B|360:96,3,40.0000002980232,4|0|0|4
378,91,78678,6,0,B|272:91,1,80.0000005960464
176,120,80011,6,0,B|88:104|-8:136,2,160.000001192093,4|8|4
240,168,81678,1,0
176,216,82011,1,0
248,256,82344,2,0,B|296:280,2,40.0000002980232,8|0|0
176,216,83011,6,0,B|88:232|24:312,2,160.000001192093,8|8|0
248,256,84678,2,0,B|304:240,1,40.0000002980232,0|0
320,232,85011,2,0,B|368:216,1,40.0000002980232,8|0
396,207,85344,6,0,B|427:124|531:92,2,160.000001192093,0|8|0
352,272,87011,1,0
288,224,87344,1,0
264,304,87677,2,0,B|264:344,2,40.0000002980232,8|0|0
288,224,88344,6,0,B|265:149|297:61,2,160.000001192093,8|8|0
248,296,90011,2,0,B|184:312,1,40.0000002980232,0|0
168,320,90344,2,0,B|104:336,1,40.0000002980232,8|0
88,344,90677,6,0,B|40:272,1,80.0000005960464,0|8
112,232,91344,2,0,B|104:128,1,80.0000005960464,0|0
184,136,92011,2,0,B|216:64,1,80.0000005960464,0|8
296,80,92677,2,0,B|336:64,2,40.0000002980232,0|0|0
296,80,93344,6,0,B|304:176,1,80.0000005960464,0|8
384,152,94011,2,0,B|328:232,1,80.0000005960464,0|0
400,264,94677,2,0,B|304:288,1,80.0000005960464,0|8
360,352,95344,2,0,B|288:336,1,40.0000002980232,0|0
282,331,95677,2,0,B|218:315,1,40.0000002980232,8|0
208,312,96011,5,0
160,248,96344,2,0,B|128:216|80:208,2,80.0000005960464,8|0|0
184,168,97344,2,0,B|208:208|264:216,2,80.0000005960464,0|8|0
144,104,98344,6,0,B|88:112,2,40.0000002980232,0|0|0
208,56,99011,1,8
248,120,99344,2,0,B|304:112,2,40.0000002980232,0|0|0
184,168,100011,1,0
184,168,100344,1,8
160,240,100677,2,0,B|216:232,1,40.0000002980232,0|0
239,227,101011,2,0,B|303:219,1,40.0000002980232,8|0
320,216,101344,5,0
398,201,101677,1,8
416,278,102011,1,0
337,294,102344,1,8
320,216,102677,2,0,B|304:160|352:120,2,80.0000005960464,0|8|0
337,294,103677,6,0,B|400:328,2,40.0000002980232,0|0|0
256,288,104344,6,0,B|264:344,2,40.0000002980232,0|0|8
192,240,105011,6,0,B|152:288,2,40.0000002980232,0|8|0
184,160,105677,6,0,B|128:168,2,40.0000002980232,8|0|8
224,88,106344,5,0
304,64,106677,6,0,B|648:160|-160:240|224:344,1,560.000004172325,4|0
256,192,109344,12,0,112011
256,192,112344,5,4
