osu file format v9

[General]
AudioFilename: quark-hatevsbri.mp3
AudioLeadIn: 1500
PreviewTime: 79999
Countdown: 0
SampleSet: Normal
StackLeniency: 0.7
Mode: 0
LetterboxInBreaks: 1

[Editor]
Bookmarks: 22666,33333,44000,54666,57333,68000,80000,90666,101333,103666
DistanceSpacing: 1
BeatDivisor: 4
GridSize: 8

[Metadata]
Title:Quark
Artist:Hate vs Brilliance
Creator:tsuka
Version:Extra
Source:BMS
Tags:Alace Dr_dy yeahyeahyeahhh

[Difficulty]
HPDrainRate:7
CircleSize:5
OverallDifficulty:8
ApproachRate:9
SliderMultiplier:1.4
SliderTickRate:1

[Events]
//Background and Video events
0,0,"sp_stfile.png"
//Break Periods
2,57545,66078
//Storyboard Layer 0 (Background)
//Storyboard Layer 1 (Fail)
//Storyboard Layer 2 (Pass)
//Storyboard Layer 3 (Foreground)
//Storyboard Sound Samples
//Background Colour Transformations
3,100,163,162,255

[TimingPoints]
12,333.333333333333,4,1,0,100,1,0
10761,-100,4,2,0,100,0,0
12010,-100,4,1,0,100,0,0
31927,-100,4,2,0,79,0,0
33260,-200,4,1,0,79,0,0
43261,-100,4,1,0,79,0,0
57010,-100,4,1,0,0,0,0
57177,-200,4,1,0,60,0,0
66677,-100,4,2,0,70,0,0
68011,-100,4,1,0,70,0,0
68844,-200,4,1,0,100,0,0
69260,-100,4,1,0,80,0,0
70595,-100,4,1,0,100,0,0
71427,-200,4,1,0,100,0,0
71927,-100,4,1,0,100,0,0
73760,-100,4,2,0,100,0,0
73927,-100,4,1,0,100,0,0
74094,-200,4,1,0,100,0,0
74677,-100,4,1,0,100,0,0
76177,-100,4,1,0,100,0,0
78595,-100,4,1,0,0,0,0
80012,-100,4,1,0,100,0,0
81177,-200,4,1,0,100,0,0
82095,-100,4,1,0,100,0,0
83845,-200,4,1,0,100,0,0
84261,-100,4,1,0,100,0,0
90678,-100,4,1,0,80,0,0
101345,-100,4,1,0,100,0,0
109511,-50,4,1,0,100,0,0
110510,-50,4,1,0,80,0,0
112427,-50,4,2,0,100,0,0
116010,-50,4,2,0,0,0,0

[Colours]
Combo1 : 255,255,128
Combo2 : 255,128,255
Combo3 : 255,60,157
Combo4 : 0,128,255

[HitObjects]
256,192,12,12,0,1345
184,304,1678,5,0
64,336,2011,1,0
64,192,2345,1,0
112,144,2511,1,0
64,96,2678,1,0
192,32,3011,1,0
336,32,3345,1,0
480,32,3678,1,0
448,96,3845,1,0
448,96,3928,1,0
448,96,4011,5,0
480,240,4345,1,0
336,240,4678,1,0
192,240,5011,1,0
136,280,5178,1,0
80,240,5345,1,0
192,320,5678,1,0
336,320,6011,1,0
336,184,6345,1,0
336,184,6428,1,0
336,184,6511,1,0
336,184,6595,1,0
336,184,6678,5,0
48,48,7345,1,0
192,192,7845,1,0
192,192,7928,1,0
192,192,8011,1,0
112,304,8345,1,0
224,304,8595,1,0
240,304,8678,1,0
288,240,8845,1,0
336,184,9011,1,0
352,184,9095,1,0
368,184,9178,1,0
384,184,9261,1,0
400,184,9345,5,0
448,136,9511,1,0
336,344,9845,1,0
232,136,10178,1,0
104,344,10511,1,0
144,136,10678,6,0,B|139:182,1,35,0|0
192,168,10845,2,0,B|187:214,1,35,0|0
240,200,11011,2,0,B|235:246,1,35,0|0
288,232,11178,2,0,B|283:278,1,35,0|0
240,368,11345,6,0,B|245:322,1,35,0|0
192,336,11512,2,0,B|197:290,1,35,0|0
144,304,11678,2,0,B|149:258,1,35,0|0
96,272,11845,2,0,B|101:226,1,35,0|0
152,224,12012,5,4
216,192,12178,1,0
280,208,12345,2,0,B|416:208,1,105,0|0
408,192,12678,1,0
480,208,12845,1,0
408,192,13012,1,0
440,128,13178,1,0
368,136,13345,2,0,B|280:136,1,70
232,104,13678,2,0,B|144:104,1,70
96,128,14012,1,0
32,104,14178,1,0
32,104,14262,1,0
32,104,14345,1,0
40,176,14512,1,0
32,248,14678,5,4
56,304,14845,1,0
112,280,15012,1,0
88,224,15178,1,0
160,240,15345,2,0,B|248:256,1,70
176,328,15678,2,0,B|264:344,1,70
312,312,16012,1,0
384,264,16178,1,0
312,216,16345,1,0
384,176,16512,1,0
384,264,16678,1,0
384,176,16845,1,0
384,168,16928,1,0
384,160,17012,1,0
384,72,17178,1,0
320,48,17345,5,4
256,72,17512,1,0
192,48,17678,2,0,B|56:48,1,105
64,72,18012,1,0
0,104,18178,1,0
64,144,18345,1,0
0,176,18512,1,0
128,176,18678,2,0,B|216:176,1,70
384,176,19011,2,0,B|296:176,1,70
208,224,19345,1,0
256,176,19511,1,0
256,176,19595,1,0
256,176,19678,1,0
312,224,19845,1,0
480,248,20011,5,4
456,304,20178,1,0
400,280,20345,1,0
424,224,20511,1,0
352,240,20678,2,0,B|264:256,1,70
336,328,21011,2,0,B|248:344,1,70
200,312,21345,1,0
128,264,21511,1,0
200,216,21678,1,0
128,176,21845,1,0
128,264,22011,1,0
128,176,22178,1,0
128,168,22261,1,0
128,160,22345,1,0
128,152,22428,1,0
128,144,22511,1,0
128,136,22595,1,0
128,128,22678,5,0
168,40,22845,1,2
168,224,23178,1,2
416,120,23511,1,2
416,304,23845,1,2
344,344,24011,1,0
272,304,24178,1,0
344,264,24345,1,2
72,216,24678,2,0,L|72:304,1,70,0|2
152,328,25011,2,0,L|152:248,1,70,0|2
200,176,25345,5,0
256,112,25511,1,0
256,112,25595,1,0
256,112,25678,1,2
24,80,26011,1,0
80,48,26178,1,2
136,80,26345,1,0
192,48,26511,1,2
256,48,26678,2,0,L|336:48,1,70
326,48,26928,2,0,L|304:88,1,35,0|2
392,48,27178,2,0,B|416:80,1,35
413,76,27345,2,2,L|492:76,3,70,2|2|0|2
456,152,28011,5,0
456,152,28095,1,0
456,152,28178,1,2
208,152,28511,1,2
360,352,28845,1,2
112,352,29178,1,2
64,288,29345,2,0,L|80:232|128:208,1,105
168,208,29678,1,2
208,128,29845,2,0,L|288:112,1,70
336,176,30178,2,0,L|352:272,1,70,2|0
288,288,30511,1,2
288,288,30595,1,0
288,288,30678,5,0
208,240,30845,1,0
256,160,31011,1,2
336,208,31178,1,0
400,224,31345,2,0,L|400:144,1,70,2|2
464,128,31678,2,0,L|464:48,1,70,0|2
360,96,32011,5,0
296,72,32178,1,2
200,104,32345,1,8
104,48,32511,1,2
72,224,32678,5,2
168,168,32845,1,8
264,200,33011,1,2
328,176,33178,1,0
384,176,33345,6,0,L|384:256,1,70
256,352,34011,2,0,L|256:272,1,70
32,216,34678,2,0,L|112:216,1,70
152,248,35178,1,0
104,288,35345,2,0,L|24:288,1,70
128,32,36011,6,0,L|128:112,1,70
256,208,36678,2,0,L|256:128,1,70
480,72,37345,2,0,L|400:72,1,70
360,104,37845,1,0
408,144,38011,2,0,L|464:184,1,70
64,240,38678,6,0,L|88:256,1,17.5
144,288,39011,2,0,L|192:352,1,70
256,272,39678,1,0
320,344,40012,2,0,L|344:328,1,17.5
336,264,40345,1,0
400,336,40678,2,0,L|440:336,2,35
448,144,41345,6,0,L|424:128,1,17.5
368,96,41678,1,0
304,24,42012,1,0
256,112,42345,1,0
192,40,42678,1,0
178,49,42762,1,0
176,120,43012,1,0
112,48,43345,2,0,L|32:48,1,70
0,48,43595,1,0
0,48,43678,1,0
256,112,44012,5,0
256,112,44345,1,0
256,112,44678,1,0
256,112,45012,1,0
448,312,45345,6,0,L|352:312,1,70
448,240,45678,2,0,L|360:240,1,70
48,312,46178,1,0
56,328,46262,1,0
72,336,46345,1,0
88,344,46428,1,0
104,336,46512,1,0
120,328,46595,1,0
136,312,46678,5,0
200,272,46845,1,0
264,312,47012,2,0,L|272:304|272:304|280:312|280:312|288:304|288:304|296:312|296:312|304:304|304:304|312:312|312:312|320:304|320:304|328:312,1,70
376,272,47345,1,0
376,272,47678,1,0
378,72,48012,6,0,L|448:72,1,70
448,144,48345,2,0,L|360:144,1,70
256,48,48678,1,0
192,80,48845,1,0
192,80,48928,1,0
192,80,49012,1,0
128,48,49178,1,0
64,80,49345,1,0
88,144,49512,1,0
64,216,49678,2,0,L|72:224|72:224|64:232|64:232|72:240|72:240|64:248|64:248|72:256|72:256|64:264|64:264|72:272|72:272|64:280,1,70
160,288,50012,1,0
177,284,50095,1,0
190,296,50178,1,0
208,292,50262,1,0
221,304,50345,1,0
239,300,50428,1,0
252,312,50512,1,0
270,309,50595,1,0
283,321,50678,5,0
344,240,50845,2,0,L|344:200,2,35
416,320,51178,2,0,L|416:360,2,35
488,248,51512,2,0,L|488:208,4,35
344,288,52012,5,0
384,192,52178,1,0
384,192,52262,2,0,B|440:192,1,43.7499993480742
347,102,52512,1,0
347,102,52595,2,0,B|387:62,1,43.7499993480742
256,64,52845,1,0
256,64,52928,2,0,B|256:8,1,43.7499993480742
166,102,53178,1,0
166,102,53262,2,0,B|126:62,1,43.7499993480742
128,192,53512,1,0
128,192,53595,2,0,B|72:192,1,43.7499993480742
166,283,53845,1,0
166,283,53928,2,0,B|126:323,1,43.7499993480742
256,320,54178,1,0
256,320,54262,1,0
256,320,54345,2,0,B|256:352,5,21.8749996740371
256,320,54678,5,0
256,192,56012,12,0,57012
256,192,57345,5,4
56,112,66678,5,0
18,191,66845,1,0
98,228,67012,1,0
135,149,67178,1,0
256,176,67345,5,0
343,216,67512,1,0
302,303,67678,1,0
215,263,67845,1,0
256,56,68012,5,4
472,128,68345,1,4
256,176,68678,1,0
296,216,68845,2,0,B|312:296,1,70
352,320,69345,5,0
56,320,69678,1,0
136,112,70012,1,0
184,96,70178,2,0,B|232:72|232:72|320:112,1,140
368,136,70678,5,4
296,352,71012,1,4
248,136,71345,1,0
208,176,71512,2,0,B|128:192,1,70
104,232,72012,5,0
376,280,72345,1,0
456,24,72678,1,0
376,72,72845,1,0
408,160,73012,1,0
320,192,73178,1,0
56,144,73345,5,0
72,320,73678,1,0
128,280,73845,1,0
184,312,74012,1,0
248,288,74178,2,0,B|328:304,1,70
384,296,74678,5,0
448,24,75012,1,0
320,160,75345,1,0
256,168,75512,2,0,B|200:216|200:216|176:136,1,140
152,64,76012,5,0
96,120,76178,1,0
96,120,76262,1,0
96,120,76345,2,0,B|40:176,1,70
80,232,76678,1,0
80,232,76845,2,0,B|144:224|144:224|192:304,1,140
400,272,77345,1,0
400,272,77678,2,0,B|272:272,1,105
256,264,78012,5,0
152,176,78178,1,0
360,176,78345,1,0
256,208,78512,5,0
256,192,78595,12,0,79678
40,40,80011,5,0
40,128,80178,1,0
104,72,80345,1,2
104,160,80511,1,0
168,40,80678,1,2
168,128,80845,1,2
232,72,81011,1,0
232,160,81178,6,0,L|264:144|296:160,1,70,6|0
352,120,81678,1,0
416,160,81845,1,2
480,120,82011,1,0
472,192,82178,2,0,B|440:216|440:216|424:320,1,140,2|0
424,314,82595,1,0
424,314,82678,5,0
352,272,82845,1,0
336,352,83011,1,2
256,320,83178,1,0
184,320,83345,1,2
104,344,83511,1,2
72,264,83678,1,0
152,232,83845,6,0,B|136:200|136:200|152:168,1,70,2|0
192,80,84345,1,2
280,112,84511,1,0
240,200,84678,1,0
152,168,84845,1,2
152,168,84928,1,0
152,168,85011,1,0
192,80,85178,1,2
368,80,85345,5,0
456,80,85511,1,0
400,144,85678,1,2
488,144,85845,1,0
368,208,86011,1,2
456,208,86178,1,2
400,272,86345,1,0
488,272,86511,6,0,L|512:320|448:376,1,140,2|0
384,352,87011,2,0,B|296:360,1,70,2|0
280,296,87345,1,0
280,296,87511,2,0,B|192:304,1,70,2|0
144,352,87845,1,2
144,352,87928,1,0
144,352,88011,5,0
64,344,88178,1,0
56,256,88345,1,2
136,272,88511,1,0
192,208,88678,5,2
280,192,88845,1,2
368,208,89011,1,0
456,184,89178,2,0,B|448:128|448:128|480:80,1,105,2|0
472,40,89511,5,0
456,48,89595,1,0
440,56,89678,1,0
320,96,89845,1,0
328,112,89928,1,0
336,128,90011,1,0
192,40,90178,1,0
184,56,90261,1,0
176,72,90345,1,0
168,88,90428,1,0
160,104,90511,1,0
152,120,90595,1,0
144,136,90678,5,0
144,352,91011,1,8
336,256,91345,1,0
432,208,91511,2,0,B|432:304,1,70,0|8
336,40,92011,5,0
336,256,92345,1,8
160,144,92678,5,0
80,144,92845,2,0,B|10:144,1,70,0|8
48,48,93178,1,8
120,64,93345,2,0,B|256:96,1,140,0|8
336,104,93845,1,0
336,104,94011,2,0,B|352:176,1,70
368,256,94345,1,8
48,344,94678,6,0,B|88:312|88:312|208:312,1,140,0|8
256,168,95345,1,0
336,184,95511,1,0
336,184,95595,1,0
336,184,95678,1,8
416,200,95845,1,0
456,272,96011,6,0,B|384:288|384:288|376:352,1,140,0|8
296,320,96511,1,0
296,320,96678,2,0,B|224:320,1,70
144,320,97011,1,8
56,160,97345,6,0,B|128:176|128:176|136:240,1,140,0|8
472,144,98011,1,0
472,232,98178,1,0
400,192,98345,1,8
400,192,98511,1,0
400,192,98595,1,0
400,192,98678,6,0,B|328:208|328:208|272:152,1,140,0|8
112,80,99345,1,0
72,160,99511,1,0
72,160,99595,1,0
72,160,99678,1,8
112,240,99845,1,0
208,232,100011,2,0,B|288:256,1,70,0|8
403,236,100345,2,0,B|336:216,1,70,0|8
256,120,100678,5,8
272,112,100761,1,0
288,104,100845,1,8
304,96,100928,1,0
320,88,101011,1,0
336,96,101095,1,0
352,104,101178,1,8
368,112,101261,1,0
384,120,101345,6,0,L|384:208,1,70
448,352,101678,2,0,B|448:282,1,70,0|0
256,120,102011,2,0,L|256:208,1,70,0|0
320,352,102344,2,0,B|320:282,1,70,0|0
240,312,102678,5,0
176,344,102845,1,0
144,280,103011,1,0
208,248,103178,1,0
248,176,103345,2,0,L|336:176,1,70,0|0
488,192,103678,2,0,L|416:192,1,70,0|0
312,336,104011,6,0,L|312:248,1,70,0|0
248,104,104345,2,0,B|248:174,1,70,0|0
144,280,104678,2,0,L|144:192,1,70,0|0
80,48,105012,2,0,B|80:118,1,70,0|0
200,88,105345,5,0
256,128,105511,1,0
320,96,105678,1,0
336,88,105761,1,0
352,80,105845,1,0
368,72,105928,1,0
384,64,106011,1,0
400,72,106095,1,0
408,88,106178,1,0
416,104,106261,1,0
424,120,106345,1,0
488,104,106511,1,0
384,192,106678,5,0
384,192,106845,1,0
336,248,107011,2,0,B|400:320,1,70,0|0
128,192,107345,1,0
128,192,107512,1,0
176,248,107678,2,0,B|112:320,1,70,0|0
184,352,108011,5,0
256,280,108178,1,0
328,352,108345,1,0
256,336,108511,1,0
256,224,108678,1,0
264,208,108761,1,0
272,192,108845,1,0
264,176,108928,1,0
256,160,109011,1,0
248,144,109095,1,0
232,128,109178,1,0
224,112,109261,1,0
232,96,109345,1,0
240,80,109428,1,0
256,64,109511,6,0,B|256:16,5,35
104,178,109845,2,0,B|56:174,4,35
407,178,110178,2,0,B|455:174,4,35
256,304,110511,2,0,L|256:352,36,35
256,304,112345,5,0
256,192,112428,12,0,116011
