osu file format v9

[General]
AudioFilename: quark-hatevsbri.mp3
AudioLeadIn: 1500
PreviewTime: 79999
Countdown: 0
SampleSet: Normal
StackLeniency: 0.7
Mode: 0
LetterboxInBreaks: 1

[Editor]
Bookmarks: 13346,22666,33333,44000,54666,57333,68000,80000,82679,90666,101333,103666
DistanceSpacing: 0.3
BeatDivisor: 4
GridSize: 8

[Metadata]
Title:Quark
Artist:Hate vs Brilliance
Creator:tsuka
Version:Another
Source:BMS
Tags:Alace Dr_dy yeahyeahyeahhh

[Difficulty]
HPDrainRate:8
CircleSize:4
OverallDifficulty:7
ApproachRate:8
SliderMultiplier:1.4
SliderTickRate:0.5

[Events]
//Background and Video events
0,0,"sp_stfile.png"
//Break Periods
2,57545,65928
//Storyboard Layer 0 (Background)
//Storyboard Layer 1 (Fail)
//Storyboard Layer 2 (Pass)
//Storyboard Layer 3 (Foreground)
//Storyboard Sound Samples
//Background Colour Transformations
3,100,163,162,255

[TimingPoints]
12,333.333333333333,4,1,0,80,1,0
10345,-66.6666666666667,4,1,0,60,0,0
10428,-66.6666666666667,4,1,0,48,0,0
10511,-66.6666666666667,4,1,0,37,0,0
10595,-66.6666666666667,4,1,0,29,0,0
10678,-66.6666666666667,4,1,0,80,0,0
10928,-66.6666666666667,4,1,0,71,0,0
11261,-66.6666666666667,4,1,0,60,0,0
11595,-66.6666666666667,4,1,0,50,0,0
12011,-100,4,1,0,90,0,0
32011,-66.6666666666667,4,1,0,70,0,0
32095,-66.6666666666667,4,1,0,63,0,0
32262,-66.6666666666667,4,1,0,55,0,0
32428,-66.6666666666667,4,1,0,46,0,0
32595,-66.6666666666667,4,1,0,41,0,0
32761,-66.6666666666667,4,1,0,35,0,0
32928,-66.6666666666667,4,1,0,31,0,0
33095,-66.6666666666667,4,1,0,24,0,0
33345,-100,4,1,0,70,0,0
43178,-100,4,1,0,85,0,0
44011,-100,4,1,0,59,0,0
44511,-100,4,2,0,100,0,0
46595,-100,4,1,0,61,0,0
47178,-100,4,2,0,100,0,0
49345,-100,4,1,0,81,0,0
52011,-100,4,1,0,87,0,0
53678,-83.3333333333333,4,1,0,90,0,0
54011,-66.6666666666667,4,1,0,81,0,0
66678,-100,4,2,0,100,0,0
67928,-100,4,1,0,81,0,0
68512,-100,4,2,0,100,0,0
69262,-100,4,2,0,81,0,0
69845,-100,4,2,0,100,0,0
70428,-100,4,1,0,80,0,0
71178,-100,4,2,0,100,0,0
71928,-100,4,2,0,80,0,0
72512,-100,4,1,0,50,0,0
72762,-100,4,1,0,60,0,0
72928,-100,4,1,0,70,0,0
73095,-100,4,1,0,81,0,0
73845,-100,4,2,0,100,0,0
74428,-100,4,1,0,81,0,0
75178,-100,4,1,0,48,0,0
75428,-100,4,1,0,60,0,0
75595,-100,4,1,0,70,0,0
75761,-100,4,1,0,81,0,0
78678,-100,4,2,0,49,0,0
80011,-100,4,1,0,81,0,0
101428,-100,4,1,0,91,0,0
109511,-66.6666666666667,4,1,0,100,0,0
110678,-50,4,1,0,90,0,0
110845,-50,4,1,0,81,0,0
111011,-50,4,1,0,71,0,0
111178,-50,4,1,0,60,0,0
111345,-50,4,1,0,48,0,0
111511,-50,4,1,0,39,0,0
111761,-50,4,1,0,34,0,0
112178,-50,4,1,0,71,0,0

[Colours]
Combo1 : 255,255,128
Combo2 : 255,128,255
Combo3 : 255,60,157
Combo4 : 0,128,255

[HitObjects]
88,96,1345,2,0,B|240:96,3,140
424,152,2678,2,0,B|272:152,3,140
224,208,3845,1,0
224,208,3928,1,0
224,208,4012,2,0,B|224:352,3,140
152,176,5345,2,0,B|152:32,3,140
232,48,6511,1,0
232,48,6595,1,0
232,48,6678,1,2
376,48,6845,5,2
376,48,7178,1,2
376,48,7511,2,2,B|304:48,2,70,2|2|2
416,64,7928,1,0
456,80,8011,1,2
456,312,8345,1,2
384,272,8511,1,2
384,272,8595,1,0
384,272,8678,1,0
312,232,8845,2,2,B|360:176,2,70,2|0|2
208,264,9345,5,2
208,264,9511,1,2
24,192,9845,1,2
192,88,10178,1,2
304,88,10345,2,2,B|256:88,7,26.2499992176891
304,88,10678,6,0,B|408:88,1,104.999996870756,0|0
488,168,11012,2,0,B|384:168,1,104.999996870756,0|0
304,248,11345,2,0,B|409:248,1,104.999996870756,0|0
488,328,11678,2,0,B|383:328,1,104.999996870756,0|0
264,328,12012,5,4
120,264,12345,2,0,B|192:296,1,70
320,216,12845,2,0,B|248:248,1,70
168,120,13345,1,0
24,184,13678,2,0,B|96:152,1,70
224,232,14178,2,0,B|152:200,1,70
168,120,14512,1,0
168,120,14595,1,0
168,120,14678,1,0
312,56,15012,2,0,B|240:88,1,70
112,8,15512,2,0,B|184:40,1,70
400,120,16012,5,0
336,288,16345,1,0
168,360,16678,1,0
96,312,16845,1,0
96,312,16928,1,0
96,312,17012,1,0
24,264,17178,1,0
56,168,17345,5,2
56,168,17512,1,2
256,32,17845,1,2
56,168,18178,2,2,B|136:168,2,70
256,32,18845,2,2,B|184:32,2,70,2|2|2
320,80,19345,1,0
384,128,19512,1,2
384,128,19595,1,0
384,128,19678,1,0
448,176,19845,1,2
384,232,20011,1,2
384,232,20178,1,2
184,368,20511,1,2
384,232,20845,2,2,B|304:232,2,70
464,280,21345,5,2
184,368,21678,1,2
464,280,22011,1,2
400,320,22178,1,2
336,360,22345,1,2
336,360,22428,1,0
336,360,22511,1,2
336,360,22595,1,0
336,360,22678,6,2,B|264:232,1,140
267,237,23345,2,2,B|208:272,3,70,0|2|0|2
136,240,24011,2,2,B|208:112,1,140
205,118,24678,2,2,B|264:152,3,70,0|2|0|2
336,128,25345,2,2,B|264:0,1,140
267,5,26011,2,2,B|207:39,3,70,0|2|0|2
144,80,26678,5,2
48,240,27011,1,2
128,256,27178,1,0
160,272,27261,1,0
192,288,27345,1,2
264,320,27511,1,2
288,288,27595,1,0
320,272,27678,1,2
360,264,27761,1,0
400,264,27845,1,0
464,192,28011,5,2
432,120,28178,2,2,B|360:120,2,70,2|0|2
80,120,28845,2,2,B|152:120,2,70,2|0|2
256,296,29511,2,2,B|256:368,2,70,2|0|2
160,256,30011,2,2,B|208:192,1,70,0|2
352,256,30345,2,2,B|304:192,1,70,0|2
344,112,30678,5,2
256,72,30845,2,0,B|256:0,2,70,0|2|0
168,112,31345,1,2
256,352,31678,1,2
256,352,31845,1,2
96,264,32011,6,2,B|208:280,1,104.999996870756,2|2
416,264,32345,2,2,B|304:280,1,104.999996870756,2|2
120,160,32678,2,2,B|216:208,1,104.999996870756,2|2
392,160,33011,2,2,B|296:208,1,104.999996870756,2|2
352,64,33345,6,0,B|344:56|344:56|336:64|336:64|328:56|328:56|320:64|320:64|312:56|312:56|304:64|304:64|296:56|296:56|288:64|288:64|280:56|280:56|272:64|272:64|264:56|264:56|256:64|256:64|248:56|248:56|240:64|240:64|232:56|232:56|224:64|224:64|216:56|216:56|208:64|208:64|200:56|200:56|192:64|192:64|184:56|184:56|176:64|176:64|168:56|168:56|160:64|160:64|160:64|160:64|152:56,2,280,0|8|0
352,64,35011,1,0
352,64,35345,1,8
160,192,36011,6,0,B|168:200|168:200|176:192|176:192|184:200|184:200|192:192|192:192|200:200|200:200|208:192|208:192|216:200|216:200|224:192|224:192|232:200|232:200|240:192|240:192|248:200|248:200|256:192|256:192|264:200|264:200|272:192|272:192|280:200|280:200|288:192|288:192|296:200|296:200|304:192|304:192|312:200|312:200|320:192|320:192|328:200|328:200|336:192|336:192|344:200|344:200|352:192|352:192|352:192|352:192|360:200,2,280,0|8|0
160,192,37678,1,0
160,192,38011,1,8
352,320,38678,6,0,B|344:328|344:328|336:320|336:320|328:328|328:328|320:320|320:320|312:328|312:328|304:320|304:320|296:328|296:328|288:320|288:320|280:328|280:328|272:320|272:320|264:328|264:328|256:320|256:320|248:328|248:328|240:320|240:320|232:328|232:328|224:320|224:320|216:328|216:328|208:320|208:320|200:328|200:328|192:320|192:320|184:328|184:328|176:320|176:320|168:328|168:328|160:320|160:320|160:320|160:320|152:328,2,280,0|8|0
352,320,40345,1,0
352,320,40678,1,8
160,192,41345,6,0,B|168:200|168:200|176:192|176:192|184:200|184:200|192:192|192:192|200:200|200:200|208:192|208:192|216:200|216:200|224:192|224:192|232:200|232:200|240:192|240:192|248:200|248:200|256:192|256:192|264:200|264:200|272:192|272:192|280:200|280:200|288:192|288:192|296:200|296:200|304:192|304:192|312:200|312:200|320:192|320:192|328:200|328:200|336:192|336:192|344:200|344:200|352:192|352:192|352:192|352:192|360:200,2,280,0|8|0
160,192,43012,1,0
448,112,43345,2,0,B|376:136,1,70
448,272,43678,2,0,B|376:248,1,70
452,192,44012,5,4
140,12,44345,1,4
452,192,44678,2,2,B|416:254,1,70,2|0
278,349,45012,2,2,B|318:279,1,70,2|0
328,120,45345,2,2,B|288:189,1,70,2|0
153,277,45678,2,2,B|189:214,1,70,2|0
203,48,46012,2,2,B|163:117,1,70,2|0
28,205,46345,2,2,B|64:142,1,70,2|0
140,12,46678,5,4
452,192,47012,1,4
28,205,47345,2,2,B|64:142,1,70,2|0
203,48,47678,2,2,B|163:117,1,70,2|0
153,277,48012,2,2,B|189:214,1,70,2|0
328,120,48345,2,2,B|288:189,1,70,2|0
278,349,48678,2,2,B|318:279,1,70,2|0
452,192,49012,2,2,B|416:254,1,70,2|0
488,120,49345,5,0
416,88,49512,1,0
344,56,49678,1,0
272,24,49845,1,0
240,360,50178,1,0
168,336,50345,1,0
160,336,50428,1,0
152,336,50512,1,0
144,336,50595,1,0
136,336,50678,1,0
88,280,50845,2,0,B|40:280,2,35
56,208,51178,2,0,B|8:208,2,35
136,208,51512,1,0
144,208,51595,1,0
152,208,51678,1,0
160,208,51762,1,0
168,208,51845,1,0
176,208,51928,1,0
184,208,52012,1,0
152,128,52178,6,0,B|104:128,2,35
176,48,52512,2,0,B|128:48,2,35
240,104,52845,1,0
320,120,53012,1,0
400,136,53178,1,0
480,160,53345,2,0,B|488:216|448:248,1,70
467,227,53678,2,0,B|447:271|407:295,1,84.0000020027161
415,291,54012,2,0,B|375:319|327:343|272:368|192:384|112:368|8:328,1,419.999987483025,0|4
256,192,55012,12,0,57345
96,248,66678,6,2,B|40:304,1,70,0|0
166,248,67012,2,2,B|96:248,1,70,0|0
216,200,67345,2,2,B|160:256,1,70,0|0
286,200,67678,2,2,B|216:200,1,70,0|0
360,88,68012,5,0
488,336,68345,1,0
360,88,68678,2,2,B|360:168,1,70
488,336,69012,2,2,B|488:256,1,70
392,304,69345,5,4
120,344,69678,1,4
392,304,70012,2,0,B|320:304,1,70,2|2
120,344,70345,2,0,B|192:344,1,70,2|0
232,256,70678,5,0
48,32,71012,1,0
232,256,71345,2,2,B|232:184,1,70
48,32,71678,2,2,B|48:112,1,70
152,96,72012,5,4
424,152,72345,1,4
152,96,72678,1,0
248,96,72845,1,0
328,152,73012,1,0
424,152,73178,1,0
376,240,73345,5,0
176,352,73678,1,0
376,240,74012,1,2
344,320,74178,1,2
264,360,74345,1,2
176,352,74512,1,0
232,272,74678,5,0
32,160,75012,1,0
232,272,75345,1,0
200,192,75512,1,0
120,152,75678,1,0
32,160,75845,1,0
72,72,76012,5,0
152,40,76178,1,0
184,64,76262,1,0
232,72,76345,1,0
280,144,76512,1,0
320,128,76595,1,0
344,96,76678,1,0
416,144,76845,1,0
384,176,76928,1,0
368,216,77012,1,0
368,256,77095,1,0
384,296,77178,1,0
320,352,77345,2,0,B|288:288|216:256,1,140
220,257,77762,1,0
220,257,77845,1,0
112,256,78012,5,0
112,128,78178,1,0
112,256,78345,1,0
112,128,78512,1,0
256,192,78678,12,0,79845
352,120,80011,5,0
88,128,80345,1,8
328,192,80678,2,0,B|256:192,1,70
312,272,81011,2,0,B|392:272,1,70,8|0
288,352,81345,1,0
348,94,81678,1,8
224,310,82011,2,0,B|242:240,1,70
151,274,82345,2,0,B|130:351,1,70,8|0
80,240,82678,1,0
330,323,83011,1,8
126,181,83345,2,0,B|193:205,1,70
168,111,83678,2,0,B|92:83,1,70,8|0
256,48,84011,5,0
464,136,84345,1,8
352,328,84678,1,0
272,304,84845,1,0
272,304,84928,1,0
272,304,85011,1,8
208,248,85178,1,0
208,248,85261,1,0
208,248,85345,6,0,B|160:184|80:216,1,140,0|8
83,214,85845,1,0
80,344,86011,2,0,B|0:320,1,70
96,80,86345,2,0,B|176:104,1,70,8|0
240,152,86678,6,0,B|249:231|334:243,1,140,0|8
331,243,87178,1,0
398,132,87345,2,0,B|455:192,1,70
252,353,87678,2,0,B|194:292,1,70,8|0
240,208,88011,6,0,B|223:129|137:124,1,140,0|8
141,125,88511,1,0
83,240,88678,2,0,B|20:184,1,70
209,8,89011,2,0,B|271:63,1,70,8|0
368,112,89345,5,0
432,168,89511,1,0
432,168,89595,1,0
432,168,89678,1,8
352,192,89845,1,0
280,232,90011,2,0,B|216:184,1,70
96,184,90345,2,0,B|160:232,1,70,8|0
152,226,90595,1,0
152,226,90678,1,0
200,312,90845,6,0,B|136:376,2,70,0|8|0
200,312,91345,2,0,B|280:296,1,70
268,298,91678,2,0,B|320:232,1,70,8|0
311,242,91928,1,0
311,242,92011,1,0
312,72,92178,6,0,B|376:8,2,70,0|8|0
312,72,92678,2,0,B|232:88,1,70
243,85,93011,2,0,B|192:152,1,70,8|0
200,141,93261,1,0
200,141,93345,1,0
64,192,93511,6,0,B|32:264,2,70,0|8|0
64,192,94011,1,0
144,224,94178,1,0
216,264,94345,1,8
288,304,94511,1,0
288,304,94595,1,0
288,304,94678,1,0
448,192,94845,6,0,B|480:120,2,70,0|8|0
448,192,95345,1,0
368,160,95511,1,0
296,120,95678,1,8
224,80,95845,1,0
224,80,95928,1,0
224,80,96011,1,0
136,152,96178,5,0
16,224,96345,1,8
136,152,96511,1,0
208,240,96678,2,0,B|136:288,1,70
272,352,97011,2,0,B|344:304,1,70,8|0
352,296,97261,1,0
376,280,97345,1,0
392,192,97511,5,0
490,91,97678,1,8
392,192,97845,1,0
300,125,98011,2,0,B|358:60,1,70
209,34,98345,2,0,B|152:98,1,70,8|0
147,108,98595,1,0
128,130,98678,1,0
80,232,98845,6,0,B|16:176,2,70,0|8|0
136,296,99345,1,0
192,232,99511,1,0
232,216,99595,1,0
272,200,99678,1,8
312,272,99845,1,0
352,256,99928,1,0
392,240,100011,1,0
480,152,100178,5,0
360,56,100345,1,0
480,152,100511,1,0
360,56,100678,2,0,B|264:56,1,70
56,56,101011,2,0,B|136:56,1,70,0|0
126,56,101261,1,0
126,56,101345,1,0
176,136,101511,5,0
232,232,101678,1,0
272,336,101845,1,0
376,304,102011,2,0,B|336:224,1,70
80,160,102345,2,0,B|120:240,1,70,0|0
112,222,102595,1,0
112,222,102678,1,0
232,232,102845,5,0
328,176,103011,1,0
432,136,103178,1,0
400,32,103345,2,0,B|320:72,1,70
256,328,103678,2,0,B|336:288,1,70,0|0
319,296,103928,1,0
319,296,104011,5,0
193,88,104345,1,0
104,88,104511,1,0
104,88,104595,1,0
104,88,104678,1,0
319,296,105011,1,0
408,296,105178,1,0
408,296,105261,1,0
408,296,105345,1,0
464,64,105678,1,0
464,64,105761,1,0
464,64,105845,1,0
464,64,105928,1,0
464,64,106011,2,0,B|384:64,1,70
296,136,106345,2,0,B|368:136,1,70
472,192,106678,5,0
256,344,107011,1,0
40,192,107345,1,0
256,40,107678,1,0
472,192,108011,5,0
384,192,108178,1,0
296,192,108345,1,0
208,192,108511,1,0
120,192,108678,2,0,B|72:192,8,35
104,32,109511,6,0,B|160:128,1,104.999996870756
200,344,109845,2,0,B|256:248,1,104.999996870756
296,32,110178,2,0,B|352:128,1,104.999996870756
472,200,110511,5,0
472,200,110595,1,0
472,200,110678,2,0,B|448:168,32,35
472,200,112345,5,4
