osu file format v12

[General]
AudioFilename: Rain.mp3
AudioLeadIn: 0
PreviewTime: 66844
Countdown: 0
SampleSet: Soft
StackLeniency: 0.7
Mode: 0
LetterboxInBreaks: 1
EpilepsyWarning: 1
WidescreenStoryboard: 1

[Editor]
DistanceSpacing: 1
BeatDivisor: 4
GridSize: 4
TimelineZoom: 1

[Metadata]
Title:Rain
TitleUnicode:Rain
Artist:Hata Motohiro
ArtistUnicode:秦基博
Creator:Moway
Version:Normal
Source:Kotonoha no Niwa
Tags:garden of words 言の葉の庭 ending comix wave makoto shinkai senri oe
BeatmapID:330199
BeatmapSetID:131044

[Difficulty]
HPDrainRate:2
CircleSize:3
OverallDifficulty:3
ApproachRate:4
SliderMultiplier:1.8
SliderTickRate:1

[Events]
//Background and Video events
0,0,"bg.jpg",0,0
//Break Periods
2,87913,107263
2,160957,180306
//Storyboard Layer 0 (Background)
//Storyboard Layer 1 (Fail)
//Storyboard Layer 2 (Pass)
//Storyboard Layer 3 (Foreground)
//Storyboard Sound Samples
//Background Colour Transformations
3,100,163,162,255

[TimingPoints]
1627,652.173913043478,4,2,2,30,1,0
11083,-100,4,2,1,20,0,0
12387,-100,4,2,1,30,0,0
13040,-100,4,2,1,40,0,0
14670,-100,4,2,1,50,0,0
33909,-100,4,2,1,30,0,0
35540,-100,4,2,1,50,0,0
55105,-100,4,2,1,30,0,0
56409,-100,4,2,1,50,0,0
64887,-100,4,2,1,40,0,0
66192,-100,4,2,1,50,0,0
66843,-100,4,2,1,60,0,1
75648,-100,4,2,1,30,0,1
77278,-100,4,2,1,60,0,1
86083,-100,4,2,1,30,0,1
87713,-100,4,2,1,55,0,0
108583,-100,4,2,1,50,0,0
127822,-100,4,2,1,30,0,0
137931,-100,4,2,1,40,0,0
139235,-100,4,2,1,50,0,0
139887,-100,4,2,1,60,0,1
148692,-100,4,2,1,30,0,1
150322,-100,4,2,1,60,0,1
160105,-100,4,2,1,30,0,1
160757,-100,4,2,1,50,0,0
181626,-100,4,2,1,30,0,0
181790,-100,4,2,2,30,0,0
202496,-100,4,2,1,50,0,0
210322,-100,4,2,1,55,0,0
214561,-100,4,2,1,30,0,0
214724,-100,4,2,1,55,0,0
215050,-100,4,2,1,30,0,0
215540,-100,4,2,1,60,0,1
224344,-100,4,2,1,30,0,1
225974,-100,4,2,1,60,0,1
234779,-100,4,2,1,30,0,1
236328,-100,4,2,1,60,0,0
236409,-100,4,2,1,60,0,1
244398,-100,4,2,1,30,0,1
246844,-100,4,2,1,60,0,1
254996,-100,4,2,1,40,0,1
257279,-100,4,2,1,40,0,0

[HitObjects]
227,116,1627,6,0,P|135:116|68:174,1,180,2|0,0:0|0:0,0:0:0:0:
31,345,2931,1,2,0:0:0:0:
209,363,3583,1,4,0:0:0:0:
345,245,4235,2,0,P|426:202|515:201,2,180,2|0|2,0:0|0:0|0:0,0:0:0:0:
209,363,6192,1,0,0:0:0:0:
46,285,6844,6,0,P|22:192|32:108,1,180,2|0,0:0|0:0,0:0:0:0:
187,20,8148,1,2,0:0:0:0:
330,128,8800,2,0,P|421:132|486:78,1,180,4|0,0:0|0:0,0:0:0:0:
504,257,10105,1,0,0:0:0:0:
355,358,10757,1,0,0:0:0:0:
265,353,11083,6,0,L|164:342,1,90,8|0,3:0|0:0,0:0:0:0:
177,253,11735,2,0,L|76:242,1,90,4|0,3:0|0:0,0:0:0:0:
51,160,12387,6,0,P|16:130|13:79,1,90,4|0,3:0|0:0,0:0:0:0:
100,81,13040,2,0,P|134:110|138:162,1,90,8|0,0:0|0:0,0:0:0:0:
177,234,13692,2,0,P|215:261|280:261,2,90,8|0|0,3:0|0:0|0:0,0:0:0:0:
250,182,14670,6,0,P|335:226|330:311,1,180,4|8,0:0|0:0,0:0:0:0:
257,345,15648,1,0,0:0:0:0:
186,292,15974,2,0,P|96:267|3:264,1,180,0|8,0:0|0:0,0:0:0:0:
144,143,17279,6,0,P|234:124|297:63,1,180,2|8,0:0|0:0,0:0:0:0:
375,23,18257,1,0,0:0:0:0:
441,84,18583,2,0,P|486:170|460:256,1,180,0|8,0:0|0:0,0:0:0:0:
299,304,19887,5,2,0:0:0:0:
219,261,20213,2,0,P|183:234|138:218,1,90,0|8,0:0|0:0,0:0:0:0:
200,150,20866,2,0,P|235:123|281:107,1,90,0|0,0:0|0:0,0:0:0:0:
328,181,21518,2,0,P|363:212|414:226,2,90,0|8|0,0:0|0:0|0:0,0:0:0:0:
407,138,22496,6,0,P|483:189|489:251,2,135,2|0|0,0:0|0:0|0:0,0:0:0:0:
331,89,23800,1,0,0:0:0:0:
249,128,24126,1,0,0:0:0:0:
167,89,24453,2,0,L|73:64,1,90,8|0,0:0|0:0,0:0:0:0:
69,155,25105,6,0,P|98:235|74:331,1,180,2|8,0:0|0:0,0:0:0:0:
257,321,26409,1,2,0:0:0:0:
343,343,26735,2,0,P|390:337|422:311,1,90,0|8,0:0|0:0,0:0:0:0:
489,251,27387,1,0,0:0:0:0:
450,170,27713,6,0,B|356:140|358:229|257:184,1,180,2|8,0:0|0:0,0:0:0:0:
97,186,29018,1,2,0:0:0:0:
108,96,29344,2,0,P|118:40|137:15,2,90,0|8|0,0:0|0:0|0:0,0:0:0:0:
177,152,30322,6,0,P|170:231|81:271,1,180,2|8,0:0|0:0,0:0:0:0:
260,319,31626,2,0,P|344:266|432:257,1,180,0|8,0:0|0:0,0:0:0:0:
501,94,32931,6,0,P|470:60|418:39,1,90,2|0,0:0|0:0,0:0:0:0:
341,28,33583,2,0,P|296:38|251:72,1,90,2|4,0:0|3:0,0:0:0:0:
244,151,34235,1,4,3:0:0:0:
277,234,34561,1,0,0:0:0:0:
221,304,34887,2,0,P|105:305|83:258,1,180,12|4,0:0|0:0,0:0:0:0:
190,115,36192,6,0,L|283:100,1,90,8|0,0:0|0:0,0:0:0:0:
321,179,36844,2,0,P|368:211|390:257,2,90,2|0|8,0:0|0:0|0:0,0:0:0:0:
141,182,38148,6,0,P|167:269|270:282,1,180,2|8,0:0|0:0,0:0:0:0:
226,205,39126,1,0,0:0:0:0:
208,114,39453,2,0,P|235:66|268:49,2,90,2|0|8,0:0|0:0|0:0,0:0:0:0:
387,112,40757,6,0,P|468:153|496:247,1,180,2|8,0:0|0:0,0:0:0:0:
436,299,41735,1,0,0:0:0:0:
347,284,42061,2,0,P|233:262|159:266,1,180,2|8,0:0|0:0,0:0:0:0:
81,285,43040,1,0,0:0:0:0:
112,200,43366,6,0,P|142:142|130:70,2,135,2|0|0,0:0|0:0|0:0,0:0:0:0:
81,285,44670,2,0,P|117:309|177:315,2,90,0|0|8,0:0|0:0|0:0,0:0:0:0:
260,299,45974,6,0,P|289:210|275:124,1,180,2|8,0:0|0:0,0:0:0:0:
261,37,46953,1,0,0:0:0:0:
181,79,47279,2,0,P|124:93|71:90,2,90,0|0|8,0:0|0:0|0:0,0:0:0:0:
360,81,48583,6,0,P|448:136|477:214,1,180,2|8,0:0|0:0,0:0:0:0:
449,289,49561,1,0,0:0:0:0:
376,341,49887,2,0,L|282:356,2,90,2|0|8,0:0|0:0|0:0,0:0:0:0:
283,186,51192,6,0,P|183:207|131:275,1,180,2|8,0:0|0:0,0:0:0:0:
103,348,52170,1,0,0:0:0:0:
189,371,52496,2,0,P|289:350|341:282,1,180,2|8,0:0|0:0,0:0:0:0:
368,115,53800,6,0,P|323:48|252:103,2,180,2|8|4,0:0|0:0|3:0,0:0:0:0:
261,263,55757,2,0,P|217:232|197:195,1,90,4|0,3:0|0:0,0:0:0:0:
109,203,56409,6,0,P|149:286|222:341,1,180,4|8,0:0|0:0,0:0:0:0:
306,351,57387,1,0,0:0:0:0:
395,343,57713,2,0,P|444:321|476:284,1,90,0|0,0:0|0:0,0:0:0:0:
392,247,58366,2,0,P|397:193|381:147,1,90,8|0,0:0|0:0,0:0:0:0:
308,205,59018,6,0,P|220:221|135:193,1,180,2|8,0:0|0:0,0:0:0:0:
83,120,59996,1,0,0:0:0:0:
125,40,60322,2,0,P|160:69|175:122,2,90,2|0|8,0:0|0:0|0:0,0:0:0:0:
24,190,61626,6,0,B|84:247|133:170|195:248,1,180,2|8,0:0|0:0,0:0:0:0:
346,326,62931,2,0,B|416:270|339:221|396:161,1,180,2|8,0:0|0:0,0:0:0:0:
257,46,64235,5,8,3:0:0:0:
89,110,64887,1,4,3:0:0:0:
265,145,65540,2,0,P|290:193|289:238,1,90,8|0,3:0|0:0,0:0:0:0:
232,296,66192,2,0,L|185:295,2,45,4|0|0,3:0|0:0|0:0,0:0:0:0:
311,337,66844,6,0,P|408:307|459:242,1,180,4|8,0:0|0:0,0:0:0:0:
456,158,67822,1,0,0:0:0:0:
385,101,68148,2,0,P|344:91|296:66,2,90,2|0|10,0:0|0:0|0:0,0:0:0:0:
222,177,69453,6,0,P|135:192|72:268,1,180,2|8,0:0|0:0,0:0:0:0:
101,343,70431,1,0,0:0:0:0:
182,380,70757,2,0,P|188:328|169:284,2,90,2|0|10,0:0|0:0|0:0,0:0:0:0:
49,258,72061,6,0,P|32:173|45:78,1,180,2|8,0:0|0:0,0:0:0:0:
127,47,73040,1,0,0:0:0:0:
214,68,73366,2,0,P|263:71|312:58,2,90,2|0|10,0:0|0:0|0:0,0:0:0:0:
153,237,74670,6,0,L|194:339,1,90,2|0,0:0|0:0,0:0:0:0:
253,260,75322,2,0,L|286:176,1,90,8|0,0:0|0:0,0:0:0:0:
349,240,75974,2,0,P|446:260|438:188,1,180,4|0,3:0|0:0,0:0:0:0:
321,83,77279,6,0,P|240:62|137:67,1,180,4|8,0:0|0:0,0:0:0:0:
63,104,78257,1,0,0:0:0:0:
111,179,78583,2,0,P|148:249|122:347,1,180,2|10,0:0|0:0,0:0:0:0:
304,337,79887,6,0,P|400:327|477:267,1,180,2|8,0:0|0:0,0:0:0:0:
470,189,80866,1,0,0:0:0:0:
390,147,81192,2,0,P|359:116|346:69,1,90,2|0,0:0|0:0,0:0:0:0:
265,113,81844,2,0,P|224:154|174:168,1,90,10|0,0:0|0:0,0:0:0:0:
179,76,82496,6,0,P|105:126|116:215,1,180,2|8,0:0|0:0,0:0:0:0:
157,285,83474,1,0,0:0:0:0:
238,246,83800,2,0,P|330:204|415:202,1,180,2|10,0:0|0:0,0:0:0:0:
289,337,85105,6,0,P|183:334|137:268,1,180,2|8,0:0|0:0,0:0:0:0:
131,191,86083,1,8,3:0:0:0:
216,162,86409,2,0,P|266:141|292:105,1,90,4|0,3:0|0:0,0:0:0:0:
207,73,87061,2,0,P|105:91|55:151,1,180,8|4,3:0|0:0,0:0:0:0:
419,116,108583,6,0,P|369:110|222:116,1,180,4|8,0:0|0:0,0:0:0:0:
150,121,109561,1,0,0:0:0:0:
62,142,109887,2,0,P|102:197|213:187,1,180,2|8,0:0|0:0,0:0:0:0:
356,93,111192,6,0,P|394:165|374:266,1,180,2|8,0:0|0:0,0:0:0:0:
307,314,112170,1,0,0:0:0:0:
219,294,112496,2,0,P|174:281|126:282,2,90,2|0|8,0:0|0:0|0:0,0:0:0:0:
396,326,113800,6,0,P|455:226|457:159,1,180,2|8,0:0|0:0,0:0:0:0:
402,93,114779,1,0,0:0:0:0:
313,111,115105,2,0,P|254:211|252:278,1,180,2|8,0:0|0:0,0:0:0:0:
75,235,116409,6,0,P|49:184|-21:135,2,135,2|0|0,0:0|0:0|0:0,0:0:0:0:
124,310,117713,2,0,P|170:324|217:311,2,90,2|0|8,0:0|0:0|0:0,0:0:0:0:
218,156,119018,6,0,P|320:187|355:258,1,180,2|8,0:0|0:0,0:0:0:0:
393,327,119996,1,0,0:0:0:0:
482,329,120322,2,0,P|470:248|421:152,1,180,2|8,0:0|0:0,0:0:0:0:
367,92,121300,1,0,0:0:0:0:
286,131,121626,6,0,P|213:160|108:151,1,180,2|8,0:0|0:0,0:0:0:0:
30,116,122605,1,0,0:0:0:0:
15,204,122931,1,2,0:0:0:0:
67,276,123257,2,0,P|165:301|194:298,1,90,0|8,0:0|0:0,0:0:0:0:
242,292,123909,1,0,0:0:0:0:
305,226,124235,6,0,L|336:92,2,135,2|0|0,0:0|0:0|0:0,0:0:0:0:
386,264,125540,2,0,L|417:130,2,135,2|0|0,0:0|0:0|0:0,0:0:0:0:
256,192,126844,12,4,128800,3:0:0:0:
208,180,129453,6,0,L|20:168,1,180,4|8,0:0|0:0,0:0:0:0:
35,260,130431,2,0,L|136:267,1,90,0|2,0:0|0:0,0:0:0:0:
197,319,131083,1,0,0:0:0:0:
256,252,131409,1,8,0:0:0:0:
315,319,131735,1,0,0:0:0:0:
376,252,132061,6,0,P|408:176|384:80,1,180,2|8,0:0|0:0,0:0:0:0:
303,47,133040,1,0,0:0:0:0:
212,48,133366,2,0,P|180:124|204:220,1,180,2|8,0:0|0:0,0:0:0:0:
256,288,134344,1,0,0:0:0:0:
338,251,134670,6,0,P|426:227|482:227,2,135,2|0|0,0:0|0:0|0:0,0:0:0:0:
256,288,135974,2,0,P|212:296|164:272,1,90,2|0,0:0|0:0,0:0:0:0:
116,352,136626,2,0,P|87:317|83:264,1,90,8|0,0:0|0:0,0:0:0:0:
112,188,137279,5,8,3:0:0:0:
256,80,137931,1,4,3:0:0:0:
400,188,138583,2,0,P|432:244|420:296,1,90,8|0,3:0|0:0,0:0:0:0:
344,252,139235,2,0,L|296:252,2,45,4|0|0,3:0|0:0|0:0,0:0:0:0:
316,164,139887,6,0,P|248:172|160:244,1,180,4|8,0:0|0:0,0:0:0:0:
92,296,140866,1,0,0:0:0:0:
28,236,141192,2,0,P|12:180|28:136,2,90,2|0|10,0:0|0:0|0:0,0:0:0:0:
184,328,142496,6,0,P|252:320|340:248,1,180,2|8,0:0|0:0,0:0:0:0:
400,188,143474,1,0,0:0:0:0:
372,102,143800,2,0,P|324:130|307:178,2,90,2|0|10,0:0|0:0|0:0,0:0:0:0:
200,47,145105,6,0,P|149:118|163:212,1,180,2|8,0:0|0:0,0:0:0:0:
316,293,146409,2,0,L|429:304,2,90,2|0|10,0:0|0:0|0:0,0:0:0:0:
237,248,147387,1,0,0:0:0:0:
154,282,147713,6,0,P|70:253|21:169,1,180,2|8,0:0|0:0,0:0:0:0:
68,100,148692,2,0,L|100:59,2,45,0|0|8,0:0|0:0|3:0,0:0:0:0:
148,140,149344,2,0,P|211:144|255:128,1,90,0|12,0:0|0:0,0:0:0:0:
395,52,150322,6,0,P|450:124|442:220,1,180,4|8,0:0|0:0,0:0:0:0:
398,286,151300,1,0,0:0:0:0:
314,319,151626,2,0,P|259:247|267:151,1,180,2|10,0:0|0:0,0:0:0:0:
117,52,152931,6,0,P|62:124|70:220,1,180,2|8,0:0|0:0,0:0:0:0:
117,283,153909,1,0,0:0:0:0:
202,311,154235,2,0,L|303:297,1,90,2|0,0:0|0:0,0:0:0:0:
321,213,154887,2,0,L|231:225,1,90,10|0,0:0|0:0,0:0:0:0:
144,202,155540,6,0,B|172:148|226:141|226:141|324:128,1,180,2|8,0:0|0:0,0:0:0:0:
390,118,156518,1,0,0:0:0:0:
396,208,156844,2,0,B|368:262|314:269|314:269|216:282,1,180,2|8,0:0|0:0,0:0:0:0:
62,272,158148,6,0,P|34:182|72:104,1,180,2|8,0:0|0:0,0:0:0:0:
150,71,159126,1,0,0:0:0:0:
240,60,159453,2,0,L|337:46,1,90
420,44,160105,2,0,P|450:118|412:213,1,180,8|4,3:0|0:0,0:0:0:0:
256,258,181626,6,0,P|310:260|383:162,1,180,4|8,0:0|0:0,0:0:0:0:
376,78,182605,1,0,0:0:0:0:
289,52,182931,2,0,L|85:32,1,180,2|8,0:0|0:0,0:0:0:0:
20,147,184235,6,0,L|199:164,1,180,2|8,0:0|0:0,0:0:0:0:
288,149,185213,1,0,0:0:0:0:
364,196,185540,2,0,P|382:275|360:377,1,180,2|8,0:0|0:0,0:0:0:0:
189,322,186844,6,0,L|83:306,1,90,0|0,0:0|0:0,0:0:0:0:
23,261,187496,2,0,P|5:204|12:159,1,90,8|0,0:0|0:0,0:0:0:0:
96,165,188148,2,0,P|192:134|231:61,1,180,0|8,0:0|0:0,0:0:0:0:
408,68,189453,6,0,P|444:136|380:224,1,180,0|8,0:0|0:0,0:0:0:0:
352,140,190431,1,0,0:0:0:0:
264,120,190757,2,0,P|184:136|101:199,1,180,2|8,0:0|0:0,0:0:0:0:
212,340,192061,6,0,P|292:324|375:261,1,180,2|8,0:0|0:0,0:0:0:0:
433,202,193040,1,0,0:0:0:0:
471,120,193366,2,0,P|368:88|284:113,1,180,2|8,0:0|0:0,0:0:0:0:
174,232,194670,6,0,P|132:180|165:77,1,180,0|8,0:0|0:0,0:0:0:0:
248,103,195648,1,0,0:0:0:0:
264,192,195974,2,0,B|297:284|214:277|264:369,1,180,0|8,0:0|0:0,0:0:0:0:
426,292,197279,6,0,P|444:218|412:122,1,180,2|8,0:0|0:0,0:0:0:0:
232,138,198583,2,0,P|163:164|51:150,1,180,0|8,0:0|0:0,0:0:0:0:
216,239,199887,6,0,P|270:291|200:375,2,180,2|8|2,0:0|0:0|0:0,0:0:0:0:
135,197,201518,1,4,3:0:0:0:
51,230,201844,2,0,L|14:269,2,45,4|4|4,3:0|3:0|3:0,0:0:0:0:
65,141,202496,6,0,P|147:105|247:99,1,180,4|8,0:0|0:0,0:0:0:0:
322,124,203474,1,0,0:0:0:0:
394,176,203800,2,0,P|404:226|397:266,2,90,2|0|8,0:0|0:0|0:0,0:0:0:0:
301,331,205105,6,0,P|231:323|167:238,1,180,2|8,0:0|0:0,0:0:0:0:
213,163,206083,1,0,0:0:0:0:
283,219,206409,2,0,P|353:211|417:126,1,180,2|8,0:0|0:0,0:0:0:0:
259,41,207713,6,0,B|181:22|175:127|83:84,1,180,2|8,0:0|0:0,0:0:0:0:
34,258,209018,2,0,B|112:239|118:344|210:301,1,180,2|8,0:0|0:0,0:0:0:0:
256,192,210322,12,4,212931,0:0:0:0:
256,196,214235,6,0,L|256:336,2,135,8|8|4,0:0|3:0|3:0,0:0:0:0:
220,116,215540,6,0,P|140:120|56:188,1,180,4|8,0:0|0:0,0:0:0:0:
36,264,216518,1,0,0:0:0:0:
120,296,216844,2,0,P|156:348|156:384,2,90,2|0|10,0:0|0:0|0:0,0:0:0:0:
296,260,218148,6,0,P|360:244|408:136,1,180,2|8,0:0|0:0,0:0:0:0:
396,60,219126,1,0,0:0:0:0:
304,64,219453,2,0,L|304:154,2,90,2|0|10,0:0|0:0|0:0,0:0:0:0:
480,108,220757,6,0,P|500:200|464:292,1,180,2|8,0:0|0:0,0:0:0:0:
396,324,221735,1,0,0:0:0:0:
312,296,222061,2,0,P|228:272|132:276,1,180,2|10,0:0|0:0,0:0:0:0:
32,127,223366,6,0,P|19:82|35:36,1,90,2|0,0:0|0:0,0:0:0:0:
109,86,224018,2,0,P|140:53|188:43,1,90,8|0,0:0|0:0,0:0:0:0:
188,132,224670,2,0,P|251:173|360:169,1,180,4|0,3:0|0:0,0:0:0:0:
192,254,225974,6,0,P|128:212|19:216,1,180,4|8,0:0|0:0,0:0:0:0:
28,303,226953,1,0,0:0:0:0:
112,334,227279,2,0,P|166:366|280:324,1,180,2|10,0:0|0:0,0:0:0:0:
356,172,228583,6,0,P|428:218|424:320,1,180,2|8,0:0|0:0,0:0:0:0:
352,264,229561,1,0,0:0:0:0:
266,237,229887,2,0,L|165:228,1,90,0|0,0:0|0:0,0:0:0:0:
116,161,230540,2,0,P|169:146|217:152,1,90,10|0,0:0|0:0,0:0:0:0:
293,149,231192,6,0,P|396:154|468:112,1,180,2|8,0:0|0:0,0:0:0:0:
512,45,232170,1,0,0:0:0:0:
422,43,232496,2,0,P|319:38|247:80,1,180,2|10,0:0|0:0,0:0:0:0:
102,171,233800,5,2,0:0:0:0:
143,346,234453,1,8,0:0:0:0:
320,317,235105,2,0,L|377:317,2,45,4|8|4,3:0|3:0|3:0,0:0:0:0:
239,276,235757,2,0,P|212:221|216:171,1,90,4|0,3:0|0:0,0:0:0:0:
299,213,236409,6,0,P|352:205|474:148,1,180,4|8,0:0|0:0,0:0:0:0:
499,69,237387,1,0,0:0:0:0:
412,43,237713,2,0,P|368:30|313:40,2,90,2|0|10,0:0|0:0|0:0,0:0:0:0:
261,142,239018,6,0,P|183:150|85:108,1,180,2|8,0:0|0:0,0:0:0:0:
21,54,239996,1,0,0:0:0:0:
7,142,240322,2,0,P|-13:186|-14:241,1,90,2|0,0:0|0:0,0:0:0:0:
73,214,240974,2,0,P|101:253|148:281,1,90,10|0,0:0|0:0,0:0:0:0:
137,366,241626,6,0,P|219:370|309:319,1,180,0|8,0:0|0:0,0:0:0:0:
424,191,242931,2,0,P|431:135|423:94,1,90,2|0,0:0|0:0,0:0:0:0:
345,142,243583,2,0,P|292:120|250:118,1,90,10|0,0:0|0:0,0:0:0:0:
281,204,244235,6,0,P|232:261|126:295,1,180,2|8,0:0|3:0,0:0:0:0:
61,243,245213,1,8,3:0:0:0:
23,325,245540,2,0,P|101:377|198:377,1,180,4|4,3:0|3:0,0:0:0:0:
342,292,246844,6,0,P|356:233|330:117,1,180,4|8,0:0|0:0,0:0:0:0:
258,65,247822,1,0,0:0:0:0:
172,91,248148,2,0,L|74:105,2,90,2|0|10,0:0|0:0|0:0,0:0:0:0:
316,196,249453,6,0,L|505:166,1,180,2|8,0:0|0:0,0:0:0:0:
512,264,250431,1,0,0:0:0:0:
448,328,250757,2,0,P|368:372|272:368,1,180,2|10,0:0|0:0,0:0:0:0:
112,312,252061,6,0,P|69:225|111:161,1,180,2|8,0:0|0:0,0:0:0:0:
158,237,253040,1,0,0:0:0:0:
204,313,253366,2,0,P|247:238|206:163,1,180,2|10,0:0|0:0,0:0:0:0:
365,82,254670,6,0,P|448:107|521:177,1,180,2|0,0:0|0:0,0:0:0:0:
483,252,255648,1,8,0:0:0:0:
402,291,255974,2,0,P|349:298|305:289,1,90,4|4,3:0|3:0,0:0:0:0:
233,249,256626,2,0,L|177:250,2,45,4|4|4,3:0|3:0|3:0,0:0:0:0:
310,202,257279,5,4,0:0:0:0:
