osu file format v12

[General]
AudioFilename: Rain.mp3
AudioLeadIn: 0
PreviewTime: 66844
Countdown: 0
SampleSet: Soft
StackLeniency: 0.7
Mode: 0
LetterboxInBreaks: 1
EpilepsyWarning: 1
WidescreenStoryboard: 1

[Editor]
DistanceSpacing: 1
BeatDivisor: 4
GridSize: 4
TimelineZoom: 1

[Metadata]
Title:Rain
TitleUnicode:Rain
Artist:Hata Motohiro
ArtistUnicode:秦基博
Creator:Moway
Version:Hard
Source:Kotonoha no Niwa
Tags:garden of words 言の葉の庭 ending comix wave makoto shinkai senri oe
BeatmapID:330180
BeatmapSetID:131044

[Difficulty]
HPDrainRate:6
CircleSize:4
OverallDifficulty:6
ApproachRate:8
SliderMultiplier:2.6
SliderTickRate:2

[Events]
//Background and Video events
0,0,"bg.jpg",0,0
//Break Periods
//Storyboard Layer 0 (Background)
//Storyboard Layer 1 (Fail)
//Storyboard Layer 2 (Pass)
//Storyboard Layer 3 (Foreground)
//Storyboard Sound Samples
//Background Colour Transformations
3,100,163,162,255

[TimingPoints]
1627,652.173913043478,4,2,2,30,1,0
11083,-100,4,2,1,20,0,0
12387,-100,4,2,1,30,0,0
13040,-100,4,2,1,40,0,0
14670,-100,4,2,1,50,0,0
33909,-100,4,2,1,30,0,0
35540,-100,4,2,1,50,0,0
55105,-100,4,2,1,30,0,0
56409,-100,4,2,1,50,0,0
64887,-100,4,2,1,40,0,0
66192,-100,4,2,1,50,0,0
66843,-100,4,2,1,60,0,1
75648,-100,4,2,1,30,0,1
77278,-100,4,2,1,60,0,1
86083,-100,4,2,1,30,0,1
87713,-100,4,2,1,55,0,0
106300,-100,4,2,1,30,0,0
108583,-100,4,2,1,50,0,0
127822,-100,4,2,1,30,0,0
129453,-100,4,2,1,50,0,0
137931,-100,4,2,1,40,0,0
139235,-100,4,2,1,50,0,0
139887,-100,4,2,1,60,0,1
148692,-100,4,2,1,30,0,1
150322,-100,4,2,1,60,0,1
160105,-100,4,2,1,30,0,1
160757,-100,4,2,1,50,0,0
179996,-100,4,2,1,30,0,0
181626,-133.333333333333,4,2,1,40,0,0
181790,-133.333333333333,4,2,2,30,0,0
202496,-100,4,2,1,50,0,0
211626,-100,4,2,1,55,0,0
213583,-100,4,2,1,30,0,0
214072,-100,4,2,1,55,0,0
214561,-100,4,2,1,30,0,0
214724,-100,4,2,1,55,0,0
215050,-100,4,2,1,30,0,0
215540,-100,4,2,1,60,0,1
224344,-100,4,2,1,30,0,1
225974,-100,4,2,1,60,0,1
234779,-100,4,2,1,30,0,1
236328,-100,4,2,1,60,0,0
236409,-100,4,2,1,60,0,1
244398,-100,4,2,1,30,0,1
246844,-100,4,2,1,60,0,1
254996,-100,4,2,1,40,0,1
257279,-100,4,2,1,40,0,0

[HitObjects]
168,208,1627,6,0,P|224:264|272:284,1,130,2|0,0:0|0:0,0:0:0:0:
344,176,2279,2,0,P|288:120|240:100,1,130,2|0,0:0|0:0,0:0:0:0:
112,94,2931,1,2,0:0:0:0:
8,172,3257,1,0,0:0:0:0:
72,284,3583,2,0,P|124:236|132:172,1,130,4|0,0:0|0:0,0:0:0:0:
216,80,4235,6,0,L|356:100,1,130,2|0,0:0|0:0,0:0:0:0:
473,116,4887,1,2,0:0:0:0:
361,182,5213,1,0,0:0:0:0:
472,248,5540,2,0,P|428:304|372:312,1,130,2|0,0:0|0:0,0:0:0:0:
252,268,6192,1,0,0:0:0:0:
216,88,6518,1,4,0:0:0:0:
149,199,6844,6,0,P|121:259|149:339,1,130,2|0,0:0|0:0,0:0:0:0:
252,268,7496,2,0,L|380:228,1,130,2|0,0:0|0:0,0:0:0:0:
496,284,8148,2,0,L|371:322,1,130,2|0,0:0|0:0,0:0:0:0:
252,268,8800,1,4,0:0:0:0:
140,336,9126,1,0,0:0:0:0:
64,232,9453,6,0,P|44:168|56:108,1,130,2|0,0:0|0:0,0:0:0:0:
172,44,10105,1,0,0:0:0:0:
272,124,10431,1,0,0:0:0:0:
148,168,10757,1,0,0:0:0:0:
304,268,11083,6,0,L|348:288,3,43.3333333333333,8|8|8|8,3:0|3:0|3:0|3:0,0:0:0:0:
184,312,11735,2,0,L|166:351,3,43.3333333333333,4|4|4|4,3:0|3:0|3:0|3:0,0:0:0:0:
256,112,12387,5,4,3:0:0:0:
96,192,12713,1,4,3:0:0:0:
340,231,13040,1,8,0:0:0:0:
133,73,13366,1,8,0:0:0:0:
184,256,13692,2,0,L|208:324,1,65,8|8,3:0|3:0,0:0:0:0:
262,148,14018,2,0,L|274:83,1,65,4|4,3:0|3:0,0:0:0:0:
392,244,14344,1,4,3:0:0:0:
392,244,14670,6,0,P|332:288|272:292,1,130,4|0,0:0|0:0,0:0:0:0:
184,256,15159,1,0,0:0:0:0:
93,204,15322,2,0,P|66:185|33:180,2,65,8|0|0,0:0|0:0|0:0,0:0:0:0:
236,348,15811,2,0,P|272:276|244:168,1,195,0|0,0:0|0:0,0:0:0:0:
32,88,16626,1,8,0:0:0:0:
108,332,16953,2,0,P|144:356|184:360,1,65
244,296,17279,6,0,P|292:268|364:256,1,130,2|0,0:0|0:0,0:0:0:0:
468,276,17768,1,0,0:0:0:0:
400,356,17931,2,0,P|365:359|328:352,2,65,8|0|0,0:0|0:0|0:0,0:0:0:0:
504,196,18420,2,0,P|504:112|416:32,1,195
224,20,19235,1,8,0:0:0:0:
368,168,19561,5,0,0:0:0:0:
368,168,19724,1,0,0:0:0:0:
368,168,19887,2,0,P|304:196|228:196,1,130,2|0,0:0|0:0,0:0:0:0:
144,172,20376,1,0,0:0:0:0:
256,120,20540,2,0,P|308:80|336:12,1,130,8|0,0:0|0:0,0:0:0:0:
224,20,21029,1,0,0:0:0:0:
116,90,21192,2,0,P|67:138|53:197,1,130,2|0,0:0|0:0,0:0:0:0:
184,260,21681,2,0,P|280:236|376:288,1,195,0|0,0:0|0:0,0:0:0:0:
184,260,22496,6,0,L|144:132,1,130,2|0,0:0|0:0,0:0:0:0:
200,40,22985,2,0,B|257:97|312:40,1,130,2|0,0:0|0:0,0:0:0:0:
366,135,23474,2,0,L|328:260,1,130,2|0,0:0|0:0,0:0:0:0:
172,352,24126,1,0,0:0:0:0:
256,160,24453,1,8,0:0:0:0:
340,352,24779,2,0,P|379:335|400:312,1,65
348,226,25105,6,0,P|365:155|345:104,1,130,2|0,0:0|0:0,0:0:0:0:
256,160,25594,2,0,P|176:172|76:112,1,195
256,7,26409,1,2,0:0:0:0:
433,115,26735,2,0,P|457:175|433:239,1,130,0|8,0:0|0:0,0:0:0:0:
340,272,27224,2,0,P|256:256|200:268,1,130
112,288,27713,6,0,P|80:228|88:168,1,130,2|0,0:0|0:0,0:0:0:0:
192,168,28203,2,0,P|292:168|376:108,1,195
368,118,28855,1,0,0:0:0:0:
368,118,29018,1,2,0:0:0:0:
168,68,29344,2,0,P|137:56|96:52,1,65,0|0,0:0|0:0,0:0:0:0:
36,148,29670,2,0,P|70:144|98:128,1,65,8|0,0:0|0:0,0:0:0:0:
160,228,29996,2,0,P|129:216|88:212,1,65,0|0,0:0|0:0,0:0:0:0:
159,312,30322,6,0,P|223:276|239:204,1,130,2|0,0:0|0:0,0:0:0:0:
299,149,30811,2,0,P|319:269|279:341,1,195
104,232,31626,1,0,0:0:0:0:
128,24,31953,1,0,0:0:0:0:
299,149,32279,2,0,P|331:167|371:173,2,65,8|0|0,0:0|0:0|0:0,0:0:0:0:
96,100,32931,5,2,0:0:0:0:
216,236,33257,1,0,0:0:0:0:
244,56,33583,1,10,0:0:0:0:
128,184,33909,1,8,3:0:0:0:
300,144,34235,2,0,L|364:120,2,65,4|4|4,3:0|3:0|3:0,0:0:0:0:
76,288,34887,2,0,P|116:344|252:368,1,195,12|0,0:0|0:0,0:0:0:0:
332,336,35540,6,0,P|356:276|340:208,1,130,4|0,0:0|0:0,0:0:0:0:
152,136,36192,2,0,P|120:126|92:108,1,65,8|0,0:0|0:0,0:0:0:0:
49,177,36518,2,0,P|26:153|11:122,1,65
196,64,36844,2,0,P|236:128|220:184,1,130,2|0,0:0|0:0,0:0:0:0:
142,241,37333,1,0,0:0:0:0:
86,328,37496,2,0,L|219:326,1,130,2|0,0:0|0:0,0:0:0:0:
423,339,38148,5,2,0:0:0:0:
484,136,38474,2,0,L|500:72,1,65
358,39,38800,2,0,L|374:103,1,65,8|0,0:0|0:0,0:0:0:0:
270,156,39126,2,0,P|214:116|146:112,1,130,0|2,0:0|0:0,0:0:0:0:
33,280,39779,2,0,L|24:358,2,65,0|0|8,0:0|0:0|0:0,0:0:0:0:
28,72,40431,1,0,0:0:0:0:
192,200,40757,6,0,P|212:272|192:336,1,130,2|0,0:0|0:0,0:0:0:0:
408,312,41409,2,0,L|476:288,1,65,8|0,0:0|0:0,0:0:0:0:
372,228,41735,2,0,L|310:249,1,65
212,276,42061,2,0,P|148:288|80:268,1,130,2|0,0:0|0:0,0:0:0:0:
32,184,42550,2,0,P|96:172|164:192,1,130
260,200,43040,2,0,L|280:136,1,65
340,60,43366,6,0,P|380:120|372:188,1,130,2|0,0:0|0:0,0:0:0:0:
216,272,43855,2,0,P|176:212|184:144,1,130,2|0,0:0|0:0,0:0:0:0:
322,286,44344,2,0,P|295:354|231:376,1,130,2|2,0:0|0:0,0:0:0:0:
56,290,44996,1,0,0:0:0:0:
243,199,45322,1,8,0:0:0:0:
67,86,45648,2,0,L|2:55,1,65
79,189,45974,6,0,P|143:156|165:103,1,130,2|0,0:0|0:0,0:0:0:0:
267,91,46463,2,0,P|240:203|179:265,1,195
363,357,47279,1,2,0:0:0:0:
472,180,47605,2,0,P|448:155|419:138,1,65
326,206,47931,2,0,P|359:215|392:215,1,65,8|0,0:0|0:0,0:0:0:0:
467,303,48257,2,0,P|434:294|401:294,1,65
289,319,48583,6,0,P|233:275|217:213,1,130,2|0,0:0|0:0,0:0:0:0:
290,146,49072,2,0,P|252:200|124:207,1,195
3,46,49887,1,2,0:0:0:0:
210,58,50213,1,0,0:0:0:0:
210,58,50376,2,0,P|279:104|290:146,1,130
208,210,50866,2,0,L|138:246,1,65
234,300,51192,6,0,L|371:233,1,130,2|0,0:0|0:0,0:0:0:0:
359,139,51681,2,0,P|423:169|452:221,2,130
254,143,52496,2,0,P|185:144|127:106,1,130,2|0,0:0|0:0,0:0:0:0:
44,165,52985,2,0,P|79:224|43:345,1,195
255,324,53800,5,2,0:0:0:0:
397,172,54126,1,0,0:0:0:0:
370,378,54453,1,8,0:0:0:0:
270,195,54779,1,0,0:0:0:0:
457,284,55105,1,8,3:0:0:0:
440,70,55431,1,4,3:0:0:0:
339,286,55757,2,0,P|315:304|280:311,2,65,4|4|4,3:0|3:0|3:0,0:0:0:0:
238,104,56409,5,4,0:0:0:0:
38,161,56735,1,0,0:0:0:0:
103,358,57061,2,0,P|166:324|204:277,1,130,8|0,0:0|0:0,0:0:0:0:
93,255,57550,2,0,P|136:208|112:84,1,195
323,94,58366,2,0,L|448:129,1,130,8|0,0:0|0:0,0:0:0:0:
336,304,59018,5,2,0:0:0:0:
192,243,59344,1,0,0:0:0:0:
178,34,59670,1,8,0:0:0:0:
323,94,59996,2,0,P|334:128|334:162,1,65
231,144,60322,2,0,P|161:171|132:218,1,130,2|0,0:0|0:0,0:0:0:0:
267,373,60974,1,8,0:0:0:0:
448,271,61300,2,0,L|510:247,1,65
345,197,61626,6,0,P|278:182|232:144,1,130,2|0,0:0|0:0,0:0:0:0:
331,114,62116,1,0,0:0:0:0:
331,114,62279,2,0,P|280:67|259:11,1,130,8|0,0:0|0:0,0:0:0:0:
361,33,62768,1,0,0:0:0:0:
361,33,62931,2,0,P|412:80|414:148,1,130,2|0,0:0|0:0,0:0:0:0:
333,200,63420,2,0,P|282:247|306:360,1,195
452,212,64235,5,8,3:0:0:0:
252,108,64561,1,8,3:0:0:0:
333,200,64887,1,4,3:0:0:0:
449,98,65213,1,4,3:0:0:0:
372,304,65540,2,0,P|304:308|252:260,1,130,8|8,3:0|3:0,0:0:0:0:
164,80,66192,1,4,3:0:0:0:
164,80,66355,1,4,3:0:0:0:
164,80,66518,2,0,L|120:152,1,65,4|0,3:0|0:0,0:0:0:0:
64,272,66844,6,0,P|120:284|192:248,1,130,4|0,0:0|0:0,0:0:0:0:
264,184,67333,1,0,0:0:0:0:
300,88,67496,2,0,P|298:53|288:24,1,65,8|0,0:0|0:0,0:0:0:0:
356,156,67822,2,0,P|379:130|392:102,1,65
264,184,68148,2,0,P|240:209|227:237,1,65,2|0,0:0|0:0,0:0:0:0:
304,304,68474,2,0,L|364:332,1,65
264,184,68800,2,0,L|140:124,1,130,10|0,0:0|0:0,0:0:0:0:
52,88,69290,1,0,0:0:0:0:
88,184,69453,6,0,P|108:252|88:320,1,130,2|0,0:0|0:0,0:0:0:0:
192,348,69942,1,0,0:0:0:0:
288,308,70105,2,0,L|360:296,1,65,8|0,0:0|0:0,0:0:0:0:
424,168,70431,2,0,L|359:178,1,65
252,228,70757,2,0,P|214:213|192:184,1,65,2|0,0:0|0:0,0:0:0:0:
240,72,71083,2,0,P|264:103|269:140,1,65
144,272,71409,2,0,P|116:212|128:132,1,130,10|0,0:0|0:0,0:0:0:0:
128,32,71898,1,0,0:0:0:0:
240,72,72061,6,0,P|272:84|368:80,1,130,2|0,0:0|0:0,0:0:0:0:
484,80,72550,1,0,0:0:0:0:
464,240,72713,2,0,L|444:312,1,65,8|0,0:0|0:0,0:0:0:0:
352,232,73040,2,0,L|332:160,1,65
248,284,73366,2,0,P|221:304|184:316,2,65,2|0|0,0:0|0:0|0:0,0:0:0:0:
368,108,74018,1,10,0:0:0:0:
172,196,74344,2,0,P|148:171|136:136,1,65
216,36,74670,5,2,0:0:0:0:
356,188,74996,2,0,P|316:240|256:260,1,130,2|8,0:0|0:0,0:0:0:0:
65,178,75648,2,0,L|-2:153,1,65,8|0,3:0|0:0,0:0:0:0:
91,279,75974,2,0,P|152:232|167:174,1,130,4|4,3:0|3:0,0:0:0:0:
339,66,76626,1,4,3:0:0:0:
339,66,76790,1,4,3:0:0:0:
339,66,76953,2,0,L|383:138,1,65,8|0,3:0|0:0,0:0:0:0:
439,258,77279,6,0,P|383:270|311:234,1,130,4|0,0:0|0:0,0:0:0:0:
228,190,77768,2,0,P|154:193|111:236,1,130
51,312,78257,1,0,0:0:0:0:
145,356,78420,2,0,P|219:353|262:310,1,130
315,230,78909,2,0,L|302:159,1,65
198,55,79235,2,0,L|209:118,1,65,10|0,0:0|0:0,0:0:0:0:
302,79,79561,2,0,P|334:68|365:67,1,65
220,207,79887,6,0,P|157:227|89:214,1,130,2|0,0:0|0:0,0:0:0:0:
14,324,80376,1,0,0:0:0:0:
14,324,80540,2,0,P|77:304|145:317,1,130,8|0,0:0|0:0,0:0:0:0:
240,336,81029,1,0,0:0:0:0:
336,300,81192,2,0,P|369:286|396:252,2,65,2|0|0,0:0|0:0|0:0,0:0:0:0:
148,196,81844,2,0,P|117:166|112:136,1,65,10|0,0:0|0:0,0:0:0:0:
136,292,82170,2,0,P|94:281|74:258,1,65
252,200,82496,5,2,0:0:0:0:
252,200,82822,2,0,P|288:232|296:256,1,65
232,332,83148,2,0,P|203:347|185:374,2,65,8|0|0,0:0|0:0|0:0,0:0:0:0:
376,176,83800,2,0,P|391:130|386:105,1,65,2|0,0:0|0:0,0:0:0:0:
292,71,84126,2,0,P|259:71|230:57,2,65,0|0|10,0:0|0:0|0:0,0:0:0:0:
500,52,84779,1,0,0:0:0:0:
392,296,85105,5,2,0:0:0:0:
220,176,85431,1,2,0:0:0:0:
380,44,85757,1,8,0:0:0:0:
312,240,86083,2,0,P|292:264|256:280,1,65,8|0,3:0|0:0,0:0:0:0:
160,272,86409,5,4,3:0:0:0:
32,44,86735,1,4,3:0:0:0:
268,156,87061,1,8,3:0:0:0:
358,104,87224,1,8,3:0:0:0:
424,184,87387,2,0,P|436:217|432:256,1,65,4|0,3:0|0:0,0:0:0:0:
332,240,87713,6,0,P|256:252|200:296,1,130,4|0,0:0|0:0,0:0:0:0:
132,348,88203,2,0,P|100:326|80:304,1,65,0|8,0:0|0:0,0:0:0:0:
68,204,88529,1,0,0:0:0:0:
172,216,88692,2,0,P|205:199|232:176,1,65
268,88,89018,1,2,0:0:0:0:
164,68,89181,2,0,P|130:84|104:108,2,65
328,24,89670,2,0,P|356:80|336:140,1,130,10|0,0:0|0:0,0:0:0:0:
176,276,90322,5,2,0:0:0:0:
12,148,90648,1,0,0:0:0:0:
220,168,90974,2,0,L|284:176,1,65,8|0,0:0|0:0,0:0:0:0:
388,196,91300,2,0,P|400:264|368:332,1,130,0|2,0:0|0:0,0:0:0:0:
172,304,91953,2,0,P|139:291|116:268,1,65
40,204,92279,2,0,P|67:182|99:173,1,65,10|0,0:0|0:0,0:0:0:0:
192,136,92605,2,0,P|197:170|188:202,1,65
272,104,92931,6,0,P|280:184|268:236,1,130,4|0,0:0|0:0,0:0:0:0:
224,328,93420,2,0,L|288:360,1,65,0|8,0:0|0:0,0:0:0:0:
144,200,93909,2,0,L|24:140,1,130,0|2,0:0|0:0,0:0:0:0:
16,40,94398,1,0,0:0:0:0:
120,40,94561,2,0,P|134:72|136:112,1,65
236,164,94887,2,0,P|250:131|252:92,1,65,10|0,0:0|0:0,0:0:0:0:
347,33,95213,2,0,P|361:65|363:105,1,65
372,204,95540,5,2,0:0:0:0:
192,304,95866,1,0,0:0:0:0:
400,320,96192,1,8,0:0:0:0:
236,192,96518,2,0,L|164:176,1,65
84,120,96844,2,0,P|40:180|56:244,1,130,2|0,0:0|0:0,0:0:0:0:
131,293,97333,2,0,P|157:314|175:342,2,65,0|10|0,0:0|0:0|0:0,0:0:0:0:
168,196,97822,2,0,L|200:128,1,65
364,40,98148,6,0,P|396:108|384:176,1,130,4|0,0:0|0:0,0:0:0:0:
308,220,98637,2,0,P|287:186|288:152,1,65,0|8,0:0|0:0,0:0:0:0:
84,116,99126,2,0,P|52:184|64:252,1,130,0|2,0:0|0:0,0:0:0:0:
140,296,99616,2,0,P|160:262|160:228,1,65
332,120,100105,2,0,P|396:140|448:188,1,130,10|0,0:0|0:0,0:0:0:0:
292,324,100757,5,2,0:0:0:0:
164,160,101083,2,0,L|148:96,1,65
256,52,101409,2,0,L|256:120,1,65,8|0,0:0|0:0,0:0:0:0:
348,160,101735,2,0,L|364:96,1,65
416,224,102061,2,0,P|356:252|276:216,1,130,2|0,0:0|0:0,0:0:0:0:
96,180,102713,2,0,P|66:165|24:164,2,65,10|0|0,0:0|0:0|0:0,0:0:0:0:
268,296,103366,5,4,0:0:0:0:
64,336,103692,1,0,0:0:0:0:
200,180,104018,1,8,0:0:0:0:
340,336,104344,1,0,0:0:0:0:
480,180,104670,2,0,L|500:116,1,65,2|0,0:0|0:0,0:0:0:0:
448,28,104996,1,0,0:0:0:0:
344,208,105322,2,0,P|284:272|220:280,1,130,10|0,0:0|0:0,0:0:0:0:
48,216,105974,5,4,0:0:0:0:
148,28,106300,1,8,3:0:0:0:
168,152,106626,1,8,3:0:0:0:
0,28,106953,1,4,3:0:0:0:
148,252,107279,2,0,P|132:284|104:304,2,65,4|4|4,3:0|3:0|3:0,0:0:0:0:
228,56,107931,1,8,3:0:0:0:
228,56,108094,1,8,3:0:0:0:
228,56,108257,2,0,L|296:72,1,65,4|0,3:0|3:0,0:0:0:0:
392,92,108583,6,0,P|407:171|387:227,1,130,4|0,0:0|0:0,0:0:0:0:
320,292,109072,1,0,0:0:0:0:
220,268,109235,2,0,L|144:256,1,65
112,164,109561,1,0,0:0:0:0:
208,124,109724,2,0,P|280:156|300:212,1,130,0|0,0:0|0:0,0:0:0:0:
220,268,110213,2,0,P|148:300|128:356,1,130,0|8,0:0|0:0,0:0:0:0:
336,364,110866,1,0,0:0:0:0:
436,180,111192,6,0,P|420:124|352:76,1,130,2|0,0:0|0:0,0:0:0:0:
264,64,111681,1,0,0:0:0:0:
248,168,111844,2,0,P|264:224|332:272,1,130,8|0,0:0|0:0,0:0:0:0:
424,272,112333,1,0,0:0:0:0:
352,344,112496,2,0,P|272:332|220:288,1,130,2|0,0:0|0:0,0:0:0:0:
132,320,112985,2,0,P|104:224|148:136,1,195
320,32,113800,5,2,0:0:0:0:
436,208,114126,2,0,L|476:272,1,65
356,276,114453,2,0,P|320:288|296:308,1,65,8|0,0:0|0:0,0:0:0:0:
200,244,114779,2,0,P|236:232|260:212,1,65
116,188,115105,2,0,P|104:260|140:320,1,130,2|0,0:0|0:0,0:0:0:0:
356,276,115594,2,0,P|368:204|332:144,1,130
252,108,116083,2,0,L|184:88,1,65
88,116,116409,6,0,P|44:168|52:228,1,130,2|0,0:0|0:0,0:0:0:0:
156,236,116898,2,0,L|292:204,1,130
368,268,117387,2,0,L|241:297,1,130,0|2,0:0|0:0,0:0:0:0:
40,344,118040,1,0,0:0:0:0:
4,140,118366,1,8,0:0:0:0:
104,116,118529,2,0,P|137:110|168:92,2,65
104,220,119018,6,0,P|168:208|232:168,1,130,2|0,0:0|0:0,0:0:0:0:
260,80,119507,2,0,P|312:128|292:248,1,195
128,332,120322,1,2,0:0:0:0:
336,348,120648,2,0,P|370:345|404:332,1,65
352,244,120974,2,0,P|367:212|372:177,1,65,8|0,0:0|0:0,0:0:0:0:
268,176,121300,2,0,P|248:147|220:125,1,65
48,228,121626,6,0,P|112:240|176:212,1,130,2|0,0:0|0:0,0:0:0:0:
268,176,122116,2,0,P|327:152|456:192,1,195,0|0,0:0|0:0,0:0:0:0:
348,368,122931,1,2,0:0:0:0:
168,263,123257,1,0,0:0:0:0:
168,263,123420,2,0,P|92:259|44:295,1,130
126,357,123909,2,0,P|162:363|202:357,1,65
280,308,124235,6,0,P|316:236|312:180,1,130,2|0,0:0|0:0,0:0:0:0:
212,176,124724,2,0,P|144:180|72:156,2,130,2|0|0,0:0|0:0|0:0,0:0:0:0:
296,113,125540,2,0,P|368:105|432:125,1,130,2|0,0:0|0:0,0:0:0:0:
432,240,126029,2,0,P|376:292|376:208,1,195,2|0,0:0|0:0,0:0:0:0:
490,317,126681,6,0,P|430:365|294:329,1,195,2|0,0:0|0:0,0:0:0:0:
152,224,127496,1,8,0:0:0:0:
320,40,127822,1,8,3:0:0:0:
356,172,128148,1,8,3:0:0:0:
152,96,128474,1,8,3:0:0:0:
232,304,128800,2,0,P|229:339|216:368,2,65,4|4|4,3:0|3:0|3:0,0:0:0:0:
60,188,129453,6,0,P|64:272|96:308,1,130,4|0,0:0|0:0,0:0:0:0:
280,220,130105,1,8,0:0:0:0:
120,88,130431,1,0,0:0:0:0:
120,88,130594,1,0,0:0:0:0:
120,88,130757,1,2,0:0:0:0:
192,284,131083,2,0,P|248:324|308:328,2,130,0|8|0,0:0|0:0|0:0,0:0:0:0:
304,108,132061,6,0,P|372:84|428:100,1,130,2|0,0:0|0:0,0:0:0:0:
228,160,132713,2,0,P|160:184|104:168,1,130,8|0,0:0|0:0,0:0:0:0:
17,114,133203,2,0,L|57:310,1,195,2|0,0:0|0:0,0:0:0:0:
258,350,134018,1,8,0:0:0:0:
452,275,134344,2,0,P|478:252|488:219,1,65
387,195,134670,6,0,P|323:175|251:191,1,130,2|0,0:0|0:0,0:0:0:0:
192,263,135159,2,0,P|128:273|27:200,1,195
76,108,135811,1,0,0:0:0:0:
76,108,135974,2,0,P|128:68|196:60,1,130,2|0,0:0|0:0,0:0:0:0:
280,8,136463,2,0,P|288:73|200:160,1,195
16,252,137279,5,8,3:0:0:0:
230,319,137605,1,8,3:0:0:0:
61,331,137931,1,4,3:0:0:0:
60,168,138257,1,4,3:0:0:0:
209,89,138583,2,0,P|242:76|281:77,2,65,8|8|8,3:0|3:0|3:0,0:0:0:0:
120,232,139235,1,4,3:0:0:0:
120,232,139398,1,4,3:0:0:0:
120,232,139561,2,0,L|192:264,1,65,4|0,3:0|0:0,0:0:0:0:
316,324,139887,6,0,P|354:281|359:201,1,130,4|0,0:0|0:0,0:0:0:0:
300,128,140376,1,0,0:0:0:0:
188,88,140540,2,0,L|108:92,1,65,8|0,0:0|0:0,0:0:0:0:
64,192,140866,2,0,L|128:188,1,65
236,252,141192,2,0,P|272:236|296:204,1,65,2|0,0:0|0:0,0:0:0:0:
208,334,141518,2,0,P|247:338|283:322,1,65
152,268,141844,2,0,P|96:232|28:232,1,130,10|0,0:0|0:0,0:0:0:0:
64,345,142333,1,0,0:0:0:0:
176,356,142496,6,0,P|229:304|236:252,1,130,2|0,0:0|0:0,0:0:0:0:
208,152,142985,1,0,0:0:0:0:
152,64,143148,2,0,L|84:52,1,65,8|0,0:0|0:0,0:0:0:0:
208,152,143474,2,0,L|272:163,1,65
359,122,143800,2,0,P|340:95|314:76,1,65,2|0,0:0|0:0,0:0:0:0:
265,257,144126,2,0,P|297:253|326:239,1,65
440,40,144453,2,0,P|476:108|452:176,1,130,10|0,0:0|0:0,0:0:0:0:
428,256,144942,1,0,0:0:0:0:
340,312,145105,6,0,P|264:336|220:368,1,130,2|0,0:0|0:0,0:0:0:0:
128,324,145594,1,0,0:0:0:0:
74,234,145757,2,0,L|96:170,1,65,8|0,0:0|0:0,0:0:0:0:
344,167,146246,1,0,0:0:0:0:
344,167,146409,2,0,P|311:186|277:194,1,65,2|0,0:0|0:0,0:0:0:0:
333,75,146735,2,0,P|408:103|435:157,1,130,0|8,0:0|0:0,0:0:0:0:
358,338,147387,1,0,0:0:0:0:
162,268,147713,6,0,P|93:244|28:251,1,130,2|2,0:0|0:0,0:0:0:0:
219,147,148366,2,0,P|288:171|353:164,1,130,8|0,0:0|0:0,0:0:0:0:
437,120,148855,1,8,3:0:0:0:
474,216,149018,2,0,P|432:282|384:304,1,130,4|4,3:0|3:0,0:0:0:0:
207,196,149670,1,12,0:0:0:0:
320,370,149996,1,0,0:0:0:0:
310,132,150322,6,0,P|264:86|199:72,1,130,4|0,0:0|0:0,0:0:0:0:
121,137,150811,1,0,0:0:0:0:
207,195,150974,2,0,P|240:249|240:313,1,130,8|0,0:0|0:0,0:0:0:0:
152,369,151463,1,0,0:0:0:0:
340,355,151626,2,0,L|408:326,1,65,2|0,0:0|0:0,0:0:0:0:
444,221,151953,2,0,L|384:246,1,65
462,372,152279,2,0,P|475:341|476:304,1,65,10|0,0:0|0:0,0:0:0:0:
294,311,152605,2,0,P|313:337|345:357,1,65
318,135,152931,6,0,P|248:124|194:161,1,130,2|0,0:0|0:0,0:0:0:0:
119,216,153420,1,0,0:0:0:0:
177,301,153583,2,0,P|202:274|216:247,1,65,8|0,0:0|0:0,0:0:0:0:
312,286,153909,2,0,P|321:250|318:219,2,65,0|0|2,0:0|0:0|0:0,0:0:0:0:
118,361,154561,2,0,L|49:345,1,65
0,244,154887,2,0,L|63:258,1,65,10|0,0:0|0:0,0:0:0:0:
169,208,155213,2,0,P|194:181|199:148,1,65
229,300,155540,5,2,0:0:0:0:
339,123,155866,2,0,P|371:87|395:79,1,65
471,143,156192,2,0,P|486:172|513:190,2,65,8|0|0,0:0|0:0|0:0,0:0:0:0:
288,42,156844,2,0,P|239:39|217:50,1,65,2|0,0:0|0:0,0:0:0:0:
208,150,157170,2,0,P|217:181|211:212,2,65,0|0|10,0:0|0:0|0:0,0:0:0:0:
19,61,157822,1,0,0:0:0:0:
48,266,158148,5,2,0:0:0:0:
252,230,158474,1,2,0:0:0:0:
100,371,158800,1,8,0:0:0:0:
146,168,159126,2,0,P|154:133|149:103,1,65
49,132,159453,5,2,0:0:0:0:
298,148,159779,2,0,P|330:148|364:137,1,65,2|0,0:0|0:0,0:0:0:0:
440,53,160105,2,0,P|407:52|374:64,1,65,8|8,3:0|3:0,0:0:0:0:
421,203,160431,2,0,P|437:175|444:140,1,65,4|4,3:0|3:0,0:0:0:0:
236,79,160757,6,0,P|214:144|233:217,1,130,4|0,0:0|0:0,0:0:0:0:
375,347,161409,1,8,0:0:0:0:
353,140,161735,1,0,0:0:0:0:
220,300,162061,2,0,P|152:326|90:324,1,130,2|0,0:0|0:0,0:0:0:0:
50,122,162713,2,0,P|121:133|174:166,1,130,10|0,0:0|0:0,0:0:0:0:
371,216,163366,5,0,0:0:0:0:
234,59,163692,2,0,L|176:11,2,65,0|0|8,0:0|0:0|0:0,0:0:0:0:
267,264,164344,2,0,L|293:334,2,65,0|0|2,0:0|0:0|0:0,0:0:0:0:
376,86,164996,1,0,0:0:0:0:
376,86,165159,2,0,L|441:50,1,65,0|10,0:0|0:0,0:0:0:0:
464,167,165485,2,0,P|476:197|480:232,2,65
367,233,165974,6,0,P|310:269|242:266,1,130,4|0,0:0|0:0,0:0:0:0:
150,235,166463,2,0,P|117:218|81:213,1,65,0|8,0:0|0:0,0:0:0:0:
30,299,166790,2,0,P|66:296|100:283,2,65
10,196,167279,2,0,P|24:128|69:79,1,130,2|0,0:0|0:0,0:0:0:0:
268,50,167931,1,10,0:0:0:0:
95,167,168257,1,0,0:0:0:0:
302,175,168583,5,2,0:0:0:0:
129,292,168909,1,0,0:0:0:0:
129,292,169072,2,0,P|136:326|155:351,1,65,0|8,0:0|0:0,0:0:0:0:
232,263,169398,2,0,P|225:228|206:204,2,65
129,292,169887,2,0,L|59:283,2,65,2|0|0,0:0|0:0|0:0,0:0:0:0:
233,343,170376,2,0,L|303:334,2,65,0|10|0,0:0|0:0|0:0,0:0:0:0:
129,292,170866,2,0,P|120:258|125:224,1,65
182,143,171192,6,0,L|253:119,1,65,4|0,0:0|0:0,0:0:0:0:
344,95,171518,1,0,0:0:0:0:
303,190,171681,2,0,L|241:210,1,65,2|8,0:0|0:0,0:0:0:0:
141,241,172007,1,0,0:0:0:0:
226,300,172170,2,0,L|287:279,2,65,2|0|2,0:0|0:0|0:0,0:0:0:0:
141,242,172659,2,0,L|92:199,2,65,0|0|2,0:0|0:0|0:0,0:0:0:0:
296,376,173148,2,0,P|355:347|381:287,1,130,10|0,0:0|0:0,0:0:0:0:
364,188,173637,1,0,0:0:0:0:
276,132,173800,6,0,P|244:120|204:120,2,65,2|0|0,0:0|0:0|0:0,0:0:0:0:
96,240,174453,2,0,P|56:180|56:124,1,130,8|0,0:0|0:0,0:0:0:0:
244,32,175105,1,2,0:0:0:0:
416,152,175431,1,0,0:0:0:0:
244,268,175757,2,0,L|184:308,2,65,10|0|0,0:0|0:0|0:0,0:0:0:0:
336,80,176409,6,0,P|288:120|212:128,1,130,4|0,0:0|0:0,0:0:0:0:
20,92,177061,1,8,0:0:0:0:
216,28,177387,1,0,0:0:0:0:
128,84,177550,2,0,P|120:112|120:148,1,65,0|2,0:0|0:0,0:0:0:0:
148,248,177876,1,0,0:0:0:0:
232,312,178040,2,0,P|260:320|296:320,1,65
280,216,178366,2,0,P|252:208|216:208,2,65,10|0|0,0:0|0:0|0:0,0:0:0:0:
460,324,179018,6,0,P|488:264|476:200,1,130,2|0,0:0|0:0,0:0:0:0:
330,56,179670,1,8,0:0:0:0:
395,253,179996,1,8,3:0:0:0:
167,126,180322,1,8,3:0:0:0:
374,136,180648,1,4,3:0:0:0:
374,136,180811,1,4,3:0:0:0:
374,136,180974,1,4,3:0:0:0:
131,230,181300,1,4,3:0:0:0:
308,40,181626,5,4,0:0:0:0:
256,188,181953,2,0,L|256:242,1,48.750001859665
328,268,182279,2,0,L|328:217,1,48.750001859665,8|0,0:0|0:0,0:0:0:0:
304,128,182605,2,0,P|256:112|208:128,1,97.50000371933,0|2,0:0|0:0,0:0:0:0:
60,224,183257,1,0,0:0:0:0:
60,224,183420,2,0,P|128:248|200:232,1,146.250005578995
348,184,184235,5,2,0:0:0:0:
292,328,184561,2,0,P|260:349|236:352,1,48.750001859665
180,320,184887,2,0,P|148:298|116:292,1,48.750001859665,8|0,0:0|0:0,0:0:0:0:
68,324,185213,2,0,P|46:292|40:256,1,48.750001859665
88,216,185540,2,0,P|136:168|140:128,1,97.50000371933
64,148,186029,2,0,L|188:236,1,146.250005578995
336,272,186844,5,2,0:0:0:0:
284,124,187170,2,0,P|260:85|260:68,1,48.750001859665
336,76,187496,2,0,P|357:35|372:27,1,48.750001859665,8|0,0:0|0:0,0:0:0:0:
412,92,187822,2,0,P|457:90|472:99,1,48.750001859665
432,164,188148,2,0,P|376:184|336:180,1,97.50000371933,2|0,0:0|0:0,0:0:0:0:
261,191,188637,2,0,P|212:189|167:207,1,97.50000371933,0|0,0:0|0:0,0:0:0:0:
244,344,189290,5,0,0:0:0:0:
244,344,189453,2,0,P|283:306|296:252,1,97.50000371933,2|0,0:0|0:0,0:0:0:0:
352,324,189942,2,0,P|368:272|351:218,1,97.50000371933
308,172,190431,1,0,0:0:0:0:
164,108,190757,1,2,0:0:0:0:
256,232,191083,1,0,0:0:0:0:
408,64,191409,1,8,0:0:0:0:
264,4,191735,1,0,0:0:0:0:
356,132,192061,6,0,P|364:180|348:228,1,97.50000371933,2|0,0:0|0:0,0:0:0:0:
272,216,192550,2,0,P|204:188|132:196,1,146.250005578995
184,343,193366,1,2,0:0:0:0:
327,282,193692,1,0,0:0:0:0:
327,282,194018,2,0,L|354:239,1,48.750001859665,8|0,0:0|0:0,0:0:0:0:
429,254,194344,2,0,L|430:203,1,48.750001859665
500,169,194670,6,0,P|465:136|407:130,1,97.50000371933,2|0,0:0|0:0,0:0:0:0:
340,140,195159,2,0,P|267:163|200:131,1,146.250005578995
92,29,195974,1,2,0:0:0:0:
143,176,196300,2,0,P|163:227|154:268,1,97.50000371933,0|8,0:0|0:0,0:0:0:0:
214,317,196790,2,0,P|265:297|306:306,1,97.50000371933
383,304,197279,6,0,P|415:262|416:206,1,97.50000371933,2|0,0:0|0:0,0:0:0:0:
341,231,197768,2,0,P|281:206|289:129,1,146.250005578995
500,143,198583,2,0,P|518:191|510:246,1,97.50000371933,2|0,0:0|0:0,0:0:0:0:
442,268,199072,2,0,P|390:258|434:202,1,146.250005578995
405,125,199724,6,0,P|330:174|312:226,1,146.250005578995
195,328,200540,2,0,L|129:355,2,48.750001859665,8|0|0,0:0|0:0|0:0,0:0:0:0:
382,289,201192,1,8,3:0:0:0:
208,199,201518,1,8,3:0:0:0:
331,48,201844,1,4,3:0:0:0:
331,48,202007,1,4,3:0:0:0:
331,48,202170,1,4,3:0:0:0:
439,284,202496,6,0,P|375:301|316:277,1,130,4|0,0:0|0:0,0:0:0:0:
150,154,203148,1,8,0:0:0:0:
331,48,203474,1,0,0:0:0:0:
331,48,203637,2,0,P|380:113|382:224,1,195
200,324,204453,1,8,0:0:0:0:
314,150,204779,1,0,0:0:0:0:
131,49,205105,6,0,P|99:106|104:170,1,130,2|0,0:0|0:0,0:0:0:0:
292,256,205757,1,8,0:0:0:0:
475,159,206083,1,0,0:0:0:0:
475,159,206246,2,0,P|515:219|491:335,1,195
285,360,207061,1,8,0:0:0:0:
97,271,207387,2,0,L|31:247,1,65
120,188,207713,6,0,P|174:153|241:157,1,130,2|0,0:0|0:0,0:0:0:0:
327,209,208203,2,0,P|398:204|459:102,1,195
355,114,208855,1,0,0:0:0:0:
355,114,209018,2,0,P|288:110|232:69,1,130,2|0,0:0|0:0,0:0:0:0:
319,12,209507,2,0,P|400:18|470:106,1,195
363,290,210322,6,0,P|306:320|243:312,1,130,4|0,0:0|0:0,0:0:0:0:
76,186,210974,1,8,0:0:0:0:
280,147,211300,1,0,0:0:0:0:
76,186,211626,2,0,P|48:248|70:302,1,130,2|0,0:0|0:0,0:0:0:0:
274,262,212279,2,0,P|302:200|280:146,2,130,8|0|0,0:0|0:0|0:0,0:0:0:0:
158,321,213094,6,0,L|87:340,1,65,8|8,0:0|0:0,0:0:0:0:
158,321,213583,1,8,3:0:0:0:
354,63,214072,6,0,L|425:44,1,65,8|8,0:0|0:0,0:0:0:0:
183,161,214561,2,0,L|112:142,1,65,8|8,3:0|0:0,0:0:0:0:
329,298,215050,1,8,3:0:0:0:
329,298,215213,2,0,L|354:233,1,65,4|0,3:0|3:0,0:0:0:0:
401,93,215540,6,0,P|341:59|275:66,1,130,4|0,0:0|0:0,0:0:0:0:
155,94,216029,1,0,0:0:0:0:
44,164,216192,2,0,P|23:129|17:94,1,65,8|0,0:0|0:0,0:0:0:0:
160,183,216518,2,0,P|198:173|228:153,1,65
84,260,216844,2,0,P|72:298|75:333,1,65,2|0,0:0|0:0,0:0:0:0:
234,315,217170,2,0,P|206:286|174:271,1,65
312,219,217496,2,0,P|375:226|450:192,1,130,10|0,0:0|0:0,0:0:0:0:
476,108,217985,1,0,0:0:0:0:
372,124,218148,6,0,P|309:114|245:62,1,130,2|0,0:0|0:0,0:0:0:0:
152,72,218637,1,0,0:0:0:0:
60,116,218800,2,0,L|-8:144,1,65,8|0,0:0|0:0,0:0:0:0:
144,180,219126,2,0,L|76:208,1,65
204,256,219453,2,0,P|234:229|244:196,1,65,2|0,0:0|0:0,0:0:0:0:
232,68,219779,2,0,P|240:107|263:132,1,65
420,240,220105,2,0,P|348:232|308:284,1,130,10|0,0:0|0:0,0:0:0:0:
392,336,220594,1,0,0:0:0:0:
488,300,220757,6,0,P|512:236|484:176,1,130,2|0,0:0|0:0,0:0:0:0:
412,112,221246,1,0,0:0:0:0:
320,164,221409,2,0,P|292:175|256:200,1,65,8|0,0:0|0:0,0:0:0:0:
140,112,221735,2,0,P|163:131|204:148,1,65
412,112,222061,2,0,P|428:88|428:48,2,65,2|0|0,0:0|0:0|0:0,0:0:0:0:
292,284,222713,1,10,0:0:0:0:
96,212,223040,2,0,L|24:200,1,65
76,296,223366,6,0,P|156:272|180:224,1,130,2|2,0:0|0:0,0:0:0:0:
160,28,224018,2,0,P|140:109|170:154,1,130,8|8,0:0|3:0,0:0:0:0:
248,88,224507,1,0,0:0:0:0:
324,156,224670,2,0,P|298:180|264:192,2,65,4|4|4,3:0|3:0|3:0,0:0:0:0:
488,28,225322,1,4,3:0:0:0:
488,28,225485,1,4,3:0:0:0:
488,28,225648,2,0,L|500:100,1,65,0|0,3:0|0:0,0:0:0:0:
512,244,225974,6,0,P|440:248|384:204,1,130,4|0,0:0|0:0,0:0:0:0:
308,160,226463,2,0,P|236:156|180:200,1,130
112,256,226953,1,0,0:0:0:0:
124,152,227116,2,0,P|140:88|148:20,1,130
232,72,227605,2,0,P|266:91|300:96,1,65
124,152,227931,2,0,P|90:133|56:128,1,65,10|0,0:0|0:0,0:0:0:0:
216,244,228257,2,0,P|224:272|228:308,1,65
124,152,228583,6,0,P|96:96|112:28,1,130,2|0,0:0|0:0,0:0:0:0:
200,84,229072,1,0,0:0:0:0:
200,84,229235,2,0,L|340:88,1,130,8|0,0:0|0:0,0:0:0:0:
412,20,229724,1,0,0:0:0:0:
388,160,229887,2,0,L|376:228,2,65,2|0|0,0:0|0:0|0:0,0:0:0:0:
476,348,230540,2,0,P|444:360|400:360,1,65,10|0,0:0|0:0,0:0:0:0:
316,324,230866,2,0,P|284:312|240:312,1,65
416,256,231192,5,2,0:0:0:0:
300,84,231518,2,0,P|274:53|244:40,1,65
212,140,231844,2,0,P|186:170|156:184,2,65,8|0|0,0:0|0:0|0:0,0:0:0:0:
12,200,232496,2,0,P|37:230|68:244,1,65,2|0,0:0|0:0,0:0:0:0:
100,144,232822,2,0,P|125:113|156:100,2,65,0|0|12,0:0|0:0|0:0,0:0:0:0:
136,340,233474,1,0,0:0:0:0:
340,312,233800,6,0,P|356:240|348:184,1,130,2|0,0:0|0:0,0:0:0:0:
172,72,234453,2,0,P|156:144|164:200,1,130,8|8,0:0|3:0,0:0:0:0:
212,292,234942,1,0,0:0:0:0:
300,236,235105,2,0,L|364:220,2,65,4|4|4,3:0|3:0|3:0,0:0:0:0:
48,304,235757,1,4,3:0:0:0:
48,304,235920,1,4,3:0:0:0:
48,304,236083,2,0,L|40:236,1,65,4|0,3:0|0:0,0:0:0:0:
24,88,236409,6,0,P|96:64|160:76,1,130,4|0,0:0|0:0,0:0:0:0:
244,108,236898,1,0,0:0:0:0:
232,212,237061,2,0,P|200:204|168:176,1,65,8|0,0:0|0:0,0:0:0:0:
324,160,237387,2,0,P|356:152|388:124,1,65
200,40,237713,2,0,P|176:62|162:103,1,65,2|0,0:0|0:0,0:0:0:0:
319,224,238040,2,0,P|328:192|319:150,1,65
84,196,238366,2,0,P|100:252|172:292,1,130,10|0,0:0|0:0,0:0:0:0:
240,224,238855,1,0,0:0:0:0:
302,307,239018,6,0,P|370:295|402:231,1,130,2|0,0:0|0:0,0:0:0:0:
375,145,239507,1,0,0:0:0:0:
282,97,239670,2,0,P|242:75|229:47,1,65,8|0,0:0|0:0,0:0:0:0:
256,173,239996,2,0,P|216:196|186:193,1,65
308,236,240322,2,0,L|394:263,1,65,2|0,0:0|0:0,0:0:0:0:
512,175,240648,2,0,L|449:155,1,65
355,341,240974,2,0,P|427:322|462:256,1,130,10|0,0:0|0:0,0:0:0:0:
512,176,241463,1,0,0:0:0:0:
437,85,241626,6,0,P|367:71|306:78,1,130,2|0,0:0|0:0,0:0:0:0:
211,96,242116,1,0,0:0:0:0:
160,188,242279,2,0,P|152:220|156:256,1,65,8|0,0:0|0:0,0:0:0:0:
352,188,242768,1,0,0:0:0:0:
352,188,242931,2,0,P|360:156|356:120,2,65,2|0|0,0:0|0:0|0:0,0:0:0:0:
256,372,243583,1,10,0:0:0:0:
68,284,243909,1,0,0:0:0:0:
188,114,244235,6,0,P|268:70|324:62,1,130,2|8,0:0|3:0,0:0:0:0:
324,270,244887,2,0,P|244:314|188:322,1,130,8|8,3:0|3:0,0:0:0:0:
107,291,245376,1,0,0:0:0:0:
48,204,245540,2,0,L|41:137,2,65,4|4|0,3:0|3:0|3:0,0:0:0:0:
255,209,246192,1,4,3:0:0:0:
255,209,246355,1,4,3:0:0:0:
255,209,246518,2,0,L|318:183,1,65,4|0,3:0|0:0,0:0:0:0:
459,142,246844,6,0,P|437:71|369:31,1,130,4|0,0:0|0:0,0:0:0:0:
320,108,247333,1,0,0:0:0:0:
320,108,247496,2,0,P|255:124|193:106,1,130,8|0,0:0|0:0,0:0:0:0:
105,55,247985,1,0,0:0:0:0:
120,157,248148,2,0,L|132:227,1,65,2|0,0:0|0:0,0:0:0:0:
234,351,248474,2,0,L|244:286,1,65
109,303,248800,2,0,P|79:319|46:323,1,65,10|0,0:0|0:0,0:0:0:0:
208,207,249126,2,0,P|237:190|271:187,1,65
419,321,249453,6,0,P|460:256|463:185,1,130,2|0,0:0|0:0,0:0:0:0:
419,111,249942,1,0,0:0:0:0:
315,114,250105,2,0,P|278:111|240:93,1,65,8|0,0:0|0:0,0:0:0:0:
152,71,250431,2,0,P|173:40|207:16,1,65
316,211,250757,1,2,0:0:0:0:
316,211,251083,2,0,L|245:241,1,65
119,265,251409,2,0,L|190:295,1,65,10|0,0:0|0:0,0:0:0:0:
318,311,251735,2,0,L|247:341,1,65
119,265,252061,5,2,0:0:0:0:
230,89,252387,2,0,P|248:59|283:47,1,65
314,144,252713,2,0,P|345:156|386:157,2,65,8|0|0,0:0|0:0|0:0,0:0:0:0:
160,285,253366,2,0,P|141:314|107:327,1,65,2|0,0:0|0:0,0:0:0:0:
76,230,253692,2,0,P|44:217|4:217,2,65,0|0|10,0:0|0:0|0:0,0:0:0:0:
274,292,254344,1,0,0:0:0:0:
455,191,254670,5,2,0:0:0:0:
267,11,254996,1,8,3:0:0:0:
336,261,255322,1,8,3:0:0:0:
440,23,255648,1,8,0:0:0:0:
440,23,255811,1,8,0:0:0:0:
440,23,255974,2,0,L|384:67,2,65,4|8|4,3:0|3:0|3:0,0:0:0:0:
249,200,256626,2,0,P|216:191|194:164,1,65,4|4,3:0|3:0,0:0:0:0:
166,41,256953,2,0,P|134:47|112:71,1,65,4|0,3:0|0:0,0:0:0:0:
33,173,257279,5,4,0:0:0:0:
