osu file format v12

[General]
AudioFilename: 21 Lost my pieces.mp3
AudioLeadIn: 0
PreviewTime: 80499
Countdown: 0
SampleSet: Soft
StackLeniency: 0.7
Mode: 3
LetterboxInBreaks: 0
SpecialStyle: 0
WidescreenStoryboard: 1

[Editor]
DistanceSpacing: 1.4
BeatDivisor: 4
GridSize: 16
TimelineZoom: 1

[Metadata]
Title:Lost my pieces
TitleUnicode:Lost my pieces
Artist:Hashimoto Yukari
ArtistUnicode:Hashimoto Yukari
Creator:Soldsaga KunG
Version:4K Normal
Source:Toradora!
Tags:
BeatmapID:321661
BeatmapSetID:126624

[Difficulty]
HPDrainRate:4
CircleSize:4
OverallDifficulty:6
ApproachRate:5
SliderMultiplier:1.4
SliderTickRate:1

[Events]
//Background and Video events
0,0,"maxresdefault.jpg",0,0
//Break Periods
//Storyboard Layer 0 (Background)
//Storyboard Layer 1 (Fail)
//Storyboard Layer 2 (Pass)
//Storyboard Layer 3 (Foreground)
//Storyboard Sound Samples
//Background Colour Transformations
3,100,163,162,255

[TimingPoints]
267,697.674418604651,4,2,0,20,1,0

[HitObjects]
64,192,267,5,0,0:0:0:0:
320,192,267,1,0,0:0:0:0:
192,192,615,1,0,0:0:0:0:
320,192,964,1,0,0:0:0:0:
448,192,1313,1,0,0:0:0:0:
192,192,1313,1,0,0:0:0:0:
64,192,2360,1,0,0:0:0:0:
320,192,2360,1,0,0:0:0:0:
192,192,3057,128,0,4453:0:0:0:0:
64,192,4453,1,0,0:0:0:0:
64,192,5848,1,0,0:0:0:0:
320,192,6197,1,0,0:0:0:0:
64,192,6546,1,0,0:0:0:0:
320,192,6894,1,0,0:0:0:0:
192,192,7243,1,0,0:0:0:0:
448,192,7592,1,0,0:0:0:0:
192,192,7941,1,0,0:0:0:0:
448,192,8290,1,0,0:0:0:0:
64,192,8639,1,0,0:0:0:0:
192,192,10034,1,0,0:0:0:0:
320,192,10732,1,0,0:0:0:0:
448,192,11429,1,0,0:0:0:0:
64,192,11429,128,0,12825:0:0:0:0:
192,192,12825,1,0,0:0:0:0:
320,192,13522,1,0,0:0:0:0:
320,192,14220,1,0,0:0:0:0:
448,192,14220,128,0,15615:0:0:0:0:
192,192,15615,1,0,0:0:0:0:
64,192,17011,128,0,19801:0:0:0:0:
448,192,17011,1,0,0:0:0:0:
192,192,18406,128,0,19801:0:0:0:0:
448,192,19801,1,0,0:0:0:0:
320,192,21197,1,0,0:0:0:0:
64,192,22592,1,0,0:0:0:0:
192,192,23290,1,0,0:0:0:0:
320,192,23987,1,0,0:0:0:0:
64,192,24685,1,0,0:0:0:0:
192,192,25383,1,0,0:0:0:0:
320,192,26080,1,0,0:0:0:0:
448,192,26778,1,0,0:0:0:0:
320,192,27476,1,0,0:0:0:0:
64,192,28173,1,0,0:0:0:0:
320,192,28173,128,0,30964:0:0:0:0:
448,192,30964,1,0,0:0:0:0:
64,192,32360,1,0,0:0:0:0:
448,192,32360,128,0,33755:0:0:0:0:
192,192,33057,1,0,0:0:0:0:
320,192,33755,1,0,0:0:0:0:
448,192,34104,1,0,0:0:0:0:
320,192,34453,1,0,0:0:0:0:
64,192,34801,1,0,0:0:0:0:
320,192,35150,1,0,0:0:0:0:
448,192,35499,1,0,0:0:0:0:
192,192,35848,1,0,0:0:0:0:
448,192,36197,1,0,0:0:0:0:
320,192,36546,1,0,0:0:0:0:
64,192,36546,128,0,37941:0:0:0:0:
448,192,37243,1,0,0:0:0:0:
320,192,37941,1,0,0:0:0:0:
192,192,38639,1,0,0:0:0:0:
448,192,39336,1,0,0:0:0:0:
192,192,39336,1,0,0:0:0:0:
64,192,39685,1,0,0:0:0:0:
320,192,40034,1,0,0:0:0:0:
192,192,40383,1,0,0:0:0:0:
448,192,40732,1,0,0:0:0:0:
64,192,41080,1,0,0:0:0:0:
192,192,41429,1,0,0:0:0:0:
320,192,41778,1,0,0:0:0:0:
448,192,42127,1,0,0:0:0:0:
64,192,42127,128,0,44220:0:0:0:0:
448,192,43522,1,0,0:0:0:0:
192,192,44220,128,0,44918:0:0:0:0:
448,192,44918,1,0,0:0:0:0:
64,192,45266,1,0,0:0:0:0:
320,192,45615,1,0,0:0:0:0:
192,192,45964,1,0,0:0:0:0:
448,192,46313,1,0,0:0:0:0:
192,192,46662,1,0,0:0:0:0:
320,192,47011,1,0,0:0:0:0:
192,192,47360,1,0,0:0:0:0:
448,192,47708,1,0,0:0:0:0:
64,192,47708,128,0,48406:0:0:0:0:
192,192,48406,128,0,49104:0:0:0:0:
448,192,49104,128,0,49801:0:0:0:0:
320,192,49801,128,0,51894:0:0:0:0:
64,192,50499,1,0,0:0:0:0:
192,192,51197,1,0,0:0:0:0:
64,192,51894,128,0,53290:0:0:0:0:
448,192,51894,1,0,0:0:0:0:
320,192,52592,1,0,0:0:0:0:
192,192,53290,128,0,54685:0:0:0:0:
448,192,53290,1,0,0:0:0:0:
320,192,53987,1,0,0:0:0:0:
64,192,54685,128,0,57476:0:0:0:0:
320,192,54685,1,0,0:0:0:0:
320,192,57476,1,0,0:0:0:0:
448,192,58871,1,0,0:0:0:0:
192,192,59220,1,0,0:0:0:0:
320,192,59569,1,0,0:0:0:0:
64,192,59918,1,0,0:0:0:0:
320,192,60964,1,0,0:0:0:0:
192,192,61662,1,0,0:0:0:0:
64,192,63057,1,0,0:0:0:0:
320,192,64453,1,0,0:0:0:0:
192,192,64801,1,0,0:0:0:0:
320,192,65150,1,0,0:0:0:0:
192,192,65499,1,0,0:0:0:0:
64,192,65848,1,0,0:0:0:0:
320,192,66197,1,0,0:0:0:0:
192,192,66546,1,0,0:0:0:0:
320,192,66894,1,0,0:0:0:0:
448,192,67243,1,0,0:0:0:0:
64,192,67243,128,0,68639:0:0:0:0:
320,192,68639,1,0,0:0:0:0:
192,192,69336,1,0,0:0:0:0:
320,192,70034,1,0,0:0:0:0:
64,192,71429,1,0,0:0:0:0:
320,192,72127,1,0,0:0:0:0:
448,192,72825,1,0,0:0:0:0:
192,192,74220,1,0,0:0:0:0:
320,192,75615,128,0,77011:0:0:0:0:
64,192,75615,1,0,0:0:0:0:
192,192,77011,128,0,78406:0:0:0:0:
448,192,77011,1,0,0:0:0:0:
448,192,78406,128,0,81197:0:0:0:0:
320,192,78406,128,0,81197:0:0:0:0:
192,192,80499,1,0,0:0:0:0:
64,192,80848,1,0,0:0:0:0:
192,192,81197,1,0,0:0:0:0:
64,192,81546,1,0,0:0:0:0:
192,192,81894,1,0,0:0:0:0:
448,192,82243,1,0,0:0:0:0:
64,192,82592,1,0,0:0:0:0:
320,192,82940,1,0,0:0:0:0:
192,192,82941,1,0,0:0:0:0:
448,192,83290,1,0,0:0:0:0:
320,192,83987,1,0,0:0:0:0:
64,192,83987,128,0,85383:0:0:0:0:
320,192,85383,1,0,0:0:0:0:
448,192,86080,1,0,0:0:0:0:
64,192,86778,1,0,0:0:0:0:
320,192,87127,1,0,0:0:0:0:
192,192,87476,1,0,0:0:0:0:
448,192,87825,1,0,0:0:0:0:
64,192,88173,1,0,0:0:0:0:
320,192,88522,1,0,0:0:0:0:
192,192,88871,1,0,0:0:0:0:
320,192,89220,1,0,0:0:0:0:
192,192,89569,1,0,0:0:0:0:
448,192,89569,128,0,90964:0:0:0:0:
64,192,90964,1,0,0:0:0:0:
192,192,91313,1,0,0:0:0:0:
320,192,91662,1,0,0:0:0:0:
64,192,92011,1,0,0:0:0:0:
448,192,92360,1,0,0:0:0:0:
64,192,92708,1,0,0:0:0:0:
192,192,93057,1,0,0:0:0:0:
448,192,93406,1,0,0:0:0:0:
320,192,93755,1,0,0:0:0:0:
192,192,94104,1,0,0:0:0:0:
64,192,94453,1,0,0:0:0:0:
448,192,94801,1,0,0:0:0:0:
192,192,95150,1,0,0:0:0:0:
64,192,95150,128,0,95848:0:0:0:0:
320,192,95848,128,0,96546:0:0:0:0:
448,192,96546,128,0,97243:0:0:0:0:
192,192,97243,128,0,97941:0:0:0:0:
320,192,97941,128,0,99336:0:0:0:0:
448,192,97941,128,0,99336:0:0:0:0:
192,192,99336,128,0,100732:0:0:0:0:
64,192,99336,128,0,100732:0:0:0:0:
448,192,100732,128,0,103522:0:0:0:0:
64,192,103522,1,0,0:0:0:0:
192,192,103522,1,0,0:0:0:0:
320,192,103871,1,0,0:0:0:0:
192,192,104220,1,0,0:0:0:0:
448,192,104569,1,0,0:0:0:0:
64,192,105615,1,0,0:0:0:0:
320,192,106313,1,0,0:0:0:0:
192,192,107708,1,0,0:0:0:0:
320,192,109104,1,0,0:0:0:0:
448,192,109104,128,0,114685:0:0:0:0:
