osu file format v13

[General]
AudioFilename: Toradora - Lost my Pieces.mp3
AudioLeadIn: 0
PreviewTime: -1
Countdown: 0
SampleSet: Normal
StackLeniency: 0.7
Mode: 3
LetterboxInBreaks: 0
SpecialStyle: 1
WidescreenStoryboard: 1

[Editor]
DistanceSpacing: 1
BeatDivisor: 4
GridSize: 8
TimelineZoom: 1

[Metadata]
Title:Lost my Pieces
TitleUnicode:Lost my Pieces
Artist:Hashimoto Yukari
ArtistUnicode:橋本由香利
Creator:Mysticalia
Version:Lost
Source:Toradora!
Tags:
BeatmapID:599941
BeatmapSetID:262981

[Difficulty]
HPDrainRate:6
CircleSize:7
OverallDifficulty:6
ApproachRate:5
SliderMultiplier:1.4
SliderTickRate:1

[Events]
//Background and Video events
//Break Periods
//Storyboard Layer 0 (Background)
//Storyboard Layer 1 (Fail)
//Storyboard Layer 2 (Pass)
//Storyboard Layer 3 (Foreground)
//Storyboard Sound Samples

[TimingPoints]
270,697.674418604651,4,1,0,0,1,0

[HitObjects]
402,192,270,5,0,0:0:0:0:
329,192,618,1,0,0:0:0:0:
256,192,967,1,0,0:0:0:0:
329,192,1316,128,0,2363:0:0:0:0:
475,192,2363,128,0,3060:0:0:0:0:
182,192,3060,128,0,5851:0:0:0:0:
402,192,5851,1,0,0:0:0:0:
475,192,6200,1,0,0:0:0:0:
402,192,6549,1,0,0:0:0:0:
329,192,6897,1,0,0:0:0:0:
256,192,7246,1,0,0:0:0:0:
182,192,7595,1,0,0:0:0:0:
256,192,7944,1,0,0:0:0:0:
402,192,8293,1,0,0:0:0:0:
36,192,8642,128,0,10037:0:0:0:0:
109,192,10037,128,0,10735:0:0:0:0:
182,192,10735,128,0,11432:0:0:0:0:
402,192,11432,128,0,12828:0:0:0:0:
256,192,12828,128,0,13525:0:0:0:0:
402,192,13525,128,0,14223:0:0:0:0:
475,192,14223,128,0,15618:0:0:0:0:
329,192,15618,128,0,17014:0:0:0:0:
402,192,17014,128,0,18409:0:0:0:0:
329,192,18409,128,0,19804:0:0:0:0:
402,192,19804,128,0,21200:0:0:0:0:
182,192,21200,128,0,22595:0:0:0:0:
36,192,22595,128,0,23293:0:0:0:0:
109,192,23293,128,0,23990:0:0:0:0:
256,192,23990,128,0,24688:0:0:0:0:
109,192,24688,128,0,25386:0:0:0:0:
182,192,25386,128,0,26083:0:0:0:0:
256,192,26083,128,0,26781:0:0:0:0:
329,192,26781,128,0,27479:0:0:0:0:
402,192,27479,128,0,28176:0:0:0:0:
475,192,28176,128,0,30967:0:0:0:0:
329,192,30967,128,0,33758:0:0:0:0:
36,192,32363,128,0,33060:0:0:0:0:
109,192,33060,128,0,33758:0:0:0:0:
256,192,33758,1,0,0:0:0:0:
36,192,33758,128,0,36549:0:0:0:0:
402,192,34107,1,0,0:0:0:0:
256,192,34456,1,0,0:0:0:0:
475,192,34804,1,0,0:0:0:0:
402,192,35153,1,0,0:0:0:0:
256,192,35502,1,0,0:0:0:0:
109,192,35851,1,0,0:0:0:0:
402,192,36200,1,0,0:0:0:0:
256,192,36549,1,0,0:0:0:0:
329,192,36549,128,0,37944:0:0:0:0:
109,192,36897,1,0,0:0:0:0:
182,192,37246,1,0,0:0:0:0:
109,192,37595,1,0,0:0:0:0:
36,192,37944,128,0,38642:0:0:0:0:
256,192,37944,1,0,0:0:0:0:
182,192,38293,1,0,0:0:0:0:
329,192,38642,1,0,0:0:0:0:
109,192,38642,128,0,39339:0:0:0:0:
256,192,38990,1,0,0:0:0:0:
182,192,39339,1,0,0:0:0:0:
36,192,39339,128,0,42130:0:0:0:0:
256,192,39688,1,0,0:0:0:0:
182,192,40037,1,0,0:0:0:0:
402,192,40386,1,0,0:0:0:0:
329,192,40735,1,0,0:0:0:0:
109,192,41083,1,0,0:0:0:0:
182,192,41432,1,0,0:0:0:0:
329,192,41781,1,0,0:0:0:0:
256,192,42130,128,0,43525:0:0:0:0:
182,192,42130,1,0,0:0:0:0:
109,192,42479,1,0,0:0:0:0:
182,192,42828,1,0,0:0:0:0:
109,192,43176,1,0,0:0:0:0:
182,192,43525,128,0,44223:0:0:0:0:
36,192,43525,1,0,0:0:0:0:
109,192,43874,1,0,0:0:0:0:
329,192,44223,128,0,44921:0:0:0:0:
256,192,44223,1,0,0:0:0:0:
402,192,44572,1,0,0:0:0:0:
36,192,44921,128,0,47711:0:0:0:0:
256,192,44921,1,0,0:0:0:0:
402,192,45269,1,0,0:0:0:0:
256,192,45618,1,0,0:0:0:0:
475,192,45967,1,0,0:0:0:0:
402,192,46316,1,0,0:0:0:0:
329,192,46665,1,0,0:0:0:0:
256,192,47014,1,0,0:0:0:0:
402,192,47363,1,0,0:0:0:0:
329,192,47711,128,0,48409:0:0:0:0:
182,192,47711,1,0,0:0:0:0:
109,192,48060,1,0,0:0:0:0:
402,192,48409,1,0,0:0:0:0:
256,192,48409,128,0,49107:0:0:0:0:
329,192,49107,128,0,49804:0:0:0:0:
109,192,49107,1,0,0:0:0:0:
36,192,49456,1,0,0:0:0:0:
475,192,49804,128,0,50502:0:0:0:0:
182,192,49804,1,0,0:0:0:0:
36,192,50153,1,0,0:0:0:0:
402,192,50502,128,0,51897:0:0:0:0:
182,192,50502,1,0,0:0:0:0:
36,192,50851,1,0,0:0:0:0:
109,192,51200,1,0,0:0:0:0:
36,192,51549,1,0,0:0:0:0:
329,192,51897,128,0,53293:0:0:0:0:
256,192,51897,1,0,0:0:0:0:
182,192,52246,1,0,0:0:0:0:
109,192,52595,1,0,0:0:0:0:
36,192,52944,1,0,0:0:0:0:
256,192,53293,128,0,54688:0:0:0:0:
109,192,53293,1,0,0:0:0:0:
36,192,53642,1,0,0:0:0:0:
109,192,53990,1,0,0:0:0:0:
402,192,54339,1,0,0:0:0:0:
182,192,54688,128,0,57479:0:0:0:0:
329,192,54688,1,0,0:0:0:0:
475,192,57479,128,0,58874:0:0:0:0:
402,192,58874,128,0,59223:0:0:0:0:
182,192,59223,128,0,59572:0:0:0:0:
109,192,59572,128,0,59921:0:0:0:0:
402,192,59921,128,0,60967:0:0:0:0:
182,192,59921,128,0,60967:0:0:0:0:
475,192,60967,128,0,61665:0:0:0:0:
256,192,60967,128,0,61665:0:0:0:0:
329,192,61665,128,0,63060:0:0:0:0:
109,192,61665,128,0,64456:0:0:0:0:
36,192,63060,128,0,64456:0:0:0:0:
329,192,64456,128,0,64804:0:0:0:0:
475,192,64456,128,0,67246:0:0:0:0:
402,192,64804,128,0,65153:0:0:0:0:
329,192,65153,128,0,65502:0:0:0:0:
256,192,65502,128,0,65851:0:0:0:0:
182,192,65851,128,0,66200:0:0:0:0:
109,192,66200,128,0,66549:0:0:0:0:
182,192,66549,128,0,66897:0:0:0:0:
402,192,66897,128,0,67246:0:0:0:0:
36,192,67246,128,0,68642:0:0:0:0:
109,192,67246,128,0,68642:0:0:0:0:
182,192,68642,128,0,69339:0:0:0:0:
256,192,69339,128,0,70037:0:0:0:0:
402,192,70037,128,0,71432:0:0:0:0:
36,192,70037,128,0,71432:0:0:0:0:
109,192,71432,128,0,72130:0:0:0:0:
256,192,72130,128,0,72828:0:0:0:0:
475,192,72828,128,0,74223:0:0:0:0:
182,192,72828,128,0,74223:0:0:0:0:
329,192,74223,128,0,75618:0:0:0:0:
402,192,75618,128,0,77014:0:0:0:0:
182,192,75618,128,0,77014:0:0:0:0:
329,192,77014,128,0,78409:0:0:0:0:
109,192,77014,128,0,78409:0:0:0:0:
402,192,78409,128,0,80502:0:0:0:0:
182,192,78409,128,0,80502:0:0:0:0:
109,192,80502,128,0,80851:0:0:0:0:
182,192,80851,128,0,81200:0:0:0:0:
256,192,81200,128,0,81549:0:0:0:0:
36,192,81200,1,0,0:0:0:0:
329,192,81549,128,0,81897:0:0:0:0:
109,192,81549,1,0,0:0:0:0:
256,192,81897,128,0,82246:0:0:0:0:
36,192,81897,1,0,0:0:0:0:
475,192,82246,128,0,82595:0:0:0:0:
329,192,82246,1,0,0:0:0:0:
402,192,82595,128,0,82944:0:0:0:0:
256,192,82595,1,0,0:0:0:0:
256,192,82944,128,0,83293:0:0:0:0:
182,192,82944,1,0,0:0:0:0:
109,192,83293,128,0,83642:0:0:0:0:
36,192,83293,1,0,0:0:0:0:
475,192,83642,128,0,83990:0:0:0:0:
329,192,83642,1,0,0:0:0:0:
402,192,83990,128,0,85386:0:0:0:0:
182,192,83990,1,0,0:0:0:0:
36,192,84339,1,0,0:0:0:0:
109,192,84688,1,0,0:0:0:0:
182,192,85037,1,0,0:0:0:0:
256,192,85386,128,0,86083:0:0:0:0:
36,192,85386,1,0,0:0:0:0:
109,192,85735,1,0,0:0:0:0:
329,192,86083,128,0,86781:0:0:0:0:
182,192,86083,1,0,0:0:0:0:
109,192,86432,1,0,0:0:0:0:
256,192,86781,128,0,87130:0:0:0:0:
36,192,86781,1,0,0:0:0:0:
329,192,87130,128,0,87479:0:0:0:0:
109,192,87130,128,0,88525:0:0:0:0:
256,192,87479,128,0,87828:0:0:0:0:
475,192,87828,128,0,88176:0:0:0:0:
402,192,88176,128,0,88525:0:0:0:0:
182,192,88525,128,0,88874:0:0:0:0:
36,192,88525,1,0,0:0:0:0:
256,192,88874,128,0,89223:0:0:0:0:
109,192,88874,1,0,0:0:0:0:
475,192,89223,128,0,89572:0:0:0:0:
329,192,89223,1,0,0:0:0:0:
402,192,89572,128,0,90967:0:0:0:0:
182,192,89572,1,0,0:0:0:0:
36,192,89921,1,0,0:0:0:0:
109,192,90269,1,0,0:0:0:0:
329,192,90618,1,0,0:0:0:0:
36,192,90967,128,0,92363:0:0:0:0:
256,192,90967,1,0,0:0:0:0:
329,192,91316,1,0,0:0:0:0:
402,192,91665,1,0,0:0:0:0:
329,192,92014,1,0,0:0:0:0:
109,192,92363,128,0,92711:0:0:0:0:
256,192,92363,1,0,0:0:0:0:
182,192,92711,128,0,93060:0:0:0:0:
329,192,92711,1,0,0:0:0:0:
109,192,93060,128,0,95153:0:0:0:0:
256,192,93060,1,0,0:0:0:0:
475,192,93409,1,0,0:0:0:0:
402,192,93758,1,0,0:0:0:0:
329,192,94107,1,0,0:0:0:0:
182,192,94456,1,0,0:0:0:0:
402,192,94804,1,0,0:0:0:0:
329,192,95153,128,0,95851:0:0:0:0:
182,192,95153,1,0,0:0:0:0:
36,192,95502,1,0,0:0:0:0:
182,192,95851,128,0,96549:0:0:0:0:
109,192,95851,1,0,0:0:0:0:
36,192,96200,1,0,0:0:0:0:
256,192,96549,128,0,97246:0:0:0:0:
109,192,96549,1,0,0:0:0:0:
182,192,96897,1,0,0:0:0:0:
475,192,97246,128,0,97944:0:0:0:0:
329,192,97246,1,0,0:0:0:0:
109,192,97595,1,0,0:0:0:0:
402,192,97944,128,0,99339:0:0:0:0:
182,192,97944,128,0,99339:0:0:0:0:
329,192,99339,128,0,100735:0:0:0:0:
109,192,99339,128,0,100735:0:0:0:0:
256,192,100735,128,0,103525:0:0:0:0:
36,192,100735,128,0,103525:0:0:0:0:
182,192,103525,1,0,0:0:0:0:
329,192,103525,128,0,103874:0:0:0:0:
182,192,103874,128,0,104223:0:0:0:0:
36,192,104223,128,0,104572:0:0:0:0:
109,192,104572,128,0,105618:0:0:0:0:
329,192,105618,128,0,106316:0:0:0:0:
402,192,106316,128,0,107711:0:0:0:0:
475,192,107711,128,0,109107:0:0:0:0:
402,192,109107,128,0,114688:0:0:0:0:
109,192,109107,128,0,114688:0:0:0:0:
