osu file format v12

[General]
AudioFilename: Yukari Hashimoto - Lost my pieces.mp3
AudioLeadIn: 2007
PreviewTime: 32356
Countdown: 0
SampleSet: Soft
StackLeniency: 0.7
Mode: 1
LetterboxInBreaks: 0
WidescreenStoryboard: 0

[Editor]
DistanceSpacing: 0.5
BeatDivisor: 4
GridSize: 8

[Metadata]
Title:Lost My Pieces
TitleUnicode:Lost My Pieces
Artist:Hashimoto Yukari
ArtistUnicode:Hashimoto Yukari
Creator:xWillx
Version:Futsuu
Source:Toradora!
Tags:Aisaka Taiga ost Lno
BeatmapID:350810
BeatmapSetID:140467

[Difficulty]
HPDrainRate:4
CircleSize:5
OverallDifficulty:4
ApproachRate:5
SliderMultiplier:2
SliderTickRate:1

[Events]
//Background and Video events
0,0,"bg51.jpg",0,0
//Break Periods
//Storyboard Layer 0 (Background)
//Storyboard Layer 1 (Fail)
//Storyboard Layer 2 (Pass)
//Storyboard Layer 3 (Foreground)
//Storyboard Sound Samples
//Background Colour Transformations
3,100,163,162,255

[TimingPoints]
338,697.674418604651,4,2,0,40,1,0
33826,-100,4,2,0,60,0,1
54756,-100,4,2,0,60,0,0
58942,-100,4,2,0,40,0,0
81268,-100,4,2,0,60,0,1
101849,-100,4,2,0,60,0,0

[HitObjects]
96,136,338,1,8,0:0:0:0:
96,136,686,1,0,0:0:0:0:
88,176,1035,1,0,0:0:0:0:
88,176,1384,1,8,0:0:0:0:
88,176,2431,1,8,0:0:0:0:
88,176,3128,1,0,0:0:0:0:
88,176,4524,1,12,0:0:0:0:
88,176,5919,1,8,0:0:0:0:
88,176,6268,1,8,0:0:0:0:
80,120,6617,1,0,0:0:0:0:
88,176,6965,1,0,0:0:0:0:
88,176,7314,1,8,0:0:0:0:
184,88,7663,1,8,0:0:0:0:
88,176,8012,1,0,0:0:0:0:
184,88,8361,1,0,0:0:0:0:
88,176,8710,1,8,0:0:0:0:
88,176,9756,1,0,0:0:0:0:
88,176,10105,1,0,0:0:0:0:
88,176,10803,1,8,0:0:0:0:
88,176,11500,1,8,0:0:0:0:
0,176,12547,1,0,0:0:0:0:
88,176,12896,1,0,0:0:0:0:
88,176,13593,1,8,0:0:0:0:
88,176,14291,1,12,0:0:0:0:
0,176,14989,1,0,0:0:0:0:
88,176,15686,1,8,0:0:0:0:
88,176,17082,1,8,0:0:0:0:
88,176,17779,1,0,0:0:0:0:
88,176,18477,1,8,0:0:0:0:
88,176,19175,1,0,0:0:0:0:
88,176,19872,1,8,0:0:0:0:
88,176,21268,1,4,0:0:0:0:
88,176,22663,1,0,0:0:0:0:
64,128,23012,1,0,0:0:0:0:
88,176,23361,1,8,0:0:0:0:
64,128,23710,1,0,0:0:0:0:
88,176,24058,1,8,0:0:0:0:
64,128,24756,1,8,0:0:0:0:
88,176,25454,1,0,0:0:0:0:
112,152,25803,1,0,0:0:0:0:
88,176,26151,1,8,0:0:0:0:
64,128,26500,1,0,0:0:0:0:
88,176,26849,1,8,0:0:0:0:
280,144,27547,1,8,0:0:0:0:
280,144,28244,1,4,0:0:0:0:
280,144,31035,1,4,0:0:0:0:
152,144,32431,1,0,0:0:0:0:
152,144,33128,1,8,0:0:0:0:
224,280,33826,1,0,0:0:0:0:
224,280,34175,1,8,0:0:0:0:
224,280,34524,1,0,0:0:0:0:
224,280,34872,1,8,0:0:0:0:
224,280,35221,1,8,0:0:0:0:
144,128,35570,1,0,0:0:0:0:
224,280,35919,1,8,0:0:0:0:
144,128,36268,1,8,0:0:0:0:
224,280,36617,1,0,0:0:0:0:
184,304,37663,1,8,0:0:0:0:
280,144,38012,1,0,0:0:0:0:
280,144,38710,1,8,0:0:0:0:
280,144,39407,1,0,0:0:0:0:
280,144,39756,1,8,0:0:0:0:
280,144,40105,1,0,0:0:0:0:
280,144,40454,1,8,0:0:0:0:
280,144,40803,1,8,0:0:0:0:
144,128,41151,1,0,0:0:0:0:
280,144,41500,1,8,0:0:0:0:
144,128,41849,1,8,0:0:0:0:
280,144,42198,1,0,0:0:0:0:
216,128,43244,1,8,0:0:0:0:
224,304,43593,1,0,0:0:0:0:
224,304,44291,1,8,0:0:0:0:
224,304,44989,1,0,0:0:0:0:
224,304,45337,1,8,0:0:0:0:
224,304,45686,1,0,0:0:0:0:
224,304,46035,1,8,0:0:0:0:
224,304,46384,1,8,0:0:0:0:
144,128,46733,1,0,0:0:0:0:
224,304,47082,1,8,0:0:0:0:
144,128,47431,1,8,0:0:0:0:
224,304,47779,1,0,0:0:0:0:
224,304,48477,1,8,0:0:0:0:
272,168,48826,1,8,0:0:0:0:
224,304,49175,1,0,0:0:0:0:
272,168,49524,1,0,0:0:0:0:
224,304,49872,1,8,0:0:0:0:
208,200,50570,1,12,0:0:0:0:
136,176,51268,1,0,0:0:0:0:
272,168,51617,1,8,0:0:0:0:
224,304,51965,1,4,0:0:0:0:
136,176,52663,1,0,0:0:0:0:
272,168,53012,1,8,0:0:0:0:
224,304,53361,1,4,0:0:0:0:
136,176,54058,1,0,0:0:0:0:
272,168,54407,1,8,0:0:0:0:
224,304,54756,1,4,0:0:0:0:
104,136,57547,1,12,0:0:0:0:
96,136,58942,1,8,0:0:0:0:
96,136,59291,1,0,0:0:0:0:
88,176,59640,1,0,0:0:0:0:
88,176,59989,1,8,0:0:0:0:
88,176,61035,1,8,0:0:0:0:
88,176,61733,1,0,0:0:0:0:
88,176,63128,1,0,0:0:0:0:
88,176,64524,1,8,0:0:0:0:
88,176,64872,1,0,0:0:0:0:
88,176,65221,1,8,0:0:0:0:
88,176,65570,1,0,0:0:0:0:
88,176,65919,1,8,0:0:0:0:
80,144,66268,1,0,0:0:0:0:
88,176,66617,1,8,0:0:0:0:
88,176,66965,1,8,0:0:0:0:
88,176,67314,1,0,0:0:0:0:
88,176,68361,1,0,0:0:0:0:
88,176,68710,1,8,0:0:0:0:
88,176,69407,1,8,0:0:0:0:
88,176,70105,1,0,0:0:0:0:
88,176,71151,1,0,0:0:0:0:
88,176,71500,1,8,0:0:0:0:
88,176,72198,1,8,0:0:0:0:
88,176,72896,1,8,0:0:0:0:
88,176,73942,1,8,0:0:0:0:
88,176,74291,1,0,0:0:0:0:
31,192,74989,1,0,0:0:0:0:
88,208,75337,1,0,0:0:0:0:
88,176,75686,1,8,0:0:0:0:
31,192,76384,1,0,0:0:0:0:
72,136,76732,1,8,0:0:0:0:
88,176,77081,1,0,0:0:0:0:
31,192,77779,1,0,0:0:0:0:
72,136,78128,1,0,0:0:0:0:
88,176,78476,1,8,0:0:0:0:
280,144,80570,1,0,0:0:0:0:
80,120,80919,1,8,0:0:0:0:
224,280,81268,1,0,0:0:0:0:
224,280,81617,1,8,0:0:0:0:
224,280,81965,1,8,0:0:0:0:
80,120,82314,1,0,0:0:0:0:
224,280,82663,1,8,0:0:0:0:
80,120,83012,1,0,0:0:0:0:
224,280,83361,1,0,0:0:0:0:
80,120,83710,1,8,0:0:0:0:
224,280,84058,1,0,0:0:0:0:
80,160,85105,1,8,0:0:0:0:
280,144,85454,1,0,0:0:0:0:
280,144,86151,1,8,0:0:0:0:
280,144,86849,1,0,0:0:0:0:
280,144,87198,1,0,0:0:0:0:
280,144,87547,1,8,0:0:0:0:
280,144,87896,1,8,0:0:0:0:
280,144,88244,1,0,0:0:0:0:
240,192,88593,1,0,0:0:0:0:
240,192,88942,1,8,0:0:0:0:
80,144,89291,1,8,0:0:0:0:
240,192,89640,1,0,0:0:0:0:
80,160,90686,1,8,0:0:0:0:
224,304,91035,1,0,0:0:0:0:
64,120,91733,1,0,0:0:0:0:
224,304,92431,1,0,0:0:0:0:
224,304,92779,1,8,0:0:0:0:
224,304,93128,1,0,0:0:0:0:
224,304,93477,1,0,0:0:0:0:
224,304,93826,1,8,0:0:0:0:
80,144,94175,1,0,0:0:0:0:
224,304,94524,1,8,0:0:0:0:
80,144,94872,1,8,0:0:0:0:
224,304,95221,1,0,0:0:0:0:
224,304,95919,1,8,0:0:0:0:
224,304,96617,1,0,0:0:0:0:
224,304,97314,1,8,0:0:0:0:
88,200,98012,1,0,0:0:0:0:
88,200,98361,1,0,0:0:0:0:
88,200,98710,1,8,0:0:0:0:
80,144,99058,1,8,0:0:0:0:
88,200,99407,1,0,0:0:0:0:
88,200,99756,1,0,0:0:0:0:
88,200,100105,1,8,0:0:0:0:
80,144,100454,1,8,0:0:0:0:
88,200,100803,1,0,0:0:0:0:
88,200,101151,1,0,0:0:0:0:
88,200,101500,1,8,0:0:0:0:
136,184,101849,1,12,0:0:0:0:
144,160,103593,1,8,0:0:0:0:
144,160,103942,1,0,0:0:0:0:
144,160,104291,1,0,0:0:0:0:
144,160,104640,1,8,0:0:0:0:
320,248,105686,1,8,0:0:0:0:
320,248,106384,1,8,0:0:0:0:
320,248,107779,1,8,0:0:0:0:
320,248,109175,1,12,0:0:0:0:
