osu file format v14

[General]
AudioFilename: bb.mp3
AudioLeadIn: 0
PreviewTime: 64020
Countdown: 0
SampleSet: Soft
StackLeniency: 0.7
Mode: 0
LetterboxInBreaks: 0
WidescreenStoryboard: 0

[Editor]
DistanceSpacing: 1.5
BeatDivisor: 2
GridSize: 4
TimelineZoom: 1

[Metadata]
Title:Yume no Mugen Kairou
TitleUnicode:夢の無限回廊
Artist:Hashimoto Miyuki
ArtistUnicode:橋本みゆき
Creator:Alex Li
Version:Normal
Source:ハピメア
Tags:yf_bmp short ver Purple software HAPYMAHER eroge visual novel opening yf bmp
BeatmapID:635973
BeatmapSetID:278909

[Difficulty]
HPDrainRate:4
CircleSize:3
OverallDifficulty:4.5
ApproachRate:5
SliderMultiplier:1.2
SliderTickRate:1

[Events]
//Background and Video events
0,0,"f.jpg",0,0
//Break Periods
//Storyboard Layer 0 (Background)
//Storyboard Layer 1 (Fail)
//Storyboard Layer 2 (Pass)
//Storyboard Layer 3 (Foreground)
//Storyboard Sound Samples

[TimingPoints]
11937.0398710913,555.555555555556,4,2,1,60,1,0
26381,-100,4,2,1,5,0,0
27492,-100,4,2,1,40,0,0
45270,-100,4,2,2,60,0,0
63048,-100,4,2,2,70,0,0
65270,-100,4,2,1,80,0,1
103048,-100,4,2,1,60,0,0
105270,-100,4,2,1,70,0,0
109714,-100,4,2,1,60,0,0
118603,576.923076923077,4,2,1,60,1,0
119179,600,4,2,1,60,1,0
119479,625,4,2,1,60,1,0
120104,681.818181818182,4,2,1,60,1,0
120785,638.297872340426,4,2,1,60,1,0
121104,681.818181818182,4,2,1,60,1,0
121444,833.333333333333,4,2,1,60,1,0
122277,882.352941176471,4,2,1,60,1,0
122718,937.5,4,2,1,60,1,0
123186,1016.94915254237,4,2,1,60,1,0
123694,857.142857142857,4,2,1,60,1,0
124551,882.352941176471,4,2,1,60,1,0
124771,750,4,2,1,60,1,0
124864,937.5,4,2,1,60,1,0
124981,555.555555555556,7,2,1,60,1,0
128869,555.555555555556,4,2,1,5,1,0

[Colours]
Combo1 : 248,224,133
Combo2 : 128,0,0
Combo3 : 159,22,233
Combo4 : 250,152,225

[HitObjects]
103,129,11937,6,0,L|228:119,1,120,2|8,0:0|0:0,0:0:0:0:
308,152,12770,1,0,0:0:0:0:
236,208,13048,2,0,L|164:216,2,60,0|0|8,0:0|0:0|0:0,0:0:0:0:
416,216,14159,2,0,P|436:156|416:92,2,120,2|8|0,0:0|0:0|0:0,0:0:0:0:
348,272,15548,2,0,L|356:340,1,60,0|8,0:0|0:0,0:0:0:0:
176,320,16381,6,0,P|120:340|84:296,1,120,2|8,0:0|0:0,0:0:0:0:
28,232,17214,2,0,P|40:196|44:168,1,60,0|0,0:0|0:0,0:0:0:0:
104,108,17770,2,0,P|78:79|56:62,1,60,0|8,0:0|0:0,0:0:0:0:
164,212,18603,2,0,P|228:216|264:156,1,120,2|8,0:0|0:0,0:0:0:0:
248,88,19437,2,0,P|277:86|306:94,1,60,0|0,0:0|0:0,0:0:0:0:
372,156,19992,1,0,0:0:0:0:
460,140,20270,2,0,P|452:204|408:240,1,120,8|2,0:0|0:0,0:0:0:0:
272,352,21381,6,0,L|204:344,1,60,8|0,0:0|0:0,0:0:0:0:
152,280,21937,2,0,P|120:288|76:288,1,60
28,352,22492,1,8,0:0:0:0:
256,192,23048,12,0,26381,0:0:0:0:
112,100,27492,6,0,P|140:148|248:116,1,180,0|0,0:0|0:0,0:0:0:0:
304,192,28603,2,0,L|300:312,1,120,0|2,0:0|0:0,0:0:0:0:
472,256,29714,2,0,P|416:268|436:184,1,180,0|0,0:0|0:0,0:0:0:0:
480,104,30825,2,0,B|436:88|396:104|396:104|356:96,1,120,0|2,0:0|0:0,0:0:0:0:
188,56,31937,6,0,P|132:76|144:184,1,180,0|0,0:0|0:0,0:0:0:0:
88,256,33048,2,0,P|100:316|104:376,1,120,0|2,0:0|0:0,0:0:0:0:
236,252,34159,2,0,P|224:312|220:372,2,120,0|0|0,0:0|0:0|0:0,0:0:0:0:
408,204,35825,1,2,0:0:0:0:
324,44,36381,6,0,P|312:100|216:72,1,180,0|0,0:0|0:0,0:0:0:0:
156,140,37492,2,0,L|24:156,1,120,0|2,0:0|0:0,0:0:0:0:
144,300,38603,2,0,B|184:332|228:332|228:292|272:292|316:320,1,180,0|0,0:0|0:0,0:0:0:0:
380,376,39714,2,0,P|424:344|392:296,1,120,0|2,0:0|0:0,0:0:0:0:
272,168,40825,6,0,B|324:160|348:164|384:184|384:184|368:160|360:140|364:96,1,180,0|0,0:0|0:0,0:0:0:0:
452,132,41937,2,0,P|472:184|448:244,1,120,0|2,0:0|0:0,0:0:0:0:
276,280,43048,2,0,P|256:232|272:168,2,120,0|0|0,0:0|0:0|0:0,0:0:0:0:
104,232,44714,2,0,L|36:240,1,60
20,152,45270,6,0,L|144:136,1,120,4|8,0:0|0:0,0:0:0:0:
204,200,46103,2,0,P|272:200|300:136,1,120,0|0,0:0|0:0,0:0:0:0:
252,84,46937,1,8,0:0:0:0:
404,180,47492,2,0,L|408:248,1,60,0|0,0:0|0:0,0:0:0:0:
472,304,48048,1,8,0:0:0:0:
384,328,48325,2,0,P|320:292|268:324,1,120
204,352,49159,1,8,0:0:0:0:
56,252,49714,6,0,P|48:220|48:192,1,60
16,108,50270,2,0,P|39:85|63:71,1,60,8|0,0:0|0:0,0:0:0:0:
140,116,50825,2,0,P|188:136|240:100,1,120,0|8,0:0|0:0,0:0:0:0:
408,168,51937,2,0,P|364:176|344:176,1,60,0|0,0:0|0:0,0:0:0:0:
300,252,52492,2,0,P|273:237|245:227,1,60,8|0,0:0|0:0,0:0:0:0:
164,268,53048,2,0,P|128:308|60:284,1,120,0|8,0:0|0:0,0:0:0:0:
8,124,54159,6,0,B|0:64|0:64|44:16,1,120,0|8,0:0|0:0,0:0:0:0:
124,56,54992,2,0,P|140:104|104:164,1,120
32,208,55825,1,8,0:0:0:0:
204,252,56381,2,0,L|208:312,2,60,0|0|8,0:0|0:0|0:0,0:0:0:0:
184,164,57214,2,0,P|240:188|288:156,1,120,0|0,0:0|0:0,0:0:0:0:
280,68,58048,2,0,L|408:76,1,120,8|0,0:0|0:0,0:0:0:0:
464,136,58881,6,0,L|472:212,1,60,0|8,0:0|0:0,0:0:0:0:
396,244,59437,2,0,P|380:284|436:336,1,120,0|0,0:0|0:0,0:0:0:0:
496,280,60270,1,8,0:0:0:0:
376,144,60825,1,0,0:0:0:0:
296,184,61103,2,0,P|264:176|232:176,1,60,0|8,0:0|0:0,0:0:0:0:
160,224,61659,2,0,P|184:180|132:136,1,120
64,180,62492,2,0,L|56:320,1,120,8|4,0:0|0:0,0:0:0:0:
57,299,65270,6,0,P|108:332|168:308,1,120,6|8,0:0|0:0,0:0:0:0:
160,224,66103,2,0,L|288:232,1,120,0|0,0:0|0:0,0:0:0:0:
336,304,66937,2,0,P|388:292|408:292,1,60,8|0,0:0|0:0,0:0:0:0:
480,316,67492,2,0,P|504:272|472:200,1,120,0|8,0:0|0:0,0:0:0:0:
412,152,68325,2,0,B|396:132|380:128|380:128|404:108|416:80|404:40,1,120,0|0,0:0|0:0,0:0:0:0:
316,60,69159,2,0,P|292:96|288:128,1,60,8|0,0:0|0:0,0:0:0:0:
200,112,69714,6,0,L|68:100,1,120,0|8,0:0|0:0,0:0:0:0:
24,172,70548,2,0,P|72:168|100:228,1,120,0|0,0:0|0:0,0:0:0:0:
36,288,71381,2,0,L|48:352,1,60,8|0,0:0|0:0,0:0:0:0:
136,372,71937,1,0,0:0:0:0:
316,356,72492,2,0,P|348:348|372:328,1,60,8|0,0:0|0:0,0:0:0:0:
460,336,73048,2,0,P|469:304|463:273,1,60,0|0,0:0|0:0,0:0:0:0:
400,216,73603,2,0,L|260:224,1,120,8|4,0:0|0:0,0:0:0:0:
104,196,74714,5,8,0:0:0:0:
28,148,74992,2,0,P|8:88|36:40,1,120,0|0,0:0|0:0,0:0:0:0:
120,72,75825,2,0,L|188:68,1,60,8|0,0:0|0:0,0:0:0:0:
224,148,76381,2,0,B|264:164|264:164|344:144,1,120,0|8,0:0|0:0,0:0:0:0:
396,76,77214,2,0,P|428:124|416:196,1,120,0|0,0:0|0:0,0:0:0:0:
368,256,78048,1,8,0:0:0:0:
440,308,78325,1,0,0:0:0:0:
359,347,78603,6,0,B|319:335|319:335|239:347,1,120,0|8,0:0|0:0,0:0:0:0:
156,316,79437,2,0,P|204:272|176:216,1,120,0|0,0:0|0:0,0:0:0:0:
101,207,80270,1,8,0:0:0:0:
196,56,80825,2,0,L|256:64,1,60,0|0,0:0|0:0,0:0:0:0:
300,144,81381,2,0,P|340:136|364:136,1,60,8|0,0:0|0:0,0:0:0:0:
448,156,81937,2,0,P|472:184|440:276,1,120,0|8,0:0|0:0,0:0:0:0:
380,300,82770,1,0,0:0:0:0:
296,332,83048,6,0,L|156:324,1,120,4|8,0:0|0:0,0:0:0:0:
132,248,83881,2,0,P|80:240|32:312,1,120,0|0,0:0|0:0,0:0:0:0:
96,348,84714,1,8,0:0:0:0:
228,224,85270,2,0,B|248:188|248:188|232:80,1,120,0|8,0:0|0:0,0:0:0:0:
152,144,86103,2,0,P|84:128|72:76,1,120,0|0,0:0|0:0,0:0:0:0:
136,24,86937,2,0,L|208:32,1,60,8|0,0:0|0:0,0:0:0:0:
237,111,87492,6,0,P|297:135|357:103,1,120,0|8,0:0|0:0,0:0:0:0:
428,148,88325,2,0,B|416:212|444:200|432:272,1,120,0|0,0:0|0:0,0:0:0:0:
360,320,89159,2,0,L|300:316,1,60,8|0,0:0|0:0,0:0:0:0:
220,272,89714,2,0,P|160:308|108:280,1,120,0|8,0:0|0:0,0:0:0:0:
12,144,90825,2,0,L|140:152,1,120,0|8,0:0|0:0,0:0:0:0:
196,88,91659,1,0,0:0:0:0:
256,156,91937,6,0,P|324:168|364:128,1,120,4|8,0:0|0:0,0:0:0:0:
412,64,92770,2,0,L|432:196,1,120,0|0,0:0|0:0,0:0:0:0:
372,252,93603,2,0,P|340:264|296:268,1,60,8|0,0:0|0:0,0:0:0:0:
264,344,94159,2,0,P|220:320|148:344,1,120,0|8,0:0|0:0,0:0:0:0:
72,376,94992,2,0,B|60:340|71:304|71:304|64:248,1,120,0|0,0:0|0:0,0:0:0:0:
52,168,95825,1,8,0:0:0:0:
228,204,96381,6,0,P|288:168|248:124,1,120,0|8,0:0|0:0,0:0:0:0:
208,72,97214,2,0,L|344:60,1,120,0|0,0:0|0:0,0:0:0:0:
372,140,98048,2,0,P|404:112|424:100,1,60,8|0,0:0|0:0,0:0:0:0:
508,116,98603,2,0,L|504:240,1,120,0|8,0:0|0:0,0:0:0:0:
368,356,99714,2,0,L|372:232,1,120,0|8,0:0|0:0,0:0:0:0:
204,304,100825,6,0,P|144:320|96:276,1,120,4|8,0:0|0:0,0:0:0:0:
156,216,101659,2,0,L|280:204,1,120,0|0,0:0|0:0,0:0:0:0:
240,120,102492,2,0,L|172:128,1,60,8|0,0:0|0:0,0:0:0:0:
256,192,103048,12,4,105270,0:0:0:0:
196,152,106381,6,0,L|324:144,1,120,0|8,0:0|0:0,0:0:0:0:
396,308,107492,2,0,P|468:276|396:172,1,240,0|0,0:0|0:0,0:0:0:0:
308,328,109159,1,8,0:0:0:0:
128,332,109714,6,0,P|72:296|84:220,1,120,2|8,0:0|0:0,0:0:0:0:
136,188,110548,2,0,L|200:184,1,60,0|0,0:0|0:0,0:0:0:0:
308,328,111381,2,0,L|367:331,1,60,8|0,0:0|0:0,0:0:0:0:
396,248,111937,2,0,P|452:212|440:136,2,120,10|8|0,0:0|0:0|0:0,0:0:0:0:
268,124,113603,2,0,L|264:56,1,60,8|0,0:0|0:0,0:0:0:0:
188,16,114159,6,0,P|152:64|88:48,1,120,2|8,0:0|0:0,0:0:0:0:
12,88,114992,1,0,0:0:0:0:
12,88,115270,2,0,L|8:160,2,60,0|8|8,0:0|0:0|0:0,0:0:0:0:
108,240,116381,2,0,P|161:268|228:239,1,120,2|8,0:0|0:0,0:0:0:0:
220,160,117214,2,0,L|292:168,1,60,0|0,0:0|0:0,0:0:0:0:
344,228,117770,2,0,L|416:220,1,60,8|8,0:0|0:0,0:0:0:0:
256,192,118603,12,2,123694,0:0:0:0:
256,192,124551,12,0,128869,0:0:0:0:
