osu file format v14

[General]
AudioFilename: bb.mp3
AudioLeadIn: 0
PreviewTime: 64020
Countdown: 0
SampleSet: Soft
StackLeniency: 0.7
Mode: 0
LetterboxInBreaks: 0
WidescreenStoryboard: 0

[Editor]
DistanceSpacing: 1.2
BeatDivisor: 2
GridSize: 4
TimelineZoom: 1

[Metadata]
Title:Yume no Mugen Kairou
TitleUnicode:夢の無限回廊
Artist:Hashimoto Miyuki
ArtistUnicode:橋本みゆき
Creator:Alex Li
Version:Easy
Source:ハピメア
Tags:yf_bmp short ver Purple software HAPYMAHER eroge visual novel opening yf bmp
BeatmapID:635971
BeatmapSetID:278909

[Difficulty]
HPDrainRate:3
CircleSize:3
OverallDifficulty:3
ApproachRate:3
SliderMultiplier:0.7
SliderTickRate:1

[Events]
//Background and Video events
0,0,"f.jpg",0,0
//Break Periods
//Storyboard Layer 0 (Background)
//Storyboard Layer 1 (Fail)
//Storyboard Layer 2 (Pass)
//Storyboard Layer 3 (Foreground)
//Storyboard Sound Samples

[TimingPoints]
11937.0398710913,555.555555555556,4,2,1,60,1,0
26381,-100,4,2,1,5,0,0
27492,-100,4,2,1,40,0,0
45270,-100,4,2,2,60,0,0
63048,-100,4,2,2,70,0,0
65270,-100,4,2,1,80,0,1
103048,-100,4,2,1,60,0,0
105270,-100,4,2,1,70,0,0
109714,-100,4,2,1,60,0,0
118603,576.923076923077,4,2,1,60,1,0
119179,600,4,2,1,60,1,0
119479,625,4,2,1,60,1,0
120104,681.818181818182,4,2,1,60,1,0
120785,638.297872340426,4,2,1,60,1,0
121104,681.818181818182,4,2,1,60,1,0
121444,833.333333333333,4,2,1,60,1,0
122277,882.352941176471,4,2,1,60,1,0
122718,937.5,4,2,1,60,1,0
123186,1016.94915254237,4,2,1,60,1,0
123694,857.142857142857,4,2,1,60,1,0
124551,882.352941176471,4,2,1,60,1,0
124771,750,4,2,1,60,1,0
124864,937.5,4,2,1,60,1,0
124981,555.555555555556,7,2,1,60,1,0
128869,555.555555555556,4,2,1,5,1,0

[Colours]
Combo1 : 248,224,133
Combo2 : 128,0,0
Combo3 : 159,22,233
Combo4 : 250,152,225

[HitObjects]
100,88,11937,6,0,P|136:128|216:96,1,140,2|0,0:0|0:0,0:0:0:0:
260,172,13603,1,8,0:0:0:0:
332,128,14159,2,0,L|488:116,1,140,2|0,0:0|0:0,0:0:0:0:
476,200,15825,1,8,0:0:0:0:
476,200,16381,6,0,P|480:240|460:280,1,70,2|8,0:0|0:0,0:0:0:0:
392,300,17492,2,0,L|308:304,1,70,0|8,0:0|0:0,0:0:0:0:
264,244,18603,2,0,P|200:272|136:236,1,140,2|0,0:0|0:0,0:0:0:0:
40,108,20825,6,0,L|52:256,1,140,2|0,0:0|0:0,0:0:0:0:
60,332,22492,1,8,0:0:0:0:
256,192,23048,12,0,26381,0:0:0:0:
376,212,27492,6,0,P|432:208|416:140,1,140,0|0,0:0|0:0,0:0:0:0:
340,112,29159,1,2,0:0:0:0:
264,152,29714,2,0,B|208:168|208:168|132:140,1,140,0|0,0:0|0:0,0:0:0:0:
72,200,31381,1,2,0:0:0:0:
20,268,31937,6,0,P|88:252|164:272,1,140,0|0,0:0|0:0,0:0:0:0:
212,332,33603,1,2,0:0:0:0:
284,292,34159,2,0,L|288:220,2,70,0|0|0,0:0|0:0|0:0,0:0:0:0:
428,208,36381,6,0,P|368:224|360:152,1,140,0|0,0:0|0:0,0:0:0:0:
412,104,38048,1,2,0:0:0:0:
344,52,38603,2,0,L|200:56,1,140
124,28,40270,1,2,0:0:0:0:
136,112,40825,6,0,B|132:168|132:168|140:192|140:192|136:252,1,140,0|0,0:0|0:0,0:0:0:0:
52,256,42492,1,2,0:0:0:0:
96,328,43048,2,0,P|132:336|184:324,2,70,0|0|0,0:0|0:0|0:0,0:0:0:0:
260,364,45270,6,0,P|324:372|376:360,2,105,4|0|8,0:0|0:0|0:0,0:0:0:0:
224,288,47492,2,0,P|220:248|220:208,1,70,0|8,0:0|0:0,0:0:0:0:
272,152,48603,2,0,P|271:117|267:82,1,70,0|8,0:0|0:0,0:0:0:0:
184,84,49714,6,0,P|140:64|76:72,2,105,0|0|8,0:0|0:0|0:0,0:0:0:0:
128,148,51937,2,0,L|36:160,1,70,0|8,0:0|0:0,0:0:0:0:
68,240,53048,2,0,L|137:230,1,70,0|8,0:0|0:0,0:0:0:0:
208,276,54159,6,0,P|256:244|296:264,2,105,0|0|8,0:0|0:0|0:0,0:0:0:0:
172,352,56381,2,0,L|56:348,2,105,0|0|8,0:0|0:0|0:0,0:0:0:0:
256,352,58603,6,0,L|372:356,1,105,0|0,0:0|0:0,0:0:0:0:
440,264,60270,1,8,0:0:0:0:
492,196,60825,2,0,P|512:140|500:84,1,105
396,36,62492,2,0,L|308:48,1,70,8|4,0:0|0:0,0:0:0:0:
124,316,65270,6,0,P|72:288|112:236,1,140,6|2,0:0|0:0,0:0:0:0:
192,260,66937,1,8,0:0:0:0:
240,192,67492,2,0,L|384:184,1,140,0|0,0:0|0:0,0:0:0:0:
368,100,69159,1,8,0:0:0:0:
444,132,69714,6,0,P|460:184|448:232,2,105,0|0|8,0:0|0:0|0:0,0:0:0:0:
368,100,71937,2,0,L|280:108,1,70,0|8,0:0|0:0,0:0:0:0:
216,116,73048,2,0,L|128:124,1,70,0|8,0:0|0:0,0:0:0:0:
84,180,74159,6,0,P|124:176|136:264,1,140,4|2,0:0|0:0,0:0:0:0:
120,336,75825,1,8,0:0:0:0:
204,320,76381,2,0,B|276:304|268:344|352:320,1,140
372,244,78048,1,8,0:0:0:0:
424,312,78603,6,0,B|480:352|480:352|508:276,1,140
512,200,80270,1,8,0:0:0:0:
428,184,80825,2,0,P|412:132|412:104,1,70,0|8,0:0|0:0,0:0:0:0:
340,72,81937,2,0,P|356:40|356:-8,1,70,0|8,0:0|0:0,0:0:0:0:
276,16,83048,6,0,L|108:24,1,140,4|2,0:0|0:0,0:0:0:0:
52,28,84714,1,8,0:0:0:0:
0,96,85270,2,0,P|-16:140|52:192,1,140
96,124,86937,1,8,0:0:0:0:
132,200,87492,6,0,L|248:192,2,105,0|0|8,0:0|0:0|0:0,0:0:0:0:
116,284,89714,2,0,L|208:276,1,70,0|8,0:0|0:0,0:0:0:0:
269,268,90825,2,0,L|361:260,1,70,0|8,0:0|0:0,0:0:0:0:
404,314,91937,6,0,P|420:254|380:190,1,140,4|2,0:0|0:0,0:0:0:0:
300,176,93603,1,8,0:0:0:0:
224,140,94159,2,0,B|260:68|188:80|224:0,2,140
232,224,96937,5,8,0:0:0:0:
152,252,97492,2,0,L|76:276,1,70,0|8,0:0|0:0,0:0:0:0:
56,352,98603,2,0,P|112:380|184:344,1,140,0|0,0:0|0:0,0:0:0:0:
260,372,100270,1,8,0:0:0:0:
272,288,100825,6,0,B|304:264|340:276|340:276|372:256|412:264,1,140,4|2,0:0|0:0,0:0:0:0:
460,328,102492,1,8,0:0:0:0:
256,192,103048,12,4,105270,0:0:0:0:
164,132,106381,6,0,P|208:140|248:140,1,70,0|8,0:0|0:0,0:0:0:0:
280,212,107492,2,0,P|332:172|424:208,1,140,0|0,0:0|0:0,0:0:0:0:
308,324,109714,6,0,L|160:316,1,140,2|0,0:0|0:0,0:0:0:0:
86,338,111381,1,8,0:0:0:0:
108,256,111937,2,0,P|64:296|-16:276,2,140,10|0|2,0:0|0:0|0:0,0:0:0:0:
60,188,114714,5,8,0:0:0:0:
144,180,115270,2,0,L|224:188,1,70,0|8,0:0|0:0,0:0:0:0:
268,252,116381,2,0,P|300:196|276:128,1,140,2|0,0:0|0:0,0:0:0:0:
256,192,118603,12,2,123694,0:0:0:0:
256,192,124551,12,0,128869,0:0:0:0:
