osu file format v9

[General]
AudioFilename: Waltzx3.mp3
AudioLeadIn: 0
PreviewTime: 56375
Countdown: 0
SampleSet: Normal
StackLeniency: 0.7
Mode: 0
LetterboxInBreaks: 1

[Editor]
DistanceSpacing: 1
BeatDivisor: 4
GridSize: 8

[Metadata]
Title:Waltz!Waltz!Waltz!
Artist:Hashimoto Miyuki
Creator:ElxBeta
Version:Hinacle
Source:Princess Lover! Eternal Love For My Lady
Tags:Princess Lover Comfort hinacle verdisphena

[Difficulty]
HPDrainRate:7
CircleSize:4
OverallDifficulty:7
ApproachRate:8
SliderMultiplier:1.8
SliderTickRate:1

[Events]
//Background and Video events
0,0,"425773.jpg"
Video,350,"Waltzx3 vid.avi"
//Break Periods
//Storyboard Layer 0 (Background)
//Storyboard Layer 1 (Fail)
//Storyboard Layer 2 (Pass)
//Storyboard Layer 3 (Foreground)
//Storyboard Sound Samples
//Background Colour Transformations
3,100,163,162,255

[TimingPoints]
17142,320.855614973262,4,1,0,60,1,0
56928,-100,4,1,0,70,0,1
66874,-100,4,1,0,70,0,0
67195,-100,4,1,0,70,0,1
77382,-100,4,1,0,5,0,0
78746,-100,4,1,0,60,0,0
82596,-100,4,1,0,70,0,0

[Colours]
Combo1 : 228,69,101
Combo2 : 251,162,89
Combo3 : 242,105,98

[HitObjects]
256,112,17142,1,4
256,336,17462,5,8
168,352,17623,1,0
88,320,17783,2,0,B|64:280|80:232,1,90
96,144,18104,1,8
160,80,18264,2,0,B|248:32|248:120|336:80,1,180
416,48,18746,1,8
464,128,18906,2,0,B|528:208|464:296,1,180
376,312,19387,1,8
288,288,19548,5,0
288,288,19628,1,0
288,288,19708,2,0,B|248:264|200:280,1,90,4|0
112,304,20029,1,8
48,240,20190,6,0,B|32:152,1,90
144,160,20510,2,0,B|200:72,1,90,0|8
280,152,20831,2,0,B|360:224|448:160,1,180
496,256,21313,1,8
432,336,21473,2,0,B|352:264|264:328,1,180
176,344,21954,1,8
96,296,22115,5,0
96,296,22195,1,0
96,296,22275,2,0,B|72:256|88:200,1,90,4|0
232,128,22596,2,0,B|256:168|240:224,1,90,8|0
200,296,22917,1,0
200,296,23077,1,0
128,240,23238,6,0,B|104:200|120:144,1,90,8|0
264,72,23559,2,0,B|288:112|272:168,1,90
256,248,23879,1,8
296,328,24040,2,0,B|376:392|464:336,1,180,0|0
472,184,24521,2,0,B|392:120|304:176,1,180,8|4
256,248,25002,1,0
176,296,25163,1,8
88,272,25323,2,0,B|16:200|72:104,1,180
120,32,25805,1,8
200,72,25965,6,0,B|280:136|368:72,1,180,2|0
444,28,26446,1,8
368,168,26607,2,0,B|288:232|200:168,1,180,2|2
112,144,27088,1,8
64,224,27248,5,0
64,224,27329,1,0
64,224,27409,2,0,B|40:264|56:312,1,90,4|0
136,352,27730,1,8
224,344,27890,2,0,B|264:368|312:352,1,90
400,224,28211,2,0,B|360:200|312:216,2,90,0|8|0
488,248,28692,5,0
488,248,28853,1,0
472,160,29013,2,0,B|448:120|464:72,1,90,2|0
336,120,29334,2,0,B|295:97|285:47,1,90,2|0
208,160,29655,2,0,B|161:160|127:122,1,90,2|0
16,232,29976,6,0,B|63:232|97:270,1,90,4|0
168,328,30297,1,8
168,328,30377,1,0
168,328,30457,2,0,B|248:392|336:344,1,180,2|0
408,288,30938,1,8
392,136,31099,6,0,B|312:200|224:152,1,180,2|0
152,96,31580,1,8
72,144,31740,2,0,B|8:224|56:312,1,180,2|0
240,328,32222,2,0,B|304:248|256:160,2,180,8|4|8
328,360,33024,1,0
328,360,33104,1,0
328,360,33184,2,0,B|376:384|416:360,1,90
480,232,33505,2,0,B|432:208|392:232,1,90,8|4
304,248,33826,5,0
216,272,33986,1,2
240,184,34147,1,2
152,208,34307,1,0
184,120,34468,1,2
96,144,34628,2,0,B|56:104,2,45,2|0|0
48,240,34949,5,0
48,240,35029,1,0
48,240,35109,2,0,B|24:280|48:328,1,90,4|0
136,352,35430,1,8
224,336,35591,2,0,B|264:312|312:336,1,90
400,208,35912,2,0,B|360:184|312:208,1,90,0|8
228,236,36232,6,0,B|148:300|60:244,1,180,4|0
61,244,36714,1,8
144,96,36874,6,0,B|224:32|312:88,1,180,4|0
311,88,37356,1,8
384,144,37516,5,0
384,144,37596,1,0
384,144,37676,1,4
296,360,37997,1,2
112,216,38318,1,2
112,216,38478,1,4
256,32,38799,5,2
112,216,39120,1,2
112,216,39281,1,0
400,216,39601,1,2
400,216,39762,1,4
256,32,40083,6,0,B|176:96|80:48,1,180,2|2
160,304,40724,2,0,B|200:272|248:296,2,90,2|0|4
256,32,41366,6,0,B|336:96|432:48,1,180,2|0
464,152,41847,1,0
400,240,42008,2,0,B|320:176|224:224,1,180,2|0
152,264,42489,1,8
72,216,42650,5,0
72,216,42730,1,0
72,216,42810,2,0,B|48:176|64:128,1,90,4|0
64,40,43131,2,0,B|104:16|152:32,1,90,2|0
184,184,43452,2,0,B|224:208|272:192,1,90,2|0
360,64,43773,1,8
432,120,43933,5,0
432,120,44013,1,0
432,120,44093,2,0,B|456:160|440:208,1,90,4|0
304,288,44414,2,0,B|280:248|296:200,1,90,8|0
440,288,44735,2,0,B|464:328|448:376,2,90,0|0|8
368,336,45216,5,0
368,336,45297,1,0
368,336,45377,2,0,B|288:392|192:344,1,180,4|8
128,296,45858,1,0
72,224,46019,2,0,B|120:136|24:136|72:48,1,180,0|8
144,96,46500,1,0
144,96,46580,1,0
144,96,46660,2,0,B|184:120|232:104,1,90,4|0
320,80,46981,5,8
320,80,47142,1,0
456,312,47462,5,2
456,312,47623,1,2
184,312,47944,5,4
104,272,48104,1,0
80,184,48264,1,8
112,96,48425,1,0
192,56,48585,2,0,B|232:32|280:48,1,90
392,152,48906,2,0,B|352:176|304:160,1,90,8|0
208,280,49227,2,0,B|248:256|296:272,1,90,4|0
384,296,49548,1,8
448,232,49708,2,0,B|520:152|456:64,1,180,2|2
376,32,50190,5,8
296,72,50350,1,0
208,48,50510,2,0,B|128:-16|32:40,1,180,4|8
208,216,50992,2,0,B|288:280|384:224,1,180,2|2
456,184,51473,6,0,B|480:144|464:96,1,90,8|0
328,32,51794,2,0,B|304:72|320:120,1,90,2|0
328,208,52115,2,0,B|352:248|336:296,1,90,8|0
208,216,52436,2,0,B|184:176|200:128,1,90,2|0
200,40,52756,5,8
168,32,52837,1,0
136,32,52917,1,0
104,40,52997,1,0
80,56,53077,2,0,B|8:136|64:224,1,180,4|8
112,296,53559,1,0
200,328,53719,2,0,B|248:352|288:336,1,90,4|0
376,312,54040,1,8
344,224,54200,6,0,B|264:160|176:208,1,180,4|0
176,207,54682,1,8
88,48,54842,6,0,B|168:112|256:64,1,180,4|0
255,64,55324,1,8
256,296,55644,5,4
256,296,56125,5,2
152,192,56285,1,0
256,88,56446,1,2
360,192,56606,1,2
152,192,56928,6,0,B|104:208|61:180,2,90,4|0|0
256,88,57409,2,0,B|240:40|267:-2,2,90,2|0|0
360,192,57890,2,0,B|408:176|450:203,2,90,2|0|0
256,296,58371,2,0,B|272:344|244:386,2,90,2|2|2
256,192,58853,5,0
176,144,59013,1,0
176,144,59093,1,0
176,144,59174,2,0,B|136:120|88:136,1,90,8|0
48,216,59494,5,4
72,304,59655,2,0,B|112:328|160:312,1,90,0|8
248,296,59976,1,0
336,272,60136,2,0,B|376:248|424:264,2,90,0|0|8
248,296,60617,2,0,B|176:224|232:128,1,180,4|0
96,72,61099,2,0,B|168:144|112:240,1,180,8|0
96,328,61580,2,0,B|56:360|8:336,2,90,0|8|0
184,336,62061,5,4
184,336,62142,1,0
184,336,62222,1,0
272,320,62382,2,0,B|296:280|280:232,1,90,8|0
272,144,62703,1,0
272,144,62783,1,0
272,144,62863,2,0,B|312:120|360:136,1,90,0|8
448,144,63184,6,0,B|512:232|448:320,1,180,2|2
352,248,63666,1,8
256,312,63826,2,0,B|168:376|80:312,1,180,2|2
32,192,64307,1,8
96,72,64468,6,0,B|136:48|184:64,1,90,0|0
280,192,64789,2,0,B|240:216|192:200,1,90,0|8
296,72,65109,6,0,B|336:48|384:64,1,90
480,192,65430,2,0,B|440:216|392:200,1,90,0|8
280,192,65751,1,4
256,192,65831,12,0,66874
320,48,67195,2,0,B|368:24|408:48,2,90,4|0|0
192,144,67676,2,0,B|144:168|104:144,2,90,2|0|0
320,240,68158,2,0,B|368:216|408:240,2,90,2|0|0
192,336,68639,2,0,B|144:360|104:336,2,90,2|2|2
280,312,69120,5,0
368,336,69281,1,0
368,336,69361,1,0
368,336,69441,2,0,B|416:360|464:336,1,90,8|0
480,256,69762,5,4
448,168,69922,2,0,B|424:128|440:80,1,90,0|8
304,40,70243,2,0,B|328:80|312:128,1,90
296,216,70564,1,0
224,272,70724,1,8
136,240,70885,2,0,B|56:176|112:80,2,180,2|2|2
224,272,71687,5,0
328,160,71847,1,2
184,128,72008,1,8
248,192,72168,1,0
248,192,72248,1,0
248,192,72329,2,0,B|320:256,1,90,4|0
384,312,72650,5,8
384,312,72810,1,0
448,224,72970,5,0
448,224,73131,1,0
400,128,73291,5,8
400,128,73452,1,0
312,64,73612,6,0,B|272:40|224:56,1,90,4|0
120,168,73933,2,4,B|160:192|208:176,1,90,8|4
296,168,74254,1,0
384,184,74414,2,0,B|408:232|384:280,1,90,0|8
312,320,74735,5,0
312,320,74815,1,0
312,320,74896,2,0,B|232:360|232:280|136:320,1,180,4|8
48,328,75377,2,0,B|-12:248|44:156,1,180,2|2
80,76,75858,2,0,B|120:52|168:68,1,90,8|0
256,80,76179,5,0
312,232,76339,1,2
184,144,76500,1,2
328,144,76660,1,2
208,232,76821,1,2
256,160,76981,2,0,B|272:248|240:248|256:344,1,180,2|4
256,192,77382,12,0,78585
200,136,78906,6,0,B|224:176|208:224,1,90,2|0
192,312,79227,1,2
280,336,79387,2,0,B|320:360|368:344,1,90,0|2
456,232,79708,2,0,B|416:256|368:240,1,90,2|2
280,232,80029,6,0,B|216:160|272:64,1,180,4|8
136,16,80510,2,0,B|200:88|144:184,1,180,4|0
80,272,80992,1,8
168,336,81152,2,0,B|256:400|336:344,1,180,4|0
416,304,81633,1,2
416,304,81714,1,0
416,304,81794,1,0
360,216,81954,5,2
360,216,82035,1,0
360,216,82115,1,0
256,200,82275,5,2
224,192,82355,1,0
192,188,82436,1,2
160,192,82516,1,0
128,200,82596,6,0,B|80:224|32:200,1,90,4|0
104,72,82917,2,0,B|152:48|200:72,1,90,8|0
280,88,83238,1,0
368,72,83398,2,0,B|408:48|456:64,2,90,0|8|0
392,160,83879,6,0,B|456:240|400:328,1,180,4|8
312,304,84361,2,0,B|312:248,2,45
224,328,84682,2,0,B|160:248|216:160,1,180,2|2
208,72,85163,6,0,B|136:8|40:56,2,180,4|8|0
256,192,85965,1,0
256,192,86045,1,0
256,192,86125,1,8
304,312,86286,6,0,B|376:376|472:328,2,180,4|2|2
216,296,87088,1,0
128,280,87248,2,0,B|104:240|120:192,1,90,0|8
136,104,87569,6,0,B|184:56|248:56|296:104,1,180,4|0
296,240,88051,2,0,B|344:288|408:288|456:240,1,180,8|0
472,152,88532,2,0,B|488:112|472:64,2,90,0|8|2
384,136,89013,1,2
296,152,89174,2,0,B|256:176|208:160,1,90,2|8
120,152,89494,2,0,B|40:224|88:320,1,180,2|2
168,352,89976,1,8
256,328,90136,5,4
416,64,90617,1,4
96,64,91099,1,4
256,192,91901,5,0
256,192,92061,1,4
