osu file format v9

[General]
AudioFilename: Waltzx3.mp3
AudioLeadIn: 0
PreviewTime: 56375
Countdown: 0
SampleSet: Normal
StackLeniency: 0.7
Mode: 0
LetterboxInBreaks: 1

[Editor]
DistanceSpacing: 1
BeatDivisor: 4
GridSize: 8

[Metadata]
Title:Waltz!Waltz!Waltz!
Artist:Hashimoto Miyuki
Creator:ElxBeta
Version:Hard
Source:Princess Lover! Eternal Love For My Lady
Tags:Princess Lover Comfort hinacle verdisphena

[Difficulty]
HPDrainRate:6
CircleSize:4
OverallDifficulty:6
ApproachRate:6
SliderMultiplier:1.5
SliderTickRate:1

[Events]
//Background and Video events
0,0,"425773.jpg"
Video,350,"Waltzx3 vid.avi"
//Break Periods
//Storyboard Layer 0 (Background)
//Storyboard Layer 1 (Fail)
//Storyboard Layer 2 (Pass)
//Storyboard Layer 3 (Foreground)
//Storyboard Sound Samples
//Background Colour Transformations
3,100,163,162,255

[TimingPoints]
17142,320.855614973262,4,1,0,58,1,0
56928,-100,4,1,0,58,0,1
66874,-100,4,1,0,58,0,0
67195,-100,4,1,0,58,0,1
77470,-100,4,1,0,58,0,0

[Colours]
Combo1 : 228,69,101
Combo2 : 251,162,89
Combo3 : 242,105,98

[HitObjects]
160,96,17470,2,0,B|80:88|48:176,1,150,8|0
48,251,17952,1,0
48,325,18112,2,0,B|112:365|208:325,1,150,8|0
322,254,18754,1,8
374,306,18914,1,0
416,160,19235,1,0
392,88,19395,1,8
320,56,19556,2,0,B|336:104|312:144,1,75,8|0
256,168,19877,2,0,B|232:128|256:72,1,75,2|0
176,100,20198,6,0,B|80:100,1,75
36,100,20518,1,0
32,240,20839,2,0,B|64:312|160:336|224:296,1,225
299,296,21481,1,4
408,232,21802,2,0,B|408:152,2,75,8|0|8
336,232,22283,1,0
80,320,22604,5,8
136,280,22764,1,0
185,230,22925,2,0,B|120:160,2,75,8|0|8
264,232,23406,1,0
322,173,23567,1,2
380,231,23727,1,0
438,172,23887,2,0,B|446:115|422:83,1,75
229,62,24529,6,0,B|61:62,1,150
21,201,25171,2,0,B|21:112,1,75,0|4
160,296,25652,5,2
216,248,25813,1,0
184,184,25973,1,2
352,88,26294,5,2
296,136,26455,1,0
328,200,26615,1,6
411,299,26936,6,8,B|499:299,2,75,8|0|8
336,272,27417,1,0
268,318,27577,2,0,B|174:319,1,75
120,320,27898,2,0,B|40:304|24:216|32:184,1,150,8|0
30,137,28379,2,0,B|29:35,1,75,0|4
120,320,29021,2,0,B|296:320,2,150,8|8|8
234,200,29984,5,2
336,168,30144,2,0,B|416:167,2,75,2|0|2
374,266,30625,1,0
407,362,30786,2,0,B|332:362,2,75,2|0|2
184,336,31588,2,0,B|232:272,1,75
272,216,31909,2,0,B|298:183,2,37.5
232,152,32230,1,0
64,88,32551,5,4
22,231,32871,1,0
86,192,33032,1,0
154,160,33192,2,0,B|242:160,1,75
392,160,33674,5,4
320,280,33994,1,0
320,280,34155,1,0
267,332,34315,1,0
194,350,34476,2,0,B|154:382|98:350,1,75,0|2
70,308,34797,2,0,B|110:276|166:308,1,75,0|2
164,220,35117,1,10
64,112,35438,6,0,B|128:40|224:48,1,150
272,48,35920,1,0
336,88,36080,1,0
336,160,36240,2,2,B|424:160|456:240|440:320|392:368|320:344,1,300
192,48,37684,6,2,B|112:32|56:72|48:128,1,150
6,148,38166,1,4
44,288,38326,2,0,B|17:265|33:217,2,75,8|0|8
108,224,38807,2,0,B|140:144|252:128|316:176,1,225
384,324,39609,2,0,B|480:324,2,75,8|0|8
293,324,40091,1,0
112,324,40412,1,8
112,174,40732,2,0,B|24:174,2,75,0|8|0
264,176,41374,1,0
264,176,41695,2,0,B|360:176,2,75,0|8|0
256,24,42337,2,0,B|200:-8|96:0|64:96,1,225,8|0
67,237,43139,2,0,B|43:301|99:373|139:341,2,150,8|0|8
67,161,43941,6,0,B|48:112|80:56|152:32|224:80,1,225,8|0
308,174,44743,1,8
240,312,45064,2,0,B|152:264|184:168,1,150,0|8
241,51,45706,2,0,B|305:35|361:35|393:67|425:123|441:179|425:235,1,300,0|8
352,224,46508,1,0
336,152,46668,1,0
224,144,46829,6,0,B|184:112|136:152,1,75,0|8
80,136,47150,1,0
72,288,47470,2,0,B|152:288,1,75,8|0
264,64,48272,6,0,B|352:80|392:168,1,150,8|0
381,224,48754,1,0
381,298,48914,2,0,B|469:298,2,75,8|0|8
304,296,49395,1,0
230,298,49556,2,0,B|134:298,1,75
56,120,50198,6,0,B|144:120,1,75,8|0
208,120,50518,2,0,B|248:80|296:144,2,75,8|0|8
208,195,51000,1,8
408,304,51481,5,0
408,153,51802,1,8
280,232,52123,1,0
129,232,52444,2,0,B|48:232,2,75,8|0|8
264,160,53085,1,0
160,48,53406,6,0,B|88:64|64:152,1,150,0|8
128,288,54048,2,0,B|180:283|180:219,1,75,0|8
291,172,54529,2,0,B|371:172,2,75,0|8|0
274,53,55171,1,8
348,53,55331,1,0
312,328,55652,1,8
112,312,56133,6,0,B|64:320|24:264,1,75,0|8
44,212,56454,2,0,B|92:204|132:260,1,75,0|8
264,216,56936,6,0,B|328:152,1,75,0|8
264,110,57256,1,0
210,163,57417,2,0,B|153:114,1,75,8|0
88,152,57738,1,8
144,208,57898,2,0,B|80:256,1,75,0|8
216,320,58379,2,0,B|304:320,2,75,0|8|0
352,256,59021,1,8
400,320,59181,1,0
312,192,59502,1,0
432,104,59824,5,8
392,40,59984,1,0
352,104,60145,2,0,B|304:40|264:56,1,75,8|0
280,128,60465,2,0,B|215:120|191:168,1,75,8|0
256,192,60786,12,0,62069
227,112,62391,5,8
227,37,62551,1,0
159,68,62711,2,0,B|95:76|79:108,1,75,8|0
89,184,63032,1,8
89,273,63192,1,0
269,273,63513,1,8
179,273,63673,1,0
179,182,63834,1,8
288,64,64155,6,0,B|368:80|384:168,1,150,0|8
384,240,64636,1,0
384,315,64797,1,8
458,315,64957,1,0
277,346,65278,2,0,B|181:348,1,75,8|0
136,312,65599,1,8
136,312,65759,2,0,B|56:256|64:152|96:64|160:56,1,300,0|8
160,208,66722,1,0
200,272,66882,1,0
384,64,67203,6,0,B|432:80|432:144,1,75,8|0
360,136,67524,1,8
328,208,67684,2,0,B|280:176|272:120,1,75,0|8
205,151,68005,1,0
129,151,68166,2,0,B|173:59,1,75,8|0
208,224,68647,2,0,B|208:304,2,75,8|0|8
206,72,69289,1,0
280,88,69449,1,8
208,224,69770,1,0
104,328,70091,6,0,B|200:328,2,75,0|8|0
40,288,70572,2,0,B|40:184,1,75,8|0
40,136,70893,1,8
40,136,71214,1,0
112,136,71374,1,8
184,136,71535,2,0,B|256:80|336:144,1,150,0|8
320,136,72016,1,0
392,272,72337,5,0
320,136,72658,1,8
192,208,72978,1,0
264,344,73299,1,8
192,208,73620,1,0
248,160,73781,1,8
192,112,73941,1,0
136,160,74101,1,8
408,56,74583,6,0,B|440:128|408:208,1,150,2|8
304,95,75224,1,0
329,197,75385,2,0,B|377:245|393:293|385:357|345:389|281:397|225:365|209:317|217:269,1,375
164,215,76347,5,8
94,249,76507,1,2
30,209,76668,1,8
40,136,76829,1,2
88,80,76989,2,0,B|240:80,1,150,0|12
256,192,77470,12,0,78754
184,120,78914,5,8
128,168,79075,2,0,B|80:248|128:320,1,150,2|8
176,256,79556,1,2
312,192,79877,1,0
312,192,80037,2,0,B|352:256|310:345,1,150,2|0
256,288,80518,2,2,B|216:224|258:135,1,150
107,177,81160,6,2,B|11:177,3,75,2|2|2|6
32,252,81802,2,8,B|192:252,1,150,0|8
336,72,82444,1,4
394,130,82604,1,0
335,188,82764,1,0
280,128,82925,2,0,B|192:128,1,75,8|0
64,328,83406,5,2
5,269,83567,1,0
63,210,83727,1,2
336,72,84048,1,2
394,130,84209,1,8
336,184,84369,1,2
192,152,84690,1,2
192,152,84771,1,0
192,152,84850,2,0,B|104:136|104:104,1,75,2|0
96,200,85171,5,0
64,264,85331,1,0
128,296,85492,2,0,B|213:294,1,75
400,216,85973,1,2
400,216,86054,1,8
400,216,86134,1,2
400,216,86294,1,4
320,96,86615,1,2
320,96,86695,1,8
320,96,86775,1,2
320,96,86935,1,4
154,96,87256,6,0,B|58:96,2,75,10|0|0
160,264,87898,2,0,B|160:352,2,75,2|0|2
312,192,88540,1,2
312,192,88700,1,8
312,192,88861,2,0,B|328:120|408:72,1,150,2|0
200,192,89502,2,0,B|184:264|104:312,1,150,8|2
256,336,90144,5,2
256,48,90625,1,2
256,192,91107,1,2
415,128,91909,5,12
415,240,92069,1,12
