osu file format v13

[General]
AudioFilename: UN-DELAYED -TVsize-.mp3
AudioLeadIn: 0
PreviewTime: 48154
Countdown: 0
SampleSet: None
StackLeniency: 0.7
Mode: 3
LetterboxInBreaks: 0
SpecialStyle: 0
WidescreenStoryboard: 0

[Editor]
DistanceSpacing: 1
BeatDivisor: 4
GridSize: 8
TimelineZoom: 2.099999

[Metadata]
Title:UN-DELAYED -TVsize-
TitleUnicode:UN-DELAYED -TVsize-
Artist:Hashimoto Miyuki
ArtistUnicode:橋本みゆき
Creator:richardfeder
Version:Normal
Source:ワルキューレロマンツェ
Tags:Ricotta Walroma Romanze Shoujo Kishi Monogatari
BeatmapID:445210
BeatmapSetID:186336

[Difficulty]
HPDrainRate:7
CircleSize:7
OverallDifficulty:7
ApproachRate:5
SliderMultiplier:1.4
SliderTickRate:1

[Events]
//Background and Video events
0,0,"BG.jpg",0,0
//Break Periods
//Storyboard Layer 0 (Background)
//Storyboard Layer 1 (Fail)
//Storyboard Layer 2 (Pass)
//Storyboard Layer 3 (Foreground)
//Storyboard Sound Samples
//Background Colour Transformations
3,100,163,162,255

[TimingPoints]
775,413.793103448276,4,2,0,30,1,0
7395,-100,4,3,0,30,0,0
17326,-100,4,2,0,30,0,0
34085,-100,4,3,0,30,0,0

[HitObjects]
36,192,775,128,0,2223:0:0:0:0:
256,192,2223,128,0,3671:0:0:0:0:
402,192,4085,128,0,4499:0:0:0:0:
182,192,4706,1,0,0:0:0:0:
182,192,4912,128,0,5326:0:0:0:0:
36,192,5533,128,0,6154:0:0:0:0:
475,192,5533,128,0,6154:0:0:0:0:
109,192,6361,128,0,6671:0:0:0:0:
402,192,6361,128,0,6671:0:0:0:0:
256,192,6671,128,0,7395:0:0:0:0:
329,192,7395,1,0,0:0:0:0:
475,192,7395,1,0,0:0:0:0:
36,192,7809,1,0,0:0:0:0:
329,192,8223,1,0,0:0:0:0:
109,192,8637,1,0,0:0:0:0:
402,192,9050,1,0,0:0:0:0:
182,192,9464,1,0,0:0:0:0:
475,192,9878,1,0,0:0:0:0:
256,192,10292,1,0,0:0:0:0:
182,192,10706,128,0,12361:0:0:0:0:
329,192,10706,128,0,11326:0:0:0:0:
402,192,11533,128,0,12154:0:0:0:0:
36,192,12361,128,0,13188:0:0:0:0:
475,192,12361,128,0,13188:0:0:0:0:
256,192,13188,128,0,14016:0:0:0:0:
329,192,13188,1,0,0:0:0:0:
36,192,13499,1,0,0:0:0:0:
475,192,13809,1,0,0:0:0:0:
329,192,14016,128,0,15464:0:0:0:0:
36,192,14016,128,0,15464:0:0:0:0:
182,192,15671,128,0,16912:0:0:0:0:
475,192,15671,128,0,16912:0:0:0:0:
182,192,17119,1,0,0:0:0:0:
256,192,17223,1,0,0:0:0:0:
329,192,17326,128,0,18775:0:0:0:0:
36,192,17326,1,4,0:0:0:0:
182,192,17740,1,0,0:0:0:0:
109,192,18154,1,0,0:0:0:0:
475,192,18568,1,0,0:0:0:0:
36,192,18775,1,0,0:0:0:0:
109,192,18878,1,0,0:0:0:0:
182,192,18981,128,0,20430:0:0:0:0:
402,192,18981,1,0,0:0:0:0:
36,192,19395,1,0,0:0:0:0:
402,192,19809,1,0,0:0:0:0:
36,192,20223,1,4,0:0:0:0:
402,192,20430,1,0,0:0:0:0:
329,192,20533,1,0,0:0:0:0:
256,192,20637,128,0,21464:0:0:0:0:
36,192,20637,1,0,0:0:0:0:
475,192,21050,1,0,0:0:0:0:
402,192,21464,128,0,22292:0:0:0:0:
36,192,21464,1,0,0:0:0:0:
182,192,21878,1,0,0:0:0:0:
36,192,22292,128,0,23533:0:0:0:0:
329,192,22292,1,0,0:0:0:0:
256,192,22706,1,0,0:0:0:0:
329,192,23119,1,0,0:0:0:0:
475,192,23326,1,0,0:0:0:0:
402,192,23430,1,0,0:0:0:0:
182,192,23533,1,4,0:0:0:0:
329,192,23533,1,0,0:0:0:0:
182,192,23947,128,0,25188:0:0:0:0:
36,192,23947,1,4,0:0:0:0:
475,192,24361,1,0,0:0:0:0:
256,192,24775,1,0,0:0:0:0:
402,192,25188,1,0,0:0:0:0:
329,192,25395,1,0,0:0:0:0:
475,192,25602,1,4,0:0:0:0:
256,192,25602,128,0,26016:0:0:0:0:
402,192,26016,1,4,0:0:0:0:
182,192,26016,128,0,26430:0:0:0:0:
329,192,26430,1,4,0:0:0:0:
109,192,26430,128,0,26843:0:0:0:0:
256,192,26843,1,4,0:0:0:0:
36,192,26843,1,0,0:0:0:0:
109,192,27050,1,0,0:0:0:0:
329,192,27050,1,0,0:0:0:0:
182,192,27257,128,0,28499:0:0:0:0:
402,192,27257,1,4,0:0:0:0:
36,192,27671,1,0,0:0:0:0:
475,192,28085,1,0,0:0:0:0:
329,192,28499,1,0,0:0:0:0:
329,192,28912,128,0,30154:0:0:0:0:
36,192,28912,1,0,0:0:0:0:
182,192,29326,1,0,0:0:0:0:
109,192,29740,1,0,0:0:0:0:
256,192,30154,1,0,0:0:0:0:
182,192,30568,1,0,0:0:0:0:
329,192,30671,1,0,0:0:0:0:
256,192,30878,1,0,0:0:0:0:
256,192,31395,128,0,31809:0:0:0:0:
475,192,33464,1,0,0:0:0:0:
329,192,33568,1,0,0:0:0:0:
182,192,33671,1,0,0:0:0:0:
36,192,33775,1,0,0:0:0:0:
109,192,34085,1,8,0:0:0:0:
402,192,34085,1,0,0:0:0:0:
475,192,34499,1,0,0:0:0:0:
182,192,34499,1,8,0:0:0:0:
402,192,34706,1,8,0:0:0:0:
109,192,34706,1,0,0:0:0:0:
329,192,35016,1,0,0:0:0:0:
36,192,35016,1,8,0:0:0:0:
109,192,35326,1,8,0:0:0:0:
402,192,35326,1,0,0:0:0:0:
475,192,35533,1,8,0:0:0:0:
182,192,35533,128,0,35947:0:0:0:0:
256,192,35947,1,8,0:0:0:0:
402,192,36154,128,0,36568:0:0:0:0:
256,192,36568,1,0,0:0:0:0:
109,192,36671,1,0,0:0:0:0:
329,192,36775,1,8,0:0:0:0:
182,192,36878,1,0,0:0:0:0:
36,192,36981,1,0,0:0:0:0:
109,192,37395,1,8,0:0:0:0:
402,192,37395,1,0,0:0:0:0:
182,192,37809,1,0,0:0:0:0:
36,192,38016,1,8,0:0:0:0:
329,192,38016,1,0,0:0:0:0:
109,192,38326,1,8,0:0:0:0:
402,192,38326,1,0,0:0:0:0:
182,192,38637,1,8,0:0:0:0:
475,192,38637,1,0,0:0:0:0:
36,192,38843,128,0,39257:0:0:0:0:
256,192,39257,128,0,39671:0:0:0:0:
475,192,39671,128,0,40085:0:0:0:0:
109,192,40085,1,8,0:0:0:0:
182,192,40188,1,0,0:0:0:0:
256,192,40292,1,0,0:0:0:0:
329,192,40395,1,0,0:0:0:0:
402,192,40499,128,0,41119:0:0:0:0:
182,192,41119,1,0,0:0:0:0:
256,192,41223,1,0,0:0:0:0:
329,192,41326,128,0,41533:0:0:0:0:
109,192,41533,128,0,42154:0:0:0:0:
329,192,42154,128,0,42878:0:0:0:0:
402,192,42878,1,0,0:0:0:0:
182,192,43085,1,0,0:0:0:0:
256,192,43188,128,0,43395:0:0:0:0:
36,192,43395,1,8,0:0:0:0:
475,192,43395,1,0,0:0:0:0:
256,192,43602,1,0,0:0:0:0:
36,192,43809,1,8,0:0:0:0:
256,192,43809,1,0,0:0:0:0:
109,192,44119,1,8,0:0:0:0:
329,192,44119,1,0,0:0:0:0:
182,192,44430,1,8,0:0:0:0:
402,192,44430,1,0,0:0:0:0:
329,192,44637,1,8,0:0:0:0:
109,192,44637,1,0,0:0:0:0:
182,192,44947,1,8,0:0:0:0:
402,192,44947,1,0,0:0:0:0:
256,192,45257,1,8,0:0:0:0:
475,192,45257,1,0,0:0:0:0:
256,192,45464,128,0,46085:0:0:0:0:
475,192,45464,128,0,46085:0:0:0:0:
402,192,46085,1,0,0:0:0:0:
182,192,46085,1,8,0:0:0:0:
109,192,46188,1,8,0:0:0:0:
36,192,46292,1,8,0:0:0:0:
329,192,46499,1,8,0:0:0:0:
182,192,46602,1,8,0:0:0:0:
402,192,46809,1,8,0:0:0:0:
109,192,46912,1,8,0:0:0:0:
256,192,47016,1,8,0:0:0:0:
475,192,47119,1,0,0:0:0:0:
36,192,47119,1,8,0:0:0:0:
475,192,47430,1,0,0:0:0:0:
36,192,47430,1,8,0:0:0:0:
182,192,47740,1,8,0:0:0:0:
329,192,47740,1,0,0:0:0:0:
109,192,47947,1,8,0:0:0:0:
402,192,47947,1,0,0:0:0:0:
256,192,48775,128,0,50016:0:0:0:0:
475,192,48775,1,0,0:0:0:0:
36,192,48775,1,0,0:0:0:0:
402,192,49188,1,8,0:0:0:0:
109,192,49602,1,0,0:0:0:0:
402,192,50016,1,8,0:0:0:0:
109,192,50223,1,0,0:0:0:0:
182,192,50326,1,0,0:0:0:0:
256,192,50430,128,0,50843:0:0:0:0:
475,192,50430,1,0,0:0:0:0:
182,192,50843,1,8,0:0:0:0:
36,192,50843,1,0,0:0:0:0:
329,192,51050,1,0,0:0:0:0:
475,192,51257,128,0,51568:0:0:0:0:
182,192,51257,1,0,0:0:0:0:
329,192,51568,128,0,51878:0:0:0:0:
36,192,51671,1,8,0:0:0:0:
182,192,51878,128,0,52085:0:0:0:0:
402,192,52085,128,0,52395:0:0:0:0:
475,192,52085,1,0,0:0:0:0:
256,192,52395,128,0,52706:0:0:0:0:
36,192,52499,1,8,0:0:0:0:
109,192,52706,128,0,53326:0:0:0:0:
402,192,52912,1,0,0:0:0:0:
256,192,53326,1,8,0:0:0:0:
329,192,53740,1,0,0:0:0:0:
182,192,54154,1,8,0:0:0:0:
402,192,54568,1,0,0:0:0:0:
109,192,54981,1,8,0:0:0:0:
256,192,55188,1,0,0:0:0:0:
329,192,55292,1,0,0:0:0:0:
402,192,55395,128,0,56016:0:0:0:0:
36,192,55395,1,0,0:0:0:0:
109,192,55809,1,8,0:0:0:0:
182,192,56016,1,0,0:0:0:0:
256,192,56119,1,0,0:0:0:0:
329,192,56223,128,0,56843:0:0:0:0:
36,192,56223,1,0,0:0:0:0:
182,192,56637,1,8,0:0:0:0:
402,192,56843,1,0,0:0:0:0:
109,192,57050,1,0,0:0:0:0:
182,192,57257,128,0,57464:0:0:0:0:
329,192,57464,128,0,57671:0:0:0:0:
36,192,57464,1,8,0:0:0:0:
475,192,57671,128,0,58085:0:0:0:0:
182,192,57878,1,0,0:0:0:0:
256,192,58085,128,0,58292:0:0:0:0:
402,192,58292,128,0,58499:0:0:0:0:
182,192,58292,1,8,0:0:0:0:
109,192,58499,128,0,58706:0:0:0:0:
329,192,58706,128,0,59533:0:0:0:0:
475,192,58706,1,0,0:0:0:0:
182,192,59119,1,8,0:0:0:0:
36,192,59119,1,0,0:0:0:0:
475,192,59533,1,0,0:0:0:0:
182,192,59947,1,8,0:0:0:0:
36,192,59947,1,0,0:0:0:0:
475,192,60154,1,0,0:0:0:0:
402,192,60257,1,0,0:0:0:0:
329,192,60361,1,0,0:0:0:0:
109,192,60361,1,0,0:0:0:0:
256,192,60671,1,0,0:0:0:0:
36,192,60671,1,0,0:0:0:0:
109,192,60981,1,0,0:0:0:0:
329,192,60981,1,0,0:0:0:0:
182,192,61395,1,0,0:0:0:0:
402,192,61602,1,0,0:0:0:0:
256,192,61809,1,0,0:0:0:0:
182,192,62016,128,0,62637:0:0:0:0:
475,192,62016,1,0,0:0:0:0:
36,192,62430,1,8,0:0:0:0:
475,192,62637,1,0,0:0:0:0:
402,192,62740,1,0,0:0:0:0:
329,192,62843,128,0,63257:0:0:0:0:
109,192,62843,1,0,0:0:0:0:
475,192,63257,1,8,0:0:0:0:
256,192,63464,128,0,63878:0:0:0:0:
402,192,63671,1,0,0:0:0:0:
109,192,63878,1,0,0:0:0:0:
329,192,64085,1,8,0:0:0:0:
475,192,64292,128,0,64706:0:0:0:0:
182,192,64499,1,0,0:0:0:0:
402,192,64706,128,0,64912:0:0:0:0:
256,192,64912,128,8,65119:0:0:0:0:
36,192,64912,1,8,0:0:0:0:
109,192,65119,128,0,65326:0:0:0:0:
329,192,65326,128,0,65740:0:0:0:0:
475,192,65326,1,0,0:0:0:0:
256,192,65740,1,8,0:0:0:0:
109,192,65947,128,0,66154:0:0:0:0:
329,192,66154,128,0,66361:0:0:0:0:
475,192,66154,1,0,0:0:0:0:
182,192,66361,128,0,66568:0:0:0:0:
402,192,66568,128,0,66775:0:0:0:0:
36,192,66568,1,8,0:0:0:0:
256,192,66775,1,0,0:0:0:0:
182,192,66981,1,0,0:0:0:0:
329,192,66981,1,0,0:0:0:0:
109,192,67292,1,0,0:0:0:0:
402,192,67292,1,0,0:0:0:0:
36,192,67602,1,0,0:0:0:0:
475,192,67602,1,0,0:0:0:0:
182,192,68016,1,0,0:0:0:0:
329,192,68223,1,0,0:0:0:0:
256,192,68430,1,0,0:0:0:0:
109,192,68637,128,0,69050:0:0:0:0:
402,192,68637,1,0,0:0:0:0:
182,192,69050,1,8,0:0:0:0:
256,192,69257,128,0,69671:0:0:0:0:
109,192,69671,1,0,0:0:0:0:
329,192,69878,1,8,0:0:0:0:
475,192,69878,1,0,0:0:0:0:
182,192,70085,128,0,70499:0:0:0:0:
256,192,70499,1,0,0:0:0:0:
329,192,70706,1,8,0:0:0:0:
475,192,70912,128,0,71326:0:0:0:0:
109,192,71119,1,0,0:0:0:0:
329,192,71326,128,0,71533:0:0:0:0:
36,192,71533,128,0,71740:0:0:0:0:
402,192,71533,1,8,0:0:0:0:
182,192,71740,128,0,71947:0:0:0:0:
256,192,71947,1,0,0:0:0:0:
402,192,72154,128,0,72568:0:0:0:0:
36,192,72361,1,8,0:0:0:0:
109,192,72568,128,0,72775:0:0:0:0:
256,192,72775,128,0,72981:0:0:0:0:
475,192,72775,1,0,0:0:0:0:
402,192,72981,128,0,73188:0:0:0:0:
36,192,73188,1,8,0:0:0:0:
182,192,73188,128,0,73395:0:0:0:0:
329,192,73395,128,0,74016:0:0:0:0:
109,192,73602,1,0,0:0:0:0:
475,192,74016,1,8,0:0:0:0:
402,192,74223,128,0,74637:0:0:0:0:
109,192,74430,1,0,0:0:0:0:
329,192,74637,128,0,74843:0:0:0:0:
36,192,74843,128,0,75050:0:0:0:0:
256,192,74843,1,8,0:0:0:0:
182,192,75050,128,0,75257:0:0:0:0:
329,192,75257,1,0,0:0:0:0:
475,192,75257,1,0,0:0:0:0:
109,192,75464,1,0,0:0:0:0:
256,192,75568,1,0,0:0:0:0:
402,192,75671,1,0,0:0:0:0:
36,192,75878,1,0,0:0:0:0:
182,192,75878,1,0,0:0:0:0:
402,192,76085,1,0,0:0:0:0:
256,192,76188,1,0,0:0:0:0:
109,192,76292,1,0,0:0:0:0:
329,192,76499,1,0,0:0:0:0:
475,192,76499,1,0,0:0:0:0:
36,192,76706,1,0,0:0:0:0:
182,192,76809,1,0,0:0:0:0:
475,192,77119,1,0,0:0:0:0:
329,192,77119,1,0,0:0:0:0:
182,192,77326,1,0,0:0:0:0:
36,192,77430,1,0,0:0:0:0:
109,192,77740,1,0,0:0:0:0:
329,192,77740,1,0,0:0:0:0:
182,192,78050,1,0,0:0:0:0:
402,192,78050,1,0,0:0:0:0:
256,192,78361,1,0,0:0:0:0:
475,192,78361,1,0,0:0:0:0:
36,192,78568,1,0,0:0:0:0:
329,192,78568,128,0,79395:0:0:0:0:
182,192,78981,1,8,0:0:0:0:
402,192,79395,1,0,0:0:0:0:
182,192,79602,128,0,79809:0:0:0:0:
402,192,79809,128,0,80016:0:0:0:0:
36,192,79809,1,0,0:0:0:0:
256,192,80016,128,0,80223:0:0:0:0:
36,192,80430,1,0,0:0:0:0:
182,192,80430,1,0,0:0:0:0:
475,192,80637,1,0,0:0:0:0:
329,192,80637,1,0,0:0:0:0:
402,192,81050,1,0,0:0:0:0:
182,192,81050,1,0,0:0:0:0:
329,192,81361,1,0,0:0:0:0:
109,192,81361,1,0,0:0:0:0:
256,192,81671,1,0,0:0:0:0:
36,192,81671,1,0,0:0:0:0:
182,192,81878,128,0,82706:0:0:0:0:
475,192,81878,1,0,0:0:0:0:
402,192,82292,1,8,0:0:0:0:
329,192,82706,1,0,0:0:0:0:
402,192,82912,128,0,83119:0:0:0:0:
256,192,83119,128,0,83326:0:0:0:0:
36,192,83119,1,8,0:0:0:0:
109,192,83326,128,0,83533:0:0:0:0:
329,192,83533,1,0,0:0:0:0:
36,192,83740,128,0,83947:0:0:0:0:
182,192,83947,128,0,84257:0:0:0:0:
475,192,83947,1,8,0:0:0:0:
329,192,84257,128,0,84568:0:0:0:0:
36,192,84361,1,0,0:0:0:0:
109,192,84568,128,0,84775:0:0:0:0:
402,192,84775,128,0,84981:0:0:0:0:
475,192,84775,1,8,0:0:0:0:
182,192,84981,1,0,0:0:0:0:
256,192,85085,1,0,0:0:0:0:
329,192,85188,128,0,85499:0:0:0:0:
36,192,85188,1,0,0:0:0:0:
256,192,85499,1,0,0:0:0:0:
475,192,85602,1,8,0:0:0:0:
182,192,85809,128,0,86223:0:0:0:0:
402,192,86016,1,0,0:0:0:0:
109,192,86223,128,0,86430:0:0:0:0:
256,192,86430,128,0,86637:0:0:0:0:
475,192,86430,1,8,0:0:0:0:
402,192,86637,128,0,87050:0:0:0:0:
109,192,86843,1,0,0:0:0:0:
329,192,87050,1,0,0:0:0:0:
182,192,87257,1,8,0:0:0:0:
475,192,87464,128,0,87878:0:0:0:0:
256,192,87464,1,0,0:0:0:0:
256,192,87878,1,0,0:0:0:0:
36,192,87878,1,0,0:0:0:0:
329,192,88085,1,0,0:0:0:0:
109,192,88085,1,0,0:0:0:0:
402,192,88292,128,0,89326:0:0:0:0:
182,192,88292,1,0,0:0:0:0:
