osu file format v13

[General]
AudioFilename: UN-DELAYED.mp3
AudioLeadIn: 1500
PreviewTime: 47791
Countdown: 0
SampleSet: Soft
StackLeniency: 0.5
Mode: 0
LetterboxInBreaks: 0
WidescreenStoryboard: 0

[Editor]
Bookmarks: 30204
DistanceSpacing: 1.5
BeatDivisor: 4
GridSize: 4
TimelineZoom: 2.2

[Metadata]
Title:UN-DELAYED (TV Size)
TitleUnicode:UN-DELAYED (TV Size)
Artist:Hashimoto Miyuki
ArtistUnicode:橋本みゆき
Creator:meetmeetdee
Version:Insane
Source:ワルキューレロマンツェ
Tags:opening Ricotta Eroge Visual novel Walkure Romanze Shoujo Kishi Monogatari
BeatmapID:354748
BeatmapSetID:142464

[Difficulty]
HPDrainRate:7
CircleSize:4
OverallDifficulty:7
ApproachRate:8
SliderMultiplier:1.8
SliderTickRate:2

[Events]
//Background and Video events
0,0,"BG.jpg",0,0
Video,0,"video.avi"
//Break Periods
//Storyboard Layer 0 (Background)
//Storyboard Layer 1 (Fail)
//Storyboard Layer 2 (Pass)
//Storyboard Layer 3 (Foreground)
//Storyboard Sound Samples
//Background Colour Transformations
3,100,163,162,255

[TimingPoints]
-1243,413.793103448276,4,2,1,30,1,0
2274,-166.666666666667,4,2,1,50,0,0
5067,-166.666666666667,4,2,1,40,0,0
5273,-166.666666666667,4,2,1,50,0,0
5998,-166.666666666667,4,2,1,40,0,0
6101,-166.666666666667,4,2,1,60,0,0
6618,-66.6666666666667,4,2,1,90,0,0
7032,-100,4,2,1,80,0,0
16860,-66.6666666666667,4,2,1,80,0,0
17067,-66.6666666666667,4,2,1,40,0,0
17273,-100,4,2,1,70,0,0
30411,-100,4,2,1,40,0,0
31860,-100,4,2,1,50,0,0
33515,-100,4,2,1,20,0,0
33722,-100,4,2,1,70,0,0
34446,-100,4,2,1,40,0,0
34653,-100,4,2,1,70,0,0
34756,-100,4,2,1,40,0,0
34963,-100,4,2,1,70,0,0
39825,-100,4,2,1,40,0,0
40032,-100,4,2,1,70,0,0
40963,-100,4,2,1,40,0,0
41170,-100,4,2,1,70,0,0
48412,-100,4,2,1,80,0,1
57515,-100,4,2,1,40,0,1
57722,-100,4,2,1,80,0,1
67342,-100,4,2,1,30,0,1
67549,-100,4,2,1,80,0,1
75618,-100,4,2,1,30,0,1
75825,-100,4,2,1,80,0,1
80273,-66.6666666666667,4,2,1,80,0,1
80584,-100,4,2,1,80,0,1
81204,-100,4,2,1,40,0,1
81515,-100,4,2,1,70,0,0
87308,-100,4,2,1,40,0,0
87515,-100,4,2,1,70,0,0
88963,-100,4,2,1,5,0,0

[Colours]
Combo1 : 128,255,128
Combo2 : 0,255,255
Combo3 : 255,0,128
Combo4 : 255,128,64

[HitObjects]
256,192,204,12,0,2067,0:0:0:0:
136,224,2481,6,0,P|168:248|200:252,1,53.9999983520508,2|0,0:0|0:0,0:0:0:0:
200,260,2791,1,0,0:0:0:0:
220,264,2894,1,0,0:0:0:0:
340,200,3101,1,2,0:0:0:0:
340,200,3308,2,0,P|332:228|336:260,1,53.9999983520508,2|0,0:0|0:0,0:0:0:0:
260,132,3722,6,0,P|200:112|148:124,1,107.999996704102
256,248,4342,1,0,0:0:0:0:
256,248,4549,2,0,P|316:268|368:256,1,107.999996704102
480,308,5170,6,0,P|456:260|460:204,1,107.999996704102,2|0,0:0|0:0,0:0:0:0:
460,176,5687,1,0,0:0:0:0:
452,155,5790,1,0,0:0:0:0:
439,138,5893,1,0,0:0:0:0:
421,126,5998,2,0,P|368:136|312:120,1,107.999996704102,2|2,0:0|0:0,0:0:0:0:
160,44,6618,6,0,P|200:104|204:168,1,135.000005149842,8|0,0:0|0:0,0:0:0:0:
240,300,7032,6,0,P|328:324|412:300,1,180,4|8,0:0|0:0,0:0:0:0:
468,176,7653,1,0,0:0:0:0:
404,56,7860,2,0,P|356:40|308:44,1,90
288,56,8170,1,0,0:0:0:0:
264,76,8274,2,0,P|232:112|176:124,1,90,8|0,0:0|0:0,0:0:0:0:
44,156,8687,6,0,P|20:112|24:68,1,90
188,176,9101,2,0,P|212:220|208:264,1,90,8|0,0:0|0:0,0:0:0:0:
56,244,9515,1,0,0:0:0:0:
188,176,9722,1,0,0:0:0:0:
124,312,9929,1,8,0:0:0:0:
44,156,10136,1,0,0:0:0:0:
168,72,10343,6,0,P|216:56|252:24,1,90,2|0,0:0|0:0,0:0:0:0:
84,28,10756,1,8,0:0:0:0:
44,156,10963,1,0,0:0:0:0:
200,272,11170,2,0,P|248:292|292:284,1,90,2|0,0:0|0:0,0:0:0:0:
428,192,11584,1,8,0:0:0:0:
408,324,11791,1,0,0:0:0:0:
332,125,11998,6,0,P|342:81|372:48,1,90,2|2,0:0|0:0,0:0:0:0:
408,24,12308,2,0,L|312:32,1,90
272,48,12618,1,0,0:0:0:0:
252,200,12825,2,0,P|336:232|384:232,2,135,0|0|0,0:0|0:0|0:0,0:0:0:0:
116,124,13653,5,2,0:0:0:0:
80,132,13756,1,2,0:0:0:0:
52,152,13860,1,2,0:0:0:0:
40,184,13963,1,2,0:0:0:0:
40,220,14067,2,0,P|53:262|87:291,1,90,8|0,0:0|0:0,0:0:0:0:
236,324,14480,5,2,0:0:0:0:
252,292,14584,1,0,0:0:0:0:
268,256,14687,1,2,0:0:0:0:
280,220,14791,1,0,0:0:0:0:
288,184,14894,2,0,P|292:140|280:92,1,90,8|0,0:0|0:0,0:0:0:0:
132,60,15308,5,2,0:0:0:0:
104,84,15411,1,2,0:0:0:0:
108,120,15515,1,0,0:0:0:0:
136,144,15618,1,2,0:0:0:0:
172,152,15722,2,0,P|192:192|180:236,1,90,8|0,0:0|0:0,0:0:0:0:
76,336,16135,5,2,0:0:0:0:
76,336,16239,1,0,0:0:0:0:
76,336,16343,2,0,P|44:356|-8:348,2,90,2|8|2,0:0|0:0|0:0,0:0:0:0:
256,120,16963,6,0,L|256:260,1,135.000005149842,6|0,0:0|0:0,0:0:0:0:
300,384,17377,5,8,0:0:0:0:
162,367,17584,2,0,P|132:334|120:292,1,90
299,179,17998,2,0,P|286:221|256:254,2,90,0|8|0,0:0|0:0|0:0,0:0:0:0:
168,156,18618,5,0,0:0:0:0:
152,24,18825,2,0,P|108:34|73:62,1,90,0|8,0:0|0:0,0:0:0:0:
80,244,19239,2,0,P|115:287|151:303,1,90
256,196,19653,1,0,0:0:0:0:
344,296,19860,1,8,0:0:0:0:
448,152,20067,1,0,0:0:0:0:
424,160,20170,1,0,0:0:0:0:
400,172,20274,6,0,P|312:180|228:148,1,180,0|8,0:0|0:0,0:0:0:0:
104,28,20894,2,0,P|112:116|80:200,1,180
88,320,21515,1,8,0:0:0:0:
260,268,21721,1,2,0:0:0:0:
260,268,21825,1,0,0:0:0:0:
260,268,21929,6,0,P|240:312|248:352,1,90,0|2,0:0|0:0,0:0:0:0:
360,280,22343,2,0,P|380:236|372:196,1,90,8|2,0:0|0:0,0:0:0:0:
300,68,22756,2,0,P|280:112|288:152,1,90,0|2,0:0|0:0,0:0:0:0:
416,120,23170,1,8,0:0:0:0:
288,152,23377,1,0,0:0:0:0:
156,280,23584,6,0,L|238:315,1,90,0|0,0:0|0:0,0:0:0:0:
208,136,23998,2,0,L|124:100,1,90,8|0,0:0|0:0,0:0:0:0:
96,84,24308,1,0,0:0:0:0:
96,84,24411,1,0,0:0:0:0:
24,212,24618,1,0,0:0:0:0:
24,212,24722,1,0,0:0:0:0:
24,212,24825,2,0,P|56:248|104:264,1,90,8|0,0:0|0:0,0:0:0:0:
208,120,25239,5,2,0:0:0:0:
384,176,25446,1,0,0:0:0:0:
256,308,25653,1,8,0:0:0:0:
448,360,25860,1,0,0:0:0:0:
496,192,26067,2,0,L|496:84,1,90,2|0,0:0|0:0,0:0:0:0:
512,64,26377,1,2,0:0:0:0:
512,64,26481,2,0,P|456:68|416:60,1,90,8|0,0:0|0:0,0:0:0:0:
248,44,26894,5,0,0:0:0:0:
161,161,27101,2,0,L|132:128,2,45,2|0|8,0:0|0:0|0:0,0:0:0:0:
316,184,27515,1,2,0:0:0:0:
296,208,27618,1,0,0:0:0:0:
276,232,27722,2,0,P|240:264|200:280,1,90,0|2,0:0|0:0,0:0:0:0:
104,144,28136,2,0,P|152:156|188:184,1,90,8|0,0:0|0:0,0:0:0:0:
288,296,28550,6,0,L|200:328,1,90,2|0,0:0|0:0,0:0:0:0:
324,112,28963,2,0,L|416:152,1,90,8|0,0:0|0:0,0:0:0:0:
172,148,29377,2,0,L|196:48,1,90,2|0,0:0|0:0,0:0:0:0:
416,280,29791,2,0,L|324:320,1,90,8|0,0:0|0:0,0:0:0:0:
256,192,30204,5,4,0:0:0:0:
368,116,30411,1,0,0:0:0:0:
368,116,30515,1,0,0:0:0:0:
368,116,30618,2,0,P|368:140|356:168,1,45,8|0,0:0|0:0,0:0:0:0:
264,272,30929,1,0,0:0:0:0:
264,272,31032,2,0,P|312:300|352:308,1,90,0|0,0:0|0:0,0:0:0:0:
456,244,31446,2,0,P|416:220|400:180,1,90,8|0,0:0|0:0,0:0:0:0:
400,180,31860,5,2,0:0:0:0:
272,60,32067,1,0,0:0:0:0:
272,60,32170,2,0,L|244:192,1,135,2|0,0:0|0:0,0:0:0:0:
124,312,32687,1,0,0:0:0:0:
20,224,32894,1,0,0:0:0:0:
168,148,33101,1,8,0:0:0:0:
272,60,33308,2,0,P|336:88|408:80,1,135,0|0,0:0|0:0,0:0:0:0:
420,40,33722,6,0,L|333:197,1,180,4|0,0:0|0:0,0:0:0:0:
208,244,34342,2,0,P|248:296|312:332,2,135,10|2|2,0:0|0:0|0:0,0:0:0:0:
320,120,35170,6,0,P|364:96|412:88,1,90,2|0,0:0|0:0,0:0:0:0:
500,172,35584,1,8,0:0:0:0:
368,264,35791,1,0,0:0:0:0:
368,264,35894,1,0,0:0:0:0:
368,264,35998,2,0,P|324:288|276:296,1,90,2|0,0:0|0:0,0:0:0:0:
168,208,36411,1,8,0:0:0:0:
208,40,36618,1,0,0:0:0:0:
208,40,36722,1,0,0:0:0:0:
208,40,36825,6,0,P|248:76|288:88,1,90,2|2,0:0|0:0,0:0:0:0:
344,88,37135,2,0,P|312:136|244:176,1,135,2|2,0:0|0:0,0:0:0:0:
104,192,37653,2,0,P|152:236|180:244,1,90,0|0,0:0|0:0,0:0:0:0:
212,252,37963,2,0,P|260:264|304:252,1,90
348,240,38273,1,0,0:0:0:0:
224,152,38480,6,0,P|192:236|216:324,1,180,2|8,0:0|0:0,0:0:0:0:
392,304,39101,1,0,0:0:0:0:
368,128,39308,2,0,P|336:96|292:76,1,90,2|0,0:0|0:0,0:0:0:0:
120,24,39722,1,8,0:0:0:0:
88,36,39825,1,0,0:0:0:0:
72,60,39929,1,0,0:0:0:0:
72,88,40032,1,0,0:0:0:0:
88,112,40136,6,0,P|96:156|72:200,1,90,4|0,0:0|0:0,0:0:0:0:
0,308,40549,1,8,0:0:0:0:
144,264,40756,2,0,P|192:256|244:260,1,90,2|0,0:0|0:0,0:0:0:0:
268,264,41067,1,2,0:0:0:0:
268,264,41170,1,0,0:0:0:0:
372,348,41377,1,8,0:0:0:0:
224,184,41584,1,0,0:0:0:0:
208,160,41687,1,0,0:0:0:0:
196,136,41791,6,0,P|170:93|164:53,1,90,2|2,0:0|0:0,0:0:0:0:
228,276,42205,2,0,P|216:324|192:356,1,90,8|0,0:0|0:0,0:0:0:0:
344,176,42618,2,0,P|392:188|424:212,1,90,2|0,0:0|0:0,0:0:0:0:
324,336,43032,1,8,0:0:0:0:
288,336,43135,1,0,0:0:0:0:
252,336,43238,1,0,0:0:0:0:
216,336,43342,1,0,0:0:0:0:
180,336,43446,6,0,P|124:332|56:296,2,135,0|2|0,0:0|0:0|0:0,0:0:0:0:
364,240,44273,2,0,P|420:192|444:132,2,135,2|0|2,0:0|0:0|0:0,0:0:0:0:
216,280,45101,5,2,0:0:0:0:
96,216,45308,1,0,0:0:0:0:
236,40,45515,1,8,0:0:0:0:
280,168,45722,1,0,0:0:0:0:
436,340,45929,1,2,0:0:0:0:
472,212,46135,2,0,P|452:184|432:176,1,45
312,304,46446,2,0,P|346:300|363:287,1,45,0|0,0:0|0:0,0:0:0:0:
312,120,46756,5,2,0:0:0:0:
280,102,46859,1,2,0:0:0:0:
245,95,46962,1,0,0:0:0:0:
210,103,47066,1,0,0:0:0:0:
182,125,47170,1,10,0:0:0:0:
168,158,47273,1,2,0:0:0:0:
170,193,47376,1,0,0:0:0:0:
186,225,47480,1,2,0:0:0:0:
215,246,47583,1,0,0:0:0:0:
316,288,47791,5,0,0:0:0:0:
404,172,47998,1,8,0:0:0:0:
280,102,48204,1,0,0:0:0:0:
76,156,48411,6,0,P|132:208|188:228,1,135,4|0,0:0|0:0,0:0:0:0:
236,200,48825,2,0,P|212:244|208:292,1,90,8|0,0:0|0:0,0:0:0:0:
452,264,49239,2,0,P|476:220|480:172,1,90
392,40,49653,1,8,0:0:0:0:
256,132,49860,1,0,0:0:0:0:
224,140,49963,1,0,0:0:0:0:
188,148,50067,6,0,P|124:156|56:136,1,135,2|0,0:0|0:0,0:0:0:0:
24,120,50480,1,8,0:0:0:0:
196,68,50687,1,2,0:0:0:0:
196,68,50894,2,0,P|216:128|188:200,1,135,0|2,0:0|0:0,0:0:0:0:
168,220,51308,1,8,0:0:0:0:
0,192,51515,1,0,0:0:0:0:
196,68,51722,6,0,P|280:72|332:152,1,180,2|8,0:0|0:0,0:0:0:0:
236,312,52343,2,0,P|197:237|240:152,1,180,2|2,0:0|0:0,0:0:0:0:
404,204,52963,2,0,P|368:232|320:236,1,90,8|0,0:0|0:0,0:0:0:0:
320,36,53377,6,0,L|396:84,1,90,2|0,0:0|0:0,0:0:0:0:
324,236,53791,2,0,L|400:284,1,90,10|2,0:0|0:0,0:0:0:0:
500,132,54204,1,2,0:0:0:0:
364,20,54411,1,0,0:0:0:0:
228,132,54618,1,8,0:0:0:0:
216,168,54722,1,0,0:0:0:0:
196,200,54825,1,0,0:0:0:0:
172,228,54929,1,0,0:0:0:0:
144,248,55032,6,0,P|104:276|60:280,1,90,2|0,0:0|0:0,0:0:0:0:
228,132,55446,2,0,P|272:152|297:188,1,90,8|0,0:0|0:0,0:0:0:0:
76,156,55860,2,0,P|71:107|90:67,1,90,2|0,0:0|0:0,0:0:0:0:
248,256,56274,2,0,P|253:300|236:341,1,90,8|0,0:0|0:0,0:0:0:0:
160,88,56687,6,0,P|244:56|332:76,1,180,2|8,0:0|0:0,0:0:0:0:
464,296,57308,2,0,P|380:328|292:308,1,180,2|2,0:0|0:0,0:0:0:0:
144,240,57929,2,0,P|120:196|116:152,1,90,8|0,0:0|0:0,0:0:0:0:
268,128,58343,6,0,L|244:232,1,90,2|2,0:0|0:0,0:0:0:0:
416,276,58756,2,0,L|392:380,1,90,8|0,0:0|0:0,0:0:0:0:
211,375,59170,2,0,L|232:288,1,90,2|2,0:0|0:0,0:0:0:0:
88,248,59584,2,0,L|108:160,1,90,8|0,0:0|0:0,0:0:0:0:
244,40,59998,5,4,0:0:0:0:
444,228,60308,1,6,0:0:0:0:
212,372,60618,1,4,0:0:0:0:
88,168,61032,5,0,0:0:0:0:
196,44,61239,1,8,0:0:0:0:
231,47,61342,1,0,0:0:0:0:
264,62,61445,1,0,0:0:0:0:
289,87,61549,1,0,0:0:0:0:
316,112,61653,6,0,P|352:144|404:144,1,90,6|0,0:0|0:0,0:0:0:0:
512,36,62067,1,8,0:0:0:0:
392,148,62273,1,0,0:0:0:0:
308,324,62480,1,0,0:0:0:0:
236,140,62687,1,0,0:0:0:0:
108,56,62894,1,8,0:0:0:0:
36,240,63101,1,0,0:0:0:0:
180,336,63308,6,0,P|224:348|264:328,1,90,2|2,0:0|0:0,0:0:0:0:
436,272,63722,2,0,L|433:180,1,90,8|2,0:0|0:0,0:0:0:0:
316,72,64136,2,0,L|316:24,2,45,0|0|0,0:0|0:0|0:0,0:0:0:0:
196,184,64550,2,0,P|152:168|124:136,1,90,8|0,0:0|0:0,0:0:0:0:
92,80,64860,1,0,0:0:0:0:
92,80,64963,6,0,L|88:176,1,90,2|0,0:0|0:0,0:0:0:0:
240,264,65377,2,0,L|236:360,1,90,8|0,0:0|0:0,0:0:0:0:
344,188,65791,2,0,P|308:156|264:140,2,90,2|2|8,0:0|0:0|0:0,0:0:0:0:
440,324,66411,1,2,0:0:0:0:
440,324,66515,1,0,0:0:0:0:
440,324,66618,6,0,P|468:272|464:196,2,135,0|0|0,0:0|0:0|0:0,0:0:0:0:
316,216,67446,1,0,0:0:0:0:
316,216,67653,2,0,P|280:176|276:136,1,90,0|8,0:0|0:0,0:0:0:0:
260,108,67963,1,0,0:0:0:0:
240,80,68067,1,0,0:0:0:0:
212,60,68170,1,0,0:0:0:0:
184,40,68274,6,0,P|100:12|8:44,1,180,6|8,0:0|0:0,0:0:0:0:
148,216,68894,2,0,P|232:244|316:216,1,180,2|2,0:0|0:0,0:0:0:0:
284,32,69515,2,0,P|252:72|244:116,1,90,8|0,0:0|0:0,0:0:0:0:
368,288,69929,6,0,P|400:248|408:204,1,90,2|0,0:0|0:0,0:0:0:0:
356,56,70342,1,8,0:0:0:0:
356,56,70446,1,0,0:0:0:0:
220,136,70653,1,0,0:0:0:0:
220,136,70756,1,2,0:0:0:0:
84,48,70963,2,0,P|68:92|68:136,1,90,0|8,0:0|0:0,0:0:0:0:
152,276,71377,1,0,0:0:0:0:
356,160,71584,5,2,0:0:0:0:
236,52,71791,1,0,0:0:0:0:
168,204,71998,2,0,P|120:232|84:232,1,90,8|0,0:0|0:0,0:0:0:0:
8,92,72411,1,0,0:0:0:0:
160,28,72618,2,0,P|208:55|226:86,1,90,0|8,0:0|0:0,0:0:0:0:
292,236,73032,1,0,0:0:0:0:
344,48,73239,5,0,0:0:0:0:
196,116,73446,1,0,0:0:0:0:
60,28,73653,2,0,P|32:76|36:120,1,90,8|2,0:0|0:0,0:0:0:0:
76,132,73963,1,0,0:0:0:0:
76,132,74067,2,0,L|-12:192,1,90,0|2,0:0|0:0,0:0:0:0:
148,288,74481,2,0,L|236:228,1,90,8|0,0:0|0:0,0:0:0:0:
296,36,74894,5,6,0:0:0:0:
408,152,75101,1,0,0:0:0:0:
288,264,75308,1,8,0:0:0:0:
148,180,75515,2,0,P|212:120|300:104,1,180,4|0,0:0|0:0,0:0:0:0:
288,264,76135,1,12,0:0:0:0:
136,320,76342,1,0,0:0:0:0:
24,200,76549,5,2,0:0:0:0:
160,108,76756,2,0,P|128:68|84:52,1,90,2|8,0:0|0:0,0:0:0:0:
24,200,77170,2,0,L|64:228,2,45,0|2|0,0:0|0:0|0:0,0:0:0:0:
176,264,77584,2,0,L|132:288,2,45,0|0|8,0:0|0:0|0:0,0:0:0:0:
208,248,77894,1,0,0:0:0:0:
240,228,77998,1,2,0:0:0:0:
264,200,78101,1,0,0:0:0:0:
288,172,78205,6,0,P|304:128|308:84,1,90,2|2,0:0|0:0,0:0:0:0:
144,188,78618,2,0,P|174:223|210:249,1,90,8|0,0:0|0:0,0:0:0:0:
152,64,79032,1,0,0:0:0:0:
116,68,79135,1,0,0:0:0:0:
82,80,79238,1,0,0:0:0:0:
52,100,79342,1,0,0:0:0:0:
20,120,79446,1,10,0:0:0:0:
64,272,79653,1,2,0:0:0:0:
64,272,80067,5,0,0:0:0:0:
64,272,80274,6,0,L|192:316,1,135.000005149842,12|0,0:0|0:0,0:0:0:0:
280,164,80687,5,2,0:0:0:0:
348,312,80894,1,0,0:0:0:0:
436,84,81101,1,2,0:0:0:0:
492,236,81308,1,8,0:0:0:0:
280,164,81515,5,4,0:0:0:0:
256,192,81722,12,0,83170,0:0:0:0:
336,264,83584,6,0,P|256:300|176:264,1,180,8|0,0:0|0:0,0:0:0:0:
256,104,84205,2,0,L|256:200,1,90,0|8,0:0|0:0,0:0:0:0:
88,264,84618,2,0,L|60:216,1,45,0|0,0:0|0:0,0:0:0:0:
68,180,84825,6,0,P|132:120|112:36,1,180,2|8,0:0|0:0,0:0:0:0:
88,264,85446,2,0,P|148:328|232:308,1,180,2|2,0:0|0:0,0:0:0:0:
276,152,86067,1,8,0:0:0:0:
400,256,86274,2,0,P|464:195|444:111,1,180,2|2,0:0|0:0,0:0:0:0:
296,44,86894,5,8,0:0:0:0:
172,164,87101,2,0,P|216:204|296:216,1,135,2|0,0:0|0:0,0:0:0:0:
352,180,87515,2,0,P|336:232|340:284,1,90,2|8,0:0|0:0,0:0:0:0:
484,244,87929,1,6,0:0:0:0:
256,192,88135,12,0,89170,0:0:0:0:
