osu file format v13

[General]
AudioFilename: UN-DELAYED.mp3
AudioLeadIn: 1500
PreviewTime: 47791
Countdown: 0
SampleSet: Soft
StackLeniency: 0.5
Mode: 0
LetterboxInBreaks: 0
WidescreenStoryboard: 0

[Editor]
Bookmarks: 13653,30204,45101
DistanceSpacing: 1.4
BeatDivisor: 4
GridSize: 4
TimelineZoom: 2.4

[Metadata]
Title:UN-DELAYED (TV Size)
TitleUnicode:UN-DELAYED (TV Size)
Artist:Hashimoto Miyuki
ArtistUnicode:橋本みゆき
Creator:meetmeetdee
Version:Hard
Source:ワルキューレロマンツェ
Tags:opening Ricotta Eroge Visual novel Walkure Romanze Shoujo Kishi Monogatari
BeatmapID:354747
BeatmapSetID:142464

[Difficulty]
HPDrainRate:6
CircleSize:4
OverallDifficulty:6
ApproachRate:7
SliderMultiplier:1.6
SliderTickRate:2

[Events]
//Background and Video events
0,0,"BG.jpg",0,0
Video,0,"video.avi"
//Break Periods
//Storyboard Layer 0 (Background)
//Storyboard Layer 1 (Fail)
//Storyboard Layer 2 (Pass)
//Storyboard Layer 3 (Foreground)
//Storyboard Sound Samples
//Background Colour Transformations
3,100,163,162,255

[TimingPoints]
-1243,413.793103448276,4,2,1,30,1,0
2274,-166.666666666667,4,2,1,50,0,0
4446,-166.666666666667,4,2,1,40,0,0
4653,-166.666666666667,4,2,1,50,0,0
5067,-166.666666666667,4,2,1,40,0,0
5273,-166.666666666667,4,2,1,50,0,0
5998,-166.666666666667,4,2,1,40,0,0
6101,-166.666666666667,4,2,1,60,0,0
6618,-66.6666666666667,4,2,1,90,0,0
7032,-100,4,2,1,80,0,0
16860,-66.6666666666667,4,2,1,80,0,0
17067,-66.6666666666667,4,2,1,40,0,0
17273,-100,4,2,1,70,0,0
18515,-100,4,2,1,40,0,0
18722,-100,4,2,1,70,0,0
30411,-100,4,2,1,40,0,0
31860,-100,4,2,1,50,0,0
33722,-100,4,2,1,70,0,0
34446,-100,4,2,1,40,0,0
34653,-100,4,2,1,70,0,0
34756,-100,4,2,1,40,0,0
34963,-100,4,2,1,70,0,0
39825,-100,4,2,1,40,0,0
40032,-100,4,2,1,70,0,0
40963,-100,4,2,1,40,0,0
41170,-100,4,2,1,70,0,0
48412,-100,4,2,1,80,0,1
57515,-100,4,2,1,40,0,1
57722,-100,4,2,1,80,0,1
80273,-66.6666666666667,4,2,1,80,0,1
80584,-100,4,2,1,80,0,1
81204,-100,4,2,1,40,0,1
81515,-100,4,2,1,70,0,0
87308,-100,4,2,1,40,0,0
87515,-100,4,2,1,70,0,0
88860,-100,4,2,1,5,0,0

[Colours]
Combo1 : 128,255,128
Combo2 : 0,255,255
Combo3 : 255,0,128
Combo4 : 255,128,64

[HitObjects]
256,192,204,12,0,2067,0:0:0:0:
232,328,2481,6,0,P|212:308|200:288,1,47.9999985351563,2|0,0:0|0:0,0:0:0:0:
184,240,2791,2,0,P|144:252|112:252,1,71.9999978027344,2|2,0:0|0:0,0:0:0:0:
76,168,3308,1,0,0:0:0:0:
40,72,3515,1,2,0:0:0:0:
76,168,3722,2,0,P|132:180|168:168,1,95.9999970703126,2|2,0:0|0:0,0:0:0:0:
308,92,4342,5,2,0:0:0:0:
308,92,4549,2,0,P|332:144|316:188,1,95.9999970703126,2|0,0:0|0:0,0:0:0:0:
168,168,5170,2,0,P|160:208|168:252,1,71.9999978027344,2|0,0:0|0:0,0:0:0:0:
192,260,5584,6,0,P|184:284|160:300,1,47.9999985351563
44,304,5998,2,0,P|24:260|24:212,1,95.9999970703126,2|2,0:0|0:0,0:0:0:0:
104,72,6618,6,0,P|136:120|144:184,1,120.000004577637,8|0,0:0|0:0,0:0:0:0:
240,112,7032,6,0,P|312:64|384:72,1,160,4|8,0:0|0:0,0:0:0:0:
488,196,7653,2,0,P|480:236|452:268,1,80
320,200,8067,6,0,P|292:172|284:136,2,40,0|0|8,0:0|0:0|0:0,0:0:0:0:
340,248,8377,2,0,P|288:256|252:284,1,80
252,320,8687,2,0,P|212:336|168:328,1,80
116,200,9101,1,8,0:0:0:0:
232,120,9308,2,0,P|244:196|204:268,1,160
272,356,9929,2,0,P|296:320|324:292,1,80,8|0,0:0|0:0,0:0:0:0:
444,172,10342,5,2,0:0:0:0:
396,72,10549,1,0,0:0:0:0:
316,148,10756,2,0,P|264:152|232:144,1,80,8|0,0:0|0:0,0:0:0:0:
284,44,11170,5,2,0:0:0:0:
396,72,11377,1,0,0:0:0:0:
316,148,11584,2,0,P|344:176|384:192,1,80,8|0,0:0|0:0,0:0:0:0:
448,280,11998,5,2,0:0:0:0:
356,344,12204,1,2,0:0:0:0:
276,268,12412,2,0,P|232:244|200:240,1,80,8|0,0:0|0:0,0:0:0:0:
128,156,12825,6,0,P|92:88|100:40,2,120,2|2|0,0:0|0:0|0:0,0:0:0:0:
280,128,13653,5,2,0:0:0:0:
380,188,13860,1,2,0:0:0:0:
276,248,14067,2,0,P|281:290|308:319,1,80,8|0,0:0|0:0,0:0:0:0:
148,304,14480,5,2,0:0:0:0:
88,200,14687,1,2,0:0:0:0:
192,140,14894,2,0,P|224:100|224:56,1,80,8|0,0:0|0:0,0:0:0:0:
84,144,15308,5,2,0:0:0:0:
108,260,15515,1,2,0:0:0:0:
228,240,15722,2,0,P|256:260|300:260,1,80,8|0,0:0|0:0,0:0:0:0:
336,132,16136,6,0,P|344:93|336:54,2,80,2|2|8,0:0|0:0|0:0,0:0:0:0:
216,72,16756,1,2,0:0:0:0:
112,136,16963,6,0,L|208:216,1,120.000004577637,6|0,0:0|0:0,0:0:0:0:
392,332,17584,5,0,0:0:0:0:
392,332,17791,2,0,P|448:260|460:192,1,160,0|8,0:0|0:0,0:0:0:0:
356,108,18412,2,0,P|336:140|340:184,1,80
292,284,18825,2,0,P|256:300|212:292,1,80,0|8,0:0|0:0,0:0:0:0:
132,220,19239,1,0,0:0:0:0:
248,168,19446,1,0,0:0:0:0:
216,295,19653,2,0,L|236:343,2,40,0|0|8,0:0|0:0|0:0,0:0:0:0:
132,220,20067,5,0,0:0:0:0:
132,220,20170,1,0,0:0:0:0:
132,220,20274,2,0,P|100:152|124:68,1,160,0|8,0:0|0:0,0:0:0:0:
220,144,20894,2,0,P|300:164|376:144,1,160
300,48,21515,1,8,0:0:0:0:
300,48,21722,2,0,L|300:216,1,160,2|2,0:0|0:0,0:0:0:0:
372,296,22342,5,8,0:0:0:0:
372,296,22549,2,0,P|416:280|452:248,2,80,2|0|2,0:0|0:0|0:0,0:0:0:0:
252,260,23170,1,8,0:0:0:0:
136,300,23377,5,0,0:0:0:0:
136,300,23480,1,0,0:0:0:0:
136,300,23584,2,0,P|109:270|94:233,1,80
60,115,23998,1,8,0:0:0:0:
60,115,24205,2,0,P|84:79|124:63,1,80
220,152,24618,2,0,P|272:180|312:188,2,80,0|8|0,0:0|0:0|0:0,0:0:0:0:
116,64,25239,5,2,0:0:0:0:
92,196,25446,1,0,0:0:0:0:
220,152,25653,1,8,0:0:0:0:
196,284,25860,1,0,0:0:0:0:
328,244,26067,2,0,P|400:224|432:184,1,120,2|2,0:0|0:0,0:0:0:0:
444,160,26480,1,8,0:0:0:0:
284,39,26687,6,0,P|296:80|344:112,1,80
444,160,27101,1,2,0:0:0:0:
444,160,27205,2,0,P|408:188|368:192,1,80
336,172,27515,1,2,0:0:0:0:
228,200,27722,1,0,3:0:0:0:
120,232,27929,2,0,P|80:204|64:176,1,80,2|8,0:0|0:0,0:0:0:0:
96,68,28342,1,0,0:0:0:0:
232,72,28550,6,0,P|212:124|176:140,1,80,2|0,0:0|0:0,0:0:0:0:
280,312,28963,2,0,P|300:260|336:244,1,80,8|0,0:0|0:0,0:0:0:0:
263,115,29377,2,0,P|243:82|208:62,1,80,2|2,0:0|0:0,0:0:0:0:
152,240,29791,2,0,P|173:273|207:293,1,80,8|2,0:0|0:0,0:0:0:0:
336,204,30204,5,4,0:0:0:0:
312,96,30412,2,0,L|336:64,2,40,0|0|8,0:0|0:0|0:0,0:0:0:0:
260,196,30825,1,0,0:0:0:0:
260,196,30929,2,0,P|284:256|332:284,1,120
436,240,31446,1,8,0:0:0:0:
400,132,31653,1,0,0:0:0:0:
332,284,31860,5,2,0:0:0:0:
260,196,32067,1,0,0:0:0:0:
260,196,32170,2,0,P|248:132|272:80,1,120,2|0,0:0|0:0,0:0:0:0:
380,160,32687,2,0,P|384:200|368:244,1,80
256,296,33101,2,0,P|216:308|176:292,1,80,8|0,0:0|0:0,0:0:0:0:
132,132,33515,5,0,0:0:0:0:
132,132,33722,2,0,P|212:132|268:192,1,160,4|0,0:0|0:0,0:0:0:0:
356,304,34342,2,0,P|408:344|464:348,2,120,10|2|2,0:0|0:0|0:0,0:0:0:0:
336,144,35170,6,0,P|320:220|256:272,1,160,2|8,0:0|0:0,0:0:0:0:
124,188,35791,1,0,0:0:0:0:
124,188,35894,1,0,0:0:0:0:
124,188,35998,2,0,P|176:252|184:332,1,160,2|8,0:0|0:0,0:0:0:0:
344,304,36618,6,0,L|360:256,1,40
404,236,36825,2,0,P|376:200|372:164,1,80,2|0,0:0|0:0,0:0:0:0:
384,112,37135,2,0,P|336:144|276:144,1,120,2|2,0:0|0:0,0:0:0:0:
144,60,37653,6,0,P|159:105|177:130,1,80
216,172,37963,2,0,P|172:180|136:188,1,80,0|0,0:0|0:0,0:0:0:0:
84,200,38273,1,0,0:0:0:0:
24,296,38480,2,0,P|104:320|176:360,1,160,2|8,0:0|0:0,0:0:0:0:
288,376,39101,1,0,0:0:0:0:
236,272,39308,2,0,P|188:200|180:128,1,160,2|8,0:0|0:0,0:0:0:0:
316,56,39929,5,0,0:0:0:0:
316,56,40136,2,0,P|252:112|180:128,1,160,4|8,0:0|0:0,0:0:0:0:
48,88,40756,2,0,P|80:136|88:200,1,120,2|2,0:0|0:0,0:0:0:0:
52,240,41170,2,0,P|68:272|104:300,1,80,0|8,0:0|0:0,0:0:0:0:
212,316,41584,1,0,0:0:0:0:
272,220,41791,5,2,0:0:0:0:
340,308,41998,2,0,L|384:340,2,40,2|0|8,0:0|0:0|0:0,0:0:0:0:
388,208,42412,2,0,L|432:176,2,40,0|0|2,0:0|0:0|0:0,0:0:0:0:
272,220,42825,2,0,L|216:224,2,40,0|0|8,0:0|0:0|0:0,0:0:0:0:
216,120,43239,1,0,0:0:0:0:
108,156,43446,6,0,P|76:216|88:264,2,120,0|2|0,0:0|0:0|0:0,0:0:0:0:
172,336,44273,2,0,P|204:276|192:228,2,120,2|2|0,0:0|0:0|0:0,0:0:0:0:
316,336,45101,6,0,L|384:280,1,80,2|0,0:0|0:0,0:0:0:0:
332,132,45515,2,0,L|264:188,1,80,8|0,0:0|0:0,0:0:0:0:
376,248,45929,2,0,L|444:192,1,80,2|0,0:0|0:0,0:0:0:0:
392,44,46343,2,0,L|324:100,1,80,8|0,0:0|0:0,0:0:0:0:
256,192,46756,12,0,47998,0:0:0:0:
160,328,48411,6,0,P|208:280|216:228,1,120,4|0,0:0|0:0,0:0:0:0:
256,224,48825,2,0,P|276:264|316:288,1,80,8|0,0:0|0:0,0:0:0:0:
372,156,49239,2,0,P|352:116|312:92,1,80
140,156,49653,2,0,P|160:116|200:92,1,80,8|0,0:0|0:0,0:0:0:0:
256,224,50067,6,0,L|256:348,2,120,2|2|2,0:0|0:0|0:0,0:0:0:0:
200,116,50894,2,0,P|256:96|312:116,2,120,0|2|0,0:0|0:0|0:0,0:0:0:0:
72,160,51722,5,2,0:0:0:0:
140,328,52032,1,0,0:0:0:0:
276,196,52342,2,0,P|308:248|300:312,1,120,2|0,0:0|0:0,0:0:0:0:
280,344,52756,2,0,P|324:332|364:336,1,80,2|8,0:0|0:0,0:0:0:0:
484,304,53170,1,0,0:0:0:0:
424,196,53377,6,0,P|376:156|368:96,1,120,2|0,0:0|0:0,0:0:0:0:
372,52,53791,2,0,P|332:64|292:56,1,80,8|2,0:0|0:0,0:0:0:0:
172,32,54205,2,0,P|180:76|172:112,1,80,2|0,0:0|0:0,0:0:0:0:
60,88,54618,1,8,0:0:0:0:
84,200,54825,1,0,0:0:0:0:
100,212,54929,1,0,0:0:0:0:
116,224,55032,6,0,P|180:256|268:256,1,160,2|8,0:0|0:0,0:0:0:0:
384,196,55653,1,0,0:0:0:0:
336,76,55860,2,0,P|256:40|184:40,1,160,2|8,0:0|0:0,0:0:0:0:
68,100,56480,1,0,0:0:0:0:
180,168,56687,6,0,P|204:240|156:312,1,160,2|8,0:0|0:0,0:0:0:0:
320,316,57308,2,0,P|368:280|428:272,1,120,2|0,0:0|0:0,0:0:0:0:
496,276,57722,2,0,P|464:244|444:200,1,80,2|8,0:0|0:0,0:0:0:0:
412,100,58135,1,0,0:0:0:0:
304,180,58343,6,0,P|256:180|212:160,1,80,2|2,0:0|0:0,0:0:0:0:
164,40,58756,2,0,P|212:40|256:60,1,80,8|0,0:0|0:0,0:0:0:0:
128,132,59170,2,0,P|88:133|50:121,1,80,2|2,0:0|0:0,0:0:0:0:
244,52,59584,2,0,P|268:93|272:141,1,80,8|0,0:0|0:0,0:0:0:0:
260,236,59998,6,0,P|308:276|364:288,2,120,4|6|4,0:0|0:0|0:0,0:0:0:0:
64,108,61032,1,0,0:0:0:0:
168,160,61239,2,0,P|208:140|240:104,1,80,8|0,0:0|0:0,0:0:0:0:
360,60,61653,6,0,P|312:124|336:200,1,160,6|8,0:0|0:0,0:0:0:0:
388,296,62273,1,0,0:0:0:0:
276,296,62480,1,0,0:0:0:0:
388,296,62687,1,0,0:0:0:0:
464,212,62894,2,0,P|476:172|468:128,1,80,8|0,0:0|0:0,0:0:0:0:
304,128,63308,6,0,P|340:180|368:196,1,80,2|2,0:0|0:0,0:0:0:0:
232,248,63722,2,0,P|196:196|168:180,1,80,8|2,0:0|0:0,0:0:0:0:
168,48,64135,1,0,0:0:0:0:
168,48,64343,2,0,P|152:92|112:124,1,80,0|8,0:0|0:0,0:0:0:0:
44,192,64756,1,0,0:0:0:0:
160,220,64963,6,0,P|224:248|256:336,1,160,2|8,0:0|0:0,0:0:0:0:
380,300,65584,1,0,0:0:0:0:
320,196,65791,2,0,P|290:158|282:114,1,80,2|2,0:0|0:0,0:0:0:0:
428,64,66205,2,0,P|458:102|466:146,1,80,8|2,0:0|0:0,0:0:0:0:
476,168,66515,1,0,0:0:0:0:
476,200,66618,6,0,P|448:252|392:272,2,120,0|0|2,0:0|0:0|0:0,0:0:0:0:
264,200,67653,1,0,0:0:0:0:
136,228,67860,2,0,P|144:209|157:194,3,40,8|0|0|0,0:0|0:0|0:0|0:0,0:0:0:0:
184,172,68274,6,0,P|216:96|188:28,1,160,6|8,0:0|0:0,0:0:0:0:
88,144,68894,2,0,P|96:232|152:276,1,160,2|2,0:0|0:0,0:0:0:0:
268,280,69515,1,8,0:0:0:0:
360,356,69722,1,0,0:0:0:0:
372,236,69929,6,0,P|348:204|308:184,1,80,2|0,0:0|0:0,0:0:0:0:
196,176,70343,2,0,P|228:144|240:104,1,80,8|0,0:0|0:0,0:0:0:0:
256,80,70653,1,0,0:0:0:0:
284,64,70756,2,0,P|324:120|416:140,1,160,2|8,0:0|0:0,0:0:0:0:
476,248,71377,2,0,P|452:292|416:308,1,80,0|2,0:0|0:0,0:0:0:0:
300,264,71791,5,0,0:0:0:0:
300,264,71998,2,0,P|272:228|256:184,1,80,8|0,0:0|0:0,0:0:0:0:
360,84,72411,1,0,0:0:0:0:
456,140,72618,1,0,0:0:0:0:
360,84,72825,2,0,P|348:124|352:172,1,80,8|0,0:0|0:0,0:0:0:0:
396,280,73239,6,0,P|428:248|436:212,2,80,0|2|8,0:0|0:0|0:0,0:0:0:0:
272,336,73860,1,2,0:0:0:0:
272,336,73963,1,0,0:0:0:0:
272,336,74067,2,0,P|224:308|192:248,1,120
188,192,74480,2,0,P|116:260|52:276,1,160,8|6,0:0|0:0,0:0:0:0:
32,112,75101,5,0,0:0:0:0:
112,32,75308,2,0,L|160:104,1,80,8|4,0:0|0:0,0:0:0:0:
320,264,75929,1,0,0:0:0:0:
320,264,76136,2,0,P|360:244|380:216,1,80,12|0,0:0|0:0,0:0:0:0:
304,88,76549,5,2,0:0:0:0:
200,132,76756,2,0,P|220:176|248:188,1,80,2|8,0:0|0:0,0:0:0:0:
408,132,77170,2,0,L|344:196,1,80
200,132,77584,1,0,0:0:0:0:
256,272,77791,1,8,0:0:0:0:
108,283,77998,1,0,0:0:0:0:
140,172,78205,6,0,P|181:191|209:223,2,80,2|2|8,0:0|0:0|0:0,0:0:0:0:
160,60,78825,2,0,P|199:62|238:51,1,80,0|2,0:0|0:0,0:0:0:0:
352,32,79239,1,2,0:0:0:0:
352,32,79342,1,0,0:0:0:0:
352,32,79446,1,10,0:0:0:0:
456,76,79653,1,2,0:0:0:0:
412,264,80067,1,0,0:0:0:0:
412,264,80274,6,0,P|344:252|292:264,1,120.000004577637,12|0,0:0|0:0,0:0:0:0:
220,348,80687,6,0,P|188:316|168:280,1,80,2|0,0:0|0:0,0:0:0:0:
28,272,81101,2,0,P|60:304|80:340,1,80,8|2,0:0|0:0,0:0:0:0:
116,200,81515,5,4,0:0:0:0:
256,192,81722,12,0,83170,0:0:0:0:
336,304,83584,6,0,P|396:240|408:168,1,160,2|8,0:0|0:0,0:0:0:0:
256,204,84204,1,0,0:0:0:0:
175,303,84411,2,0,P|120:248|103:171,1,160,2|2,0:0|0:0,0:0:0:0:
256,124,85032,5,2,0:0:0:0:
256,124,85239,2,0,L|256:208,1,80,8|2,0:0|0:0,0:0:0:0:
460,276,85860,1,2,0:0:0:0:
468,152,86067,1,8,0:0:0:0:
392,44,86274,2,0,P|340:112|348:192,1,160,2|2,0:0|0:0,0:0:0:0:
460,276,86894,5,8,0:0:0:0:
344,184,87101,2,0,P|265:183|205:233,1,160,2|2,0:0|0:0,0:0:0:0:
304,296,87722,1,8,0:0:0:0:
460,276,87929,1,4,0:0:0:0:
256,192,88135,12,0,89170,0:0:0:0:
