osu file format v9

[General]
AudioFilename: Trick and TreatItazura na Kiss.mp3
AudioLeadIn: 1000
PreviewTime: 42333
Countdown: 1
SampleSet: Normal
StackLeniency: 0.7
Mode: 0
LetterboxInBreaks: 1

[Editor]
DistanceSpacing: 0.8
BeatDivisor: 2
GridSize: 8

[Metadata]
Title:Trick and Treat~Itazura na Kiss~
Artist:Hashimoto Miyuki
Creator:SnowWhite
Version:Normal
Source:kyan face!
Tags:Kochiya Sanae

[Difficulty]
HPDrainRate:2
CircleSize:3
OverallDifficulty:4
ApproachRate:4
SliderMultiplier:1.4
SliderTickRate:1

[Events]
//Background and Video events
0,0,"015.png"
//Break Periods
//Storyboard Layer 0 (Background)
//Storyboard Layer 1 (Fail)
//Storyboard Layer 2 (Pass)
//Storyboard Layer 3 (Foreground)
//Storyboard Sound Samples
//Background Colour Transformations
3,100,163,162,255

[TimingPoints]
500,333.333333333333,4,1,0,70,1,0
45833,-100,4,1,0,70,0,1
67166,-100,4,1,0,70,0,0
85666,-100,4,1,0,0,0,0

[Colours]
Combo1 : 245,235,105
Combo2 : 0,255,255
Combo3 : 255,98,98
Combo4 : 43,43,43

[HitObjects]
48,128,500,1,0
144,64,833,1,0
232,136,1166,2,0,B|232:296|64:352,1,280
80,232,2166,2,0,B|376:304,1,280
440,232,3166,5,2
368,144,3499,2,0,B|288:144,1,70
312,32,3999,2,0,B|224:24|160:80,1,140
96,144,4666,6,0,B|128:216|88:288,1,140
56,320,5166,1,2
160,352,5499,2,0,B|320:344,1,140
392,280,6166,5,8
496,144,6666,1,0
416,64,6999,2,0,B|256:104,1,140,2|0
232,72,7499,2,0,B|160:64,1,70
64,112,7999,1,4
120,272,8499,6,0,B|280:256|408:352,1,280,8|0
496,208,9666,1,0
424,56,10166,2,0,B|352:72,1,70
248,56,10666,2,0,B|216:136|280:200,1,140,2|0
216,184,11166,6,0,B|56:240,1,140,8|0
184,280,11833,2,0,B|344:336,1,140,8|0
408,272,12499,1,0
408,272,13166,2,0,B|416:192,1,70,2|0
312,72,13833,6,0,B|136:40|112:216,1,280
48,296,14833,2,0,B|88:352,1,70
144,328,15166,2,0,B|288:256|408:376,1,280
464,272,16166,1,2
416,168,16499,1,0
352,80,16833,2,0,B|384:16,2,70
248,120,17499,1,2
152,176,17833,6,0,B|16:208,2,140
248,232,18833,2,0,B|320:264,1,70,2|0
272,304,19166,6,0,B|192:320|128:288,1,140
56,216,19833,2,0,B|200:192,1,140
200,80,20499,2,0,B|280:80|336:152,1,140
424,88,21166,1,2
496,176,21499,1,0
408,248,21833,6,0,B|280:232|208:344,1,210,8|0
176,296,22499,2,0,B|88:288,2,70
232,200,23166,1,2
232,200,23499,1,0
184,96,23833,1,2
184,96,24166,1,0
288,48,24499,6,0,B|416:176|280:296,1,280
176,256,25499,1,8
96,176,25833,2,0,B|48:112,2,70
192,120,26499,2,0,B|248:64,2,70
128,24,27166,2,0,B|224:144|392:96,1,280,2|0
456,184,28166,1,8
376,264,28499,6,0,B|256:368,1,140
184,288,29166,1,2
80,248,29499,1,0
16,160,29833,6,0,B|96:112|232:184|288:72,1,280
336,184,30833,1,0
336,184,31166,1,0
152,312,31833,6,0,B|304:360,1,140,2|0
384,296,32499,2,0,B|464:136|288:48,1,280
208,112,33499,1,8
96,80,33833,6,0,B|24:240|160:344,1,280
256,296,34833,2,0,B|352:296,1,70,2|0
368,264,35166,5,8
504,88,35833,1,0
296,0,36499,2,0,B|144:24|104:200,1,280
40,272,37499,2,0,B|48:352,1,70,2|0
216,360,38166,5,8
216,360,38499,2,0,B|360:320|376:144,1,280
288,80,39499,1,0
184,120,39833,2,0,B|32:128,1,140
120,40,40499,6,0,B|280:144|184:304,1,280,2|0
104,344,41499,1,0
104,344,41833,1,0
120,176,42333,6,0,B|208:112|344:128,1,210
408,64,43166,2,0,B|504:208|352:328,1,280,2|0
256,304,44166,1,8
208,336,44333,2,0,B|8:256,1,210
16,144,45166,5,0
16,144,45499,1,0
112,80,45833,6,0,B|248:24|416:80,1,280,2|0
352,176,46833,2,0,B|384:248,1,70
424,280,47166,2,0,B|280:360,1,140,2|0
200,296,47833,1,0
200,296,48166,1,0
96,328,48499,6,0,B|24:232|72:96,1,210,2|0
152,56,49333,1,0
152,56,49666,1,0
248,112,49999,6,0,B|408:152,1,140
432,120,50499,1,2
432,120,50833,2,0,B|472:192,1,70,2|0
416,280,51333,6,0,B|256:336,1,140
232,304,51833,1,2
232,304,52166,2,0,B|176:352,1,70,2|0
88,280,52666,2,0,B|16:280,1,70
40,168,53166,6,0,B|64:56|192:32,1,210
280,96,53999,2,0,B|368:80,2,70
256,208,54666,1,8
336,280,54999,6,0,B|264:376|144:336,1,210,2|0
80,256,55833,1,8
56,144,56166,1,0
120,48,56499,6,0,B|280:40,1,140,2|0
248,136,57166,2,0,B|408:144,1,140
440,240,57833,2,0,B|376:344|240:312,1,210,0|8
208,296,58499,1,2
104,256,58833,1,0
40,168,59166,2,0,B|56:88|120:48,1,140,2|0
216,88,59833,5,8
400,216,60499,1,0
192,304,61166,1,0
192,304,61833,6,0,B|352:336,1,140,2|0
432,280,62499,1,0
280,112,63166,6,0,B|128:64,1,140,2|0
48,128,63833,1,0
112,344,64499,6,0,B|256:296|384:376,1,280,0|8
432,360,65333,2,0,B|496:304,1,70,2|0
472,256,65666,1,0
400,104,66166,6,0,B|272:32|120:96,1,280
72,192,67166,1,2
248,328,67833,1,0
432,192,68499,1,0
376,96,68833,2,0,B|240:56,1,140,2|0
136,96,69499,5,0
224,168,69833,2,0,B|240:288|112:360,1,210
40,208,70833,1,2
40,208,70999,2,0,B|40:64|168:24,1,210
248,72,71833,1,0
360,48,72166,1,0
456,104,72499,6,0,B|504:256|352:368,1,280,2|0
272,304,73499,1,0
160,328,73833,2,0,B|16:288,1,140
16,176,74499,1,0
16,176,74833,2,0,B|112:192,1,70
184,48,75499,5,2
368,176,76166,1,2
232,360,76833,1,0
232,360,77166,2,0,B|72:296,1,140
56,208,77833,6,0,B|64:56|264:32,1,280
336,96,78833,1,2
440,144,79166,6,0,B|416:216|432:304,1,140
320,256,79833,2,0,B|248:264|184:312,1,140
88,264,80499,1,8
56,96,80999,1,8
216,144,81499,1,8
312,8,81999,1,2
472,240,82833,2,0,B|384:288,1,70,0|4
256,192,83166,12,0,86000
