osu file format v9

[General]
AudioFilename: The_Day_Takeoff.mp3
AudioLeadIn: 2000
PreviewTime: 87093
Countdown: 0
SampleSet: Soft
StackLeniency: 0.7
Mode: 0
LetterboxInBreaks: 1

[Editor]
DistanceSpacing: 1.1
BeatDivisor: 4
GridSize: 8

[Metadata]
Title:The Day Takeoff
Artist:Hashimoto Miyuki
Creator:Suzully
Version:Nihon Teikoku
Source:Daiteikoku
Tags:Alicesoft KSHR Sorda S_o_r_d_a

[Difficulty]
HPDrainRate:7
CircleSize:4
OverallDifficulty:7
ApproachRate:8
SliderMultiplier:1.7
SliderTickRate:1

[Events]
//Background and Video events
0,0,"daiteikoku.jpg"
Video,0,"daiteikoku.flv"
//Break Periods
2,36835,38885
//Storyboard Layer 0 (Background)
//Storyboard Layer 1 (Fail)
//Storyboard Layer 2 (Pass)
//Storyboard Layer 3 (Foreground)
//Storyboard Sound Samples
//Background Colour Transformations
3,100,163,162,255

[TimingPoints]
635,375,4,2,1,90,1,0
8603,-100,4,1,0,49,0,0
8791,-100,4,1,1,64,0,0
8978,-100,4,1,1,76,0,0
9166,-100,4,1,1,87,0,0
9353,-100,4,1,1,97,0,0
11978,-100,4,2,1,70,0,0
12541,-100,4,2,1,80,0,0
36541,-100,4,2,1,60,0,0
36728,-100,4,2,1,80,0,0
60353,-100,4,1,1,84,0,0
61666,-100,4,2,1,80,0,0
80416,-100,4,2,1,70,0,0
80791,-100,4,2,1,75,0,0
81166,-100,4,2,1,80,0,0
87635,-100,4,2,1,80,0,1
113416,-100,4,1,1,55,0,1
113791,-100,4,1,1,72,0,1
114166,-100,4,1,1,83,0,1
114541,-100,4,1,1,90,0,1
114916,-100,4,1,1,5,0,1
115197,-100,4,2,1,60,0,1
117635,-100,4,2,1,60,0,0

[Colours]
Combo1 : 180,180,0
Combo2 : 0,0,160
Combo3 : 0,128,0
Combo4 : 128,0,128
Combo5 : 200,0,0

[HitObjects]
432,80,635,2,0,B|392:168|256:136,1,170,4|0
328,72,1197,2,0,B|288:184|384:248,1,170,2|0
416,280,1760,2,0,B|352:336,1,85,0|0
288,384,2135,2,0,B|248:296|136:288,1,170,2|0
176,368,2697,2,0,B|256:304|208:192,1,170,2|0
184,144,3260,1,0
184,144,3447,1,0
140,80,3635,6,0,B|212:16|332:56,1,170,2|0
360,328,4385,1,0
464,264,4572,1,0
360,200,4760,1,0
464,136,4947,1,0
360,72,5135,6,0,B|312:56|248:56,2,85,2|0|0
256,344,5885,1,4
64,64,6260,5,0
80,144,6447,1,0
128,216,6635,2,0,B|176:248|248:240,1,85,2|0
344,152,7010,1,0
288,216,7197,1,0
80,144,7385,2,0,B|136:144|184:96,1,85,2|0
232,80,7760,1,0
320,88,7947,1,0
400,112,8135,6,0,B|424:64|464:48,2,85,2|0|0
368,192,8697,1,0
224,288,8885,1,0
392,288,9072,1,0
256,192,9260,1,0
312,352,9447,1,0
256,192,9635,12,4,11885
280,56,12072,5,4
112,56,12260,1,4
240,168,12447,1,4
336,168,12635,6,0,B|352:144|352:144|440:144,2,85,12|0|0
288,248,13197,1,0
240,168,13385,2,0,B|224:144|224:144|80:144,1,170,8|0
48,232,13947,2,0,B|80:328|208:328,1,170,8|0
272,328,14510,2,0,B|272:280|344:248,1,85,8|0
408,232,14885,5,4
408,328,15072,1,0
408,136,15260,1,4
408,232,15447,1,0
408,40,15635,6,0,B|344:40|344:40|320:64,1,85,8|0
264,120,16010,1,0
168,120,16197,1,0
360,120,16385,2,0,B|360:168|408:192,1,85,8|0
264,120,16760,1,0
168,120,16947,2,0,B|152:24|48:16,1,170,8|0
264,120,17510,2,0,B|264:224,1,85,8|0
184,256,17885,6,0,B|64:256,1,85,4|0
328,336,18260,2,0,B|448:336,1,85,4|0
472,264,18635,6,0,B|376:240|368:128,1,170,8|0
368,48,19197,1,0
272,48,19385,1,8
272,48,19478,1,8
272,48,19572,1,8
80,48,19760,1,0
176,48,19947,6,0,B|192:152|104:208,1,170,8|0
48,136,20510,1,0
200,256,20697,1,0
280,312,20885,2,0,B|312:224|424:224,1,170,8|0
416,312,21447,1,0
416,128,21635,6,0,B|248:128,1,170,8|0
152,128,22197,1,0
96,208,22385,1,8
72,248,22478,1,8
48,288,22572,1,8
128,352,22760,5,8
144,344,22853,1,0
160,336,22947,1,0
168,320,23041,1,0
176,304,23135,1,0
184,288,23228,1,0
200,280,23322,1,0
216,272,23416,1,0
232,264,23510,1,0
240,248,23603,1,0
248,232,23697,1,0
264,224,23791,1,0
280,216,23885,1,8
408,176,24072,5,4
288,56,24260,1,4
120,96,24447,1,4
200,136,24635,6,0,B|216:192|176:248,1,85,8|0
136,296,25010,1,0
56,264,25197,1,0
200,352,25385,2,0,B|296:352,1,85,8|0
456,352,25760,1,0
368,352,25947,6,0,B|368:224|368:224|336:184,1,170,8|0
176,160,26510,2,0,B|176:208|176:208|208:240,1,85,8|0
416,288,26885,2,0,B|416:200,1,85,4|0
128,136,27260,2,0,B|128:224,1,85,12|0
128,312,27635,5,8
224,312,27822,1,0
264,224,28010,1,0
360,224,28197,1,0
456,224,28385,2,0,B|456:280|456:280|488:304,2,85,8|8|0
360,224,28947,6,0,B|360:96|360:96|320:56,1,170,8|0
168,144,29510,2,0,B|168:256,1,85,8|0
168,56,29885,1,4
352,344,30260,1,4
16,320,30635,6,0,B|192:320,1,170,8|0
280,320,31197,1,0
376,320,31385,2,0,B|480:320,2,85,8|8|0
280,320,31947,2,0,B|288:216|192:184,1,170,8|0
192,280,32510,1,0
192,280,32885,2,0,B|336:184,1,170,8|0
408,136,33447,1,0
408,136,33635,2,0,B|440:192|496:192,2,85,8|8|0
256,192,34197,12,4,36635
256,192,39635,53,2
424,192,40010,2,0,B|240:192,1,170,0|0
160,192,40572,1,0
144,288,40760,2,0,B|224:336,1,85,0|0
304,368,41135,2,0,B|328:280|440:280,1,170,0|0
416,376,41697,2,0,B|336:320|360:224,1,170,0|0
384,136,42260,2,0,B|296:112,1,85
208,88,42635,5,2
80,272,43197,1,2
80,272,43572,2,0,B|88:328|144:344,2,85,2|0|0
416,304,44322,1,0
416,304,44416,1,0
416,304,44510,1,0
416,304,44603,1,0
416,304,44697,22,0,B|416:200,1,85,0|4
256,40,45260,1,4
96,232,45635,2,0,B|112:328|216:344,1,170,2|0
304,344,46197,1,0
400,344,46385,1,2
480,280,46572,2,0,B|432:200,1,85,0|0
392,128,46947,6,0,B|328:192|216:160,1,170,2|0
144,136,47510,1,0
120,288,47697,2,0,B|184:224|296:256,1,170,2|0
368,280,48260,1,0
368,280,48447,6,0,B|456:336,2,85,2|0|0
56,64,49197,1,2
96,152,49385,1,0
192,152,49572,1,0
352,240,49760,2,0,B|320:208|320:208|272:208,1,85,2|0
280,120,50135,6,0,B|464:120,1,170,2|0
232,264,50697,2,0,B|48:264,1,170,2|0
256,192,51260,1,2
256,192,51635,1,4
128,56,52010,6,0,B|56:120|104:216,1,170,2|0
152,288,52572,1,0
224,352,52760,2,0,B|304:280,1,85,2|0
360,232,53135,2,0,B|304:144|368:56,1,170,0|0
448,160,53697,2,0,B|504:248|440:336,1,170,2|0
360,352,54260,2,0,B|256:352,1,85,0|0
184,352,54635,6,0,B|184:232|184:232|224:192,1,170,2|0
312,200,55197,1,2
312,200,55572,2,0,B|312:288,2,85,2|2|0
96,48,56322,5,0
64,80,56416,1,0
52,128,56510,1,0
64,172,56603,1,0
96,204,56697,1,0
240,128,56885,37,4
240,128,57260,1,4
240,128,57635,2,0,B|320:80|424:136,1,170,2|0
464,200,58197,1,0
408,280,58385,1,2
312,280,58572,1,0
216,280,58760,1,0
312,280,58947,6,0,B|312:176|216:136,1,170,2|0
136,136,59510,2,0,B|136:232,1,85,0|0
376,248,59885,2,0,B|376:152,1,85,2|0
256,56,60260,1,0
256,152,60447,1,0
256,192,60541,12,0,61760
176,280,61947,38,0,B|264:328|360:272,1,170,2|2
424,240,62510,1,0
400,152,62697,1,0
448,72,62885,1,4
64,72,63260,1,4
256,72,63635,37,2
256,72,63728,1,0
256,72,63822,2,0,B|256:192,1,85,0|0
256,248,64197,2,0,B|160:248|104:320,1,170,2|0
256,248,64760,1,0
256,248,64947,2,0,B|352:248|408:320,1,170,2|0
256,344,65510,5,0
256,344,65697,2,0,B|256:160,1,170,2|0
256,80,66260,1,0
256,80,66447,1,0
180,128,66635,6,0,B|228:176|300:176|356:104,1,170,2|0
408,80,67197,2,0,B|472:152|432:256,1,170,2|0
384,312,67760,1,0
104,304,67947,2,0,B|40:232|80:128,1,170,2|0
128,72,68510,5,2
216,72,68885,1,2
304,72,69260,1,2
392,72,69635,1,2
392,72,69822,6,0,B|424:152,1,85,0|0
464,240,70197,2,0,B|400:312|272:272,1,170,2|0
240,216,70760,1,0
224,304,70947,2,0,B|333:304|347:213,1,170,2|0
424,160,71510,1,0
368,88,71697,2,0,B|168:88,1,170,2|0
104,88,72260,1,0
104,88,72447,1,0
144,256,72635,6,0,B|168:352,2,85,2|0|0
120,176,73197,2,0,B|200:128|304:168,1,170,2|0
376,192,73760,1,0
376,192,73947,1,0
144,256,74322,6,0,B|48:320,2,85,2|0|0
88,96,74885,1,4
424,96,75260,1,4
256,352,75635,5,2
256,352,75728,1,0
256,352,75822,2,0,B|256:240,1,85,0|0
256,176,76197,2,0,B|344:176|384:72,1,170,2|0
296,40,76760,1,0
200,40,76947,2,0,B|112:40,1,85,2|0
96,192,77322,6,0,B|64:112,2,85,0|2|0
128,280,77885,1,0
200,336,78072,1,0
296,336,78260,1,0
368,280,78447,1,0
400,192,78635,6,0,B|304:184|288:80,1,170,2|0
376,104,79197,2,0,B|248:232,1,170,2|0
184,288,79760,1,0
184,288,79947,2,0,B|96:192|96:192|48:192,1,170,2|0
56,288,80510,5,4
184,152,80885,1,4
320,288,81260,1,4
184,288,81635,6,0,B|312:160,1,170,2|0
368,96,82197,1,0
480,160,82385,1,0
368,224,82572,1,0
480,288,82760,1,0
368,96,82947,6,0,B|232:96|232:96|192:136,1,170,2|0
144,288,83510,1,0
207,120,83697,1,0
144,288,83885,2,0,B|280:288|280:288|320:248,1,170,2|0
424,128,84447,6,0,B|368:192,1,85
256,40,85010,1,2
88,128,85385,2,0,B|168:192|168:192|168:264,1,170,0|0
168,352,85947,1,0
168,352,86135,2,0,B|280:352,1,85,0|0
368,224,86510,2,0,B|256:224,2,85
464,224,87072,5,4
328,120,87260,1,4
480,48,87447,1,4
384,184,87635,6,0,B|352:216|352:216|304:216,1,85,8|0
120,216,88010,1,0
216,216,88197,1,0
264,136,88385,2,0,B|232:96|160:96,1,85,8|0
96,96,88760,1,0
216,216,88947,2,0,B|256:304|184:376,1,170,8|0
144,288,89510,5,8
312,320,89697,1,0
472,256,89885,2,0,B|448:152,1,85,4|0
296,112,90260,2,0,B|320:216,1,85,4|0
432,72,90635,5,8
248,32,90822,1,0
344,32,91010,1,0
160,72,91197,1,0
248,32,91385,6,0,B|272:120,1,85,8|0
320,296,91760,1,0
296,208,91947,2,0,B|200:200|128:264,1,170,8|0
64,312,92510,1,8
64,312,92697,1,0
232,352,92885,5,4
488,128,93260,1,4
144,128,93635,6,0,B|240:144|288:248,1,170,8|0
304,304,94197,1,0
416,360,94385,1,8
416,232,94572,1,8
304,304,94760,1,0
200,232,94947,6,0,B|184:136|80:104,1,170,8|0
96,200,95510,1,0
216,88,95697,1,0
312,88,95885,2,0,B|312:192|408:224,1,170,8|0
464,160,96447,1,0
336,288,96635,6,0,B|288:328|288:328|168:328,1,170,8|0
72,200,97197,2,0,B|120:160|120:160|240:160,1,170,8|0
312,160,97760,1,0
408,160,97947,5,8
408,176,98041,1,0
408,192,98135,1,0
408,208,98228,1,0
404,224,98322,1,0
400,240,98416,1,0
392,256,98510,1,0
384,268,98603,1,0
376,284,98697,1,0
364,296,98791,1,0
352,308,98885,1,0
340,320,98978,1,0
324,328,99072,5,12
168,256,99260,1,4
312,160,99447,1,4
152,96,99635,6,0,B|88:96|48:136,1,85,8|0
32,200,100010,1,0
64,288,100197,1,0
171,177,100385,2,0,B|144:152|152:96,1,85,8|0
224,256,100760,1,0
288,320,100947,6,0,B|384:320|448:224,1,170,8|0
432,152,101510,1,8
432,344,101697,1,0
432,56,101885,2,0,B|328:56,1,85,4|0
248,192,102260,2,0,B|352:192,1,85,4|0
160,192,102635,6,0,B|160:248|160:248|128:280,1,85,8|0
64,216,103010,1,0
216,320,103197,1,0
312,320,103385,2,0,B|312:272|368:240,1,85,8|0
496,136,103760,1,0
416,184,103947,2,0,B|352:104|256:112,1,170,8|0
256,208,104510,6,0,B|256:296,1,85,8|0
288,16,104885,2,0,B|376:16,1,85,4|0
256,208,105260,2,0,B|152:208,1,85,4|0
272,112,105635,6,0,B|376:112|376:112|440:176,1,170,8|0
472,240,106197,1,0
424,320,106385,1,8
328,320,106572,1,8
280,240,106760,1,0
328,160,106947,6,0,B|280:72|184:72,1,170,8|0
96,72,107510,1,0
32,144,107697,1,0
32,232,107885,2,0,B|80:320|176:320,1,170,8|0
264,320,108447,1,0
368,160,108635,6,0,B|312:80|200:80,1,170,8|0
320,240,109197,2,0,B|288:200|248:192,1,85,8|0
156,184,109572,1,8
88,112,109760,1,0
156,40,109947,5,8
172,40,110041,1,0
188,40,110135,1,0
204,40,110228,1,0
220,40,110322,1,0
236,40,110416,1,0
252,40,110510,1,0
268,40,110603,1,0
284,40,110697,1,0
300,40,110791,1,0
316,40,110885,1,0
332,40,110978,1,0
348,40,111072,1,0
364,40,111166,1,0
380,40,111260,1,0
396,40,111353,1,0
412,40,111447,1,0
428,40,111541,1,0
444,40,111635,6,0,B|444:168|444:168|412:200,1,170,12|0
260,272,112197,2,0,B|260:216|260:216|284:192,1,85,0|8
344,252,112572,1,8
224,132,112760,1,0
224,132,112853,1,0
224,132,112947,2,0,B|260:96|260:96|388:96,1,170,12|0
468,96,113510,6,0,B|488:144|460:200,1,85,0|0
172,296,113885,2,0,B|152:248|180:192,1,85,0|0
372,136,114260,2,0,B|392:184|364:240,1,85,0|0
276,256,114635,2,0,B|228:168|292:72,1,170,4|0
256,192,115197,12,4,117635
