osu file format v9

[General]
AudioFilename: The_Day_Takeoff.mp3
AudioLeadIn: 2000
PreviewTime: 87093
Countdown: 0
SampleSet: Soft
StackLeniency: 0.7
Mode: 0
LetterboxInBreaks: 1

[Editor]
Bookmarks: 12083,18646,24083,40021,44896,52021,56896,63833,69833,75833,81646,87083
DistanceSpacing: 0
BeatDivisor: 4
GridSize: 8

[Metadata]
Title:The Day Takeoff
Artist:Hashimoto Miyuki
Creator:Suzully
Version:KSHR in Duktz
Source:Daiteikoku
Tags:Alicesoft KSHR Sorda S_o_r_d_a

[Difficulty]
HPDrainRate:5
CircleSize:4
OverallDifficulty:6
ApproachRate:7
SliderMultiplier:1.5
SliderTickRate:1

[Events]
//Background and Video events
Video,0,"daiteikoku.flv"
0,0,"daiteikoku2.jpg"
//Break Periods
2,36835,38735
//Storyboard Layer 0 (Background)
//Storyboard Layer 1 (Fail)
//Storyboard Layer 2 (Pass)
//Storyboard Layer 3 (Foreground)
//Storyboard Sound Samples
//Background Colour Transformations
3,100,163,162,255

[TimingPoints]
635,375,4,2,1,70,1,0
5791,-100,4,2,1,65,0,0
5978,-100,4,2,1,70,0,0
6260,-100,4,2,1,65,0,0
6353,-100,4,2,1,70,0,0
6541,-100,4,2,1,80,0,0
6728,-100,4,2,1,70,0,0
9541,-100,4,2,1,60,0,0
10291,-100,4,2,1,70,0,0
11041,-100,4,2,1,80,0,0
11978,-100,4,2,1,65,0,0
12541,-100,4,2,1,80,0,0
12728,-100,4,2,1,70,0,0
14885,-100,4,2,1,60,0,0
14978,-100,4,2,1,70,0,0
15260,-100,4,2,1,60,0,0
15353,-100,4,2,1,70,0,0
15541,-100,4,2,1,80,0,0
15728,-100,4,2,1,70,0,0
17791,-100,4,2,0,60,0,0
18447,-100,4,2,1,80,0,0
18728,-100,4,2,1,70,0,0
23978,-100,4,2,1,60,0,0
24541,-100,4,2,1,80,0,0
24728,-100,4,2,1,70,0,0
26885,-100,4,2,1,60,0,0
26978,-100,4,2,1,70,0,0
27260,-100,4,2,1,60,0,0
27353,-100,4,2,1,70,0,0
27541,-100,4,2,1,80,0,0
27728,-100,4,2,1,70,0,0
29791,-100,4,2,1,60,0,0
30541,-100,4,2,1,80,0,0
34010,-100,4,2,1,50,0,0
34197,-100,4,2,1,70,0,0
36635,-100,4,2,1,5,0,0
39447,-100,4,2,1,65,0,0
86978,-100,4,2,1,60,0,0
87541,-100,4,2,1,80,0,0
87635,-100,4,2,1,80,0,1
87728,-100,4,2,1,70,0,1
89885,-100,4,2,1,60,0,1
89978,-100,4,2,1,70,0,1
90260,-100,4,2,1,60,0,1
90353,-100,4,2,1,70,0,1
90541,-100,4,2,1,80,0,1
90728,-100,4,2,1,70,0,1
92791,-100,4,2,1,60,0,1
93541,-100,4,2,1,80,0,1
93728,-100,4,2,1,70,0,1
98978,-100,4,2,1,60,0,1
99353,-100,4,2,1,70,0,1
99541,-100,4,2,1,80,0,1
99728,-100,4,2,1,70,0,1
101885,-100,4,2,1,60,0,1
101978,-100,4,2,1,70,0,1
102260,-100,4,2,1,60,0,1
102353,-100,4,2,1,70,0,1
102541,-100,4,2,1,80,0,1
102728,-100,4,2,1,70,0,1
104791,-100,4,2,1,60,0,1
105541,-100,4,2,1,80,0,1
105728,-100,4,2,1,70,0,1
109010,-100,4,2,1,50,0,1
109197,-100,4,2,1,70,0,1
111260,-100,4,2,1,5,0,1
111541,-100,4,2,1,70,0,1
115010,-100,4,2,1,50,0,1
115197,-100,4,2,1,70,0,1
117635,-100,4,2,1,50,0,0

[Colours]
Combo1 : 180,180,0
Combo2 : 0,0,160
Combo3 : 0,128,0
Combo4 : 128,0,128
Combo5 : 200,0,0

[HitObjects]
96,192,635,2,0,B|200:192|200:192|232:128,1,150,0|8
312,136,1197,2,0,B|244:282,1,150,0|0
184,336,1760,2,0,B|144:344|104:336,1,75,8|0
249,272,2135,2,0,B|288:264|328:272,1,75
384,336,2510,1,8
448,272,2697,2,0,B|488:200|440:128,1,150
360,88,3260,2,0,B|264:88,1,75,8|0
240,168,3635,6,0,B|336:168,2,75,8|0|8
168,112,4197,2,0,B|144:136|144:136|144:232|144:232|120:256,1,150
56,192,4760,2,0,B|55:94,1,75,8|0
129,246,5135,2,0,B|129:343,2,75,0|0|8
208,200,5697,1,0
264,272,5885,2,0,B|304:328,1,37.5,4|0
360,248,6166,2,0,B|416:248,1,37.5,0|12
472,296,6447,1,0
408,360,6635,6,0,B|368:368|328:360,2,75,12|0|8
472,296,7197,1,0
496,208,7385,2,0,B|504:168|496:128,1,75
408,152,7760,2,0,B|400:112|408:72,1,75,8|0
480,28,8135,1,0
406,77,8322,2,0,B|364:84|316:76,1,75,0|8
248,40,8697,2,0,B|208:40|176:64|160:112|192:160,1,150
268,120,9260,1,8
268,120,9447,1,0
184,80,9635,6,0,B|108:40,1,75,4|0
104,136,10010,2,0,B|8:136,1,75,8|0
56,224,10385,2,0,B|132:264,1,75,4|0
88,344,10760,2,0,B|184:344,1,75,8|0
256,344,11135,2,0,B|312:344,3,37.5,4|0|2|0
320,312,11510,2,0,B|376:312,3,37.5,2|0|2|0
392,336,11885,1,2
464,296,12072,5,4
480,176,12260,1,4
400,88,12447,1,0
328,144,12635,2,0,B|320:184|328:224,1,75,4|0
400,88,13010,2,0,B|440:80|480:88,1,75,8|0
328,144,13385,6,0,B|288:152|248:144,1,75,0|8
192,80,13760,1,0
112,120,13947,2,0,B|120:168|120:168|208:256,1,150,0|8
208,328,14510,1,0
120,312,14697,2,0,B|48:240,1,75,0|4
280,272,15072,6,0,B|351:343,1,75,0|4
416,360,15447,1,0
480,288,15635,2,0,B|496:248|480:216,1,75,4|0
376,152,16010,2,0,B|360:192|376:224,1,75,8|0
480,216,16385,5,0
496,128,16572,1,8
440,56,16760,1,0
352,64,16947,2,0,B|304:72|304:72|240:168,1,150,0|8
168,200,17510,2,0,B|152:160|152:104,1,75
352,144,17885,5,6
456,312,18260,1,6
256,320,18635,6,0,B|168:328|128:248,1,150,4|0
88,176,19197,1,0
24,240,19385,2,0,B|8:280|24:320,1,75,8|8
21,313,19760,1,0
176,184,19947,6,0,B|216:112|176:40,1,150,0|8
112,104,20510,2,0,B|216:104,1,75,0|0
248,168,20885,2,0,B|336:168,1,75,0|0
304,80,21260,2,0,B|392:80,1,75,0|0
456,124,21635,6,0,B|496:204|432:260,1,150,8|0
344,240,22197,1,0
256,216,22385,2,0,B|168:240,1,75,8|8
216,320,22760,2,0,B|128:344,1,75,0|8
72,288,23135,2,0,B|40:248,3,37.5,2|0|0|0
56,216,23510,2,0,B|88:168,3,37.5,2|0|0|0
64,144,23885,1,2
120,64,24072,5,4
240,88,24260,1,4
352,48,24447,1,0
432,96,24635,2,0,B|448:136|432:176,1,75,4|0
296,232,25010,2,0,B|280:192|296:152,1,75,8|0
432,224,25385,6,0,B|448:264|432:304,1,75,8|8
376,368,25760,1,0
320,296,25947,2,0,B|288:304|288:304|264:336|264:336|160:336,1,150,0|8
104,368,26510,1,0
32,312,26697,2,0,B|16:272|32:232,1,75,0|4
224,152,27072,6,0,B|240:192|224:232,1,75,0|4
144,264,27447,1,0
96,184,27635,2,0,B|56:112,1,75,4|0
120,48,28010,2,0,B|160:120,1,75,8|0
232,160,28385,5,0
320,136,28572,1,0
340,48,28760,1,0
256,72,28947,2,0,B|376:192,1,150,8|0
448,208,29510,2,0,B|464:168|448:136,1,75
256,192,29885,5,6
408,320,30260,1,6
208,296,30635,6,0,B|120:296|56:360,1,150,4|8
16,272,31197,1,0
88,216,31385,2,0,B|104:184|88:144,1,75,8|8
87,143,31760,1,0
208,296,31947,6,0,B|256:368|352:344,1,150,8|0
408,288,32510,2,0,B|432:256|432:200,1,75,0|0
344,232,32885,2,0,B|312:200|304:152,1,75,8|0
392,136,33260,2,0,B|416:96|408:48,1,75,0|0
328,24,33635,2,0,B|232:8|192:120,1,150,8|0
256,192,34197,12,0,36635
304,232,39635,5,4
304,232,40010,2,0,B|344:232|344:232|400:272|400:272|440:272,2,150,2|0|2
224,272,40947,2,0,B|208:312|224:344,1,75,0|0
304,232,41322,2,0,B|320:192|304:160,1,75,0|2
232,104,41697,2,0,B|136:104,1,75,2|0
88,164,42072,2,0,B|128:168|128:168|176:208|176:208|224:212,1,150,0|0
304,176,42635,5,2
36,224,43197,1,2
120,64,43572,1,2
200,24,43760,1,0
280,64,43947,1,2
424,144,44322,2,0,B|464:168,4,37.5,2|0|2|0|2
336,144,44885,6,0,B|296:232,1,75,4|0
360,352,45260,2,0,B|400:264,1,75,4|0
304,212,45635,2,0,B|208:208|200:304,1,150,4|2
292,300,46197,2,0,B|176:160,1,150
112,152,46760,5,2
72,232,46947,2,0,B|72:328,2,75
32,152,47510,1,2
72,80,47697,2,0,B|144:64|224:80,1,150,2|0
288,144,48260,2,0,B|376:144,1,75,0|2
408,64,48635,6,0,B|312:64,2,75
480,120,49197,2,0,B|480:152|480:152|424:208|424:208|424:272,1,150,2|0
488,312,49760,1,0
408,352,49947,1,0
336,296,50135,6,0,B|261:296,1,75,2|0
192,352,50510,1,0
152,272,50697,2,0,B|112:184|16:232,1,150,2|0
72,304,51260,2,0,B|128:144,1,150,2|4
208,136,51822,1,0
192,48,52010,6,0,B|152:48|152:48|120:80|120:80|32:80,2,150,2|0|2
280,64,52947,2,0,B|320:80|336:128,1,75
352,252,53322,2,0,B|312:236|296:188,1,75,0|2
331,115,53697,2,0,B|367:99|403:115,1,75,2|0
480,160,54072,1,0
416,224,54260,1,2
496,264,54447,1,0
432,328,54635,5,2
280,104,55197,1,2
96,120,55572,1,2
56,200,55760,1,0
80,288,55947,1,2
248,352,56322,2,0,B|304:376,4,37.5,2|0|2|0|2
176,296,56885,6,0,B|200:216,1,75,4|0
312,152,57260,2,0,B|288:232,1,75,4|0
197,224,57635,2,0,B|136:168|176:80,1,150,4|2
256,120,58197,2,0,B|344:128|360:32,1,150
272,32,58760,1,2
328,104,58947,6,0,B|388:180,1,75
336,248,59322,2,0,B|276:172,2,75,2|2|0
424,240,59885,1,0
408,328,60072,1,0
320,344,60260,1,2
256,192,60447,12,0,61947
128,96,62322,6,0,B|24:96,2,75,2|2|0
208,136,62885,1,2
208,136,63260,2,0,B|240:160|256:200|240:240|200:264,1,150,2|4
136,200,63822,5,0
112,288,64010,1,2
176,352,64197,2,0,B|216:352|216:352|280:320|280:320|320:320,1,150,0|0
400,360,64760,1,2
472,304,64947,6,0,B|488:256|464:224,1,75,0|0
384,200,65322,2,0,B|368:248|392:280,1,75,0|2
469,232,65697,2,0,B|504:160|464:80,1,150,2|0
384,56,66260,2,0,B|280:56,1,75,2|0
240,112,66635,2,0,B|192:192|104:144,1,150,0|2
160,72,67197,2,0,B|200:216,1,150,2|0
136,280,67760,2,0,B|112:192,1,75,0|2
264,336,68510,5,2
296,336,68885,1,2
328,336,69260,1,2
360,336,69635,5,4
432,280,69822,2,0,B|448:240|432:208,1,75,0|2
360,152,70197,2,0,B|256:152|256:152|200:192,1,150,0|0
288,240,70760,2,0,B|384:240,1,75,2|0
464,56,71322,6,0,B|368:56,1,75,0|2
320,112,71697,2,0,B|248:168|184:112,1,150,2|0
148,28,72260,2,0,B|236:28,1,75,2|0
184,112,72635,2,0,B|96:112,1,75
48,48,73010,1,2
24,136,73197,2,0,B|0:208|24:288,1,150,2|2
88,344,73760,1,0
144,272,73947,2,0,B|240:272,1,75,0|0
264,352,74322,6,0,B|160:352,2,75,2|2|0
320,280,74885,1,2
320,280,75260,2,0,B|352:264|408:272|432:304|440:352,1,150,2|4
352,360,75822,6,0,B|400:272,1,75,0|2
432,216,76197,2,0,B|368:144|432:80,1,150,0|0
492,148,76760,1,2
432,216,76947,2,0,B|344:216,1,75,2|0
336,128,77322,6,0,B|240:128,1,75,0|2
200,192,77697,2,0,B|104:192,2,75,0|0|0
256,264,78260,1,2
216,344,78447,1,2
128,328,78635,2,0,B|72:260|128:188,1,150,0|2
200,240,79197,2,0,B|256:172|200:100,1,150,2|0
136,48,79760,2,0,B|40:48,1,75,0|2
256,48,80510,5,2
288,48,80885,1,2
320,48,81260,1,2
352,48,81635,5,4
432,88,81822,2,0,B|448:128|432:168,1,75,0|2
352,200,82197,2,0,B|336:160|352:120,2,75
424,256,82760,1,2
368,328,82947,2,0,B|296:376|224:328,1,150
232,240,83510,2,0,B|192:224|152:240,1,75,2|0
96,304,83885,2,0,B|24:256|48:160,1,150,0|2
80,88,84447,5,0
152,144,84635,2,0,B|192:152|232:144,1,75
264,64,85010,2,0,B|224:56|184:64,1,75,2|0
226,145,85385,2,0,B|256:176|304:184,1,75
376,144,85760,1,2
440,208,85947,1,0
424,296,86135,2,0,B|408:312|376:328,3,37.5,2|0|2|0
352,312,86510,2,0,B|328:304|296:304,3,37.5,2|0|2|0
276,316,86885,1,2
192,344,87072,5,4
88,280,87260,1,4
72,160,87447,1,0
136,88,87635,2,0,B|240:88,1,75,12|0
280,224,88010,2,0,B|176:224,1,75
320,128,88385,6,0,B|424:128,1,75,8|8
464,184,88760,1,0
440,272,88947,2,0,B|408:360|296:344,1,150,8|0
256,288,89510,1,0
168,304,89697,2,0,B|144:344|160:384,1,75,0|4
336,264,90072,6,0,B|360:224|344:184,1,75,0|4
304,112,90447,1,0
216,88,90635,2,0,B|176:96|136:120,1,75,12|0
120,232,91010,2,0,B|160:224|200:200,1,75
146,114,91385,5,8
64,152,91572,1,8
48,240,91760,1,0
104,312,91947,2,0,B|256:360,1,150,0|8
313,295,92510,2,0,B|329:255|305:215,1,75,0|0
145,114,92885,5,6
336,64,93260,1,6
440,232,93635,6,0,B|440:320|328:344,1,150,4|0
264,312,94197,1,0
200,248,94385,2,0,B|160:256|120:296,1,75,8|8
134,282,94760,1,0
328,232,94947,6,0,B|352:144|280:88,1,150,0|8
216,152,95510,2,0,B|120:152,1,75
168,64,95885,2,0,B|72:64,1,75
32,128,96260,2,0,B|64:152|72:200,1,75
56,280,96635,6,0,B|80:368|184:368,1,150,8|0
240,320,97197,1,0
328,320,97385,2,0,B|368:344|392:384,1,75,8|8
464,328,97760,2,0,B|496:296|488:248,1,75,0|8
416,208,98135,2,0,B|400:192|392:160,3,37.5,2|0|0|0
424,144,98510,2,0,B|432:120|432:96,3,37.5,2|0|0|0
408,72,98885,1,2
324,40,99072,5,4
208,80,99260,1,4
88,64,99447,1,0
36,136,99635,2,0,B|44:184|92:216,1,75,12|0
224,192,100010,2,0,B|216:144|168:112,1,75,0|0
120,264,100385,6,0,B|128:312|176:344,1,75,8|8
240,360,100760,1,0
328,336,100947,2,0,B|360:312|368:272|360:224|320:200,1,150,0|8
264,272,101510,1,0
352,256,101697,2,0,B|392:248|432:256,1,75,0|4
240,360,102072,6,0,B|200:368|160:360,1,75,0|4
80,328,102447,1,0
40,248,102635,2,0,B|32:208|40:168,1,75,4|0
128,192,103010,2,0,B|136:152|128:112,1,75,8|0
72,48,103385,5,8
160,24,103572,1,8
232,80,103760,1,0
304,136,103947,2,0,B|336:160|336:160|448:160,1,150,0|8
472,72,104510,2,0,B|376:72,1,75
220,164,104885,5,6
400,248,105260,1,6
224,344,105635,6,0,B|136:368|88:296,1,150,4|0
64,216,106197,1,0
144,176,106385,2,0,B|248:176,1,75,8|8
219,176,106760,1,0
400,248,106947,6,0,B|480:200|440:120,1,150,8|0
376,56,107510,2,0,B|288:56,1,75
320,144,107885,2,0,B|216:144,1,75
192,72,108260,2,0,B|96:72,1,75
40,120,108635,2,0,B|8:208|80:256,1,150,8|0
256,192,109197,12,0,111260
400,104,111635,6,0,B|400:224|400:224|352:248,1,150,4|0
288,208,112197,1,0
216,264,112385,2,0,B|232:312|288:328,1,75,8|8
264,318,112760,1,0
312,128,112947,6,0,B|256:56|160:80,1,150,8|0
120,144,113510,2,0,B|80:136|64:88,1,75
8,164,113885,2,0,B|-4:200|8:240,1,75
96,224,114260,2,0,B|108:260|96:300,1,75
168,352,114635,2,0,B|264:368|296:264,1,150,8|0
256,192,115197,12,4,117635
