osu file format v9

[General]
AudioFilename: The_Day_Takeoff.mp3
AudioLeadIn: 2000
PreviewTime: 87093
Countdown: 0
SampleSet: Soft
StackLeniency: 0.7
Mode: 0
LetterboxInBreaks: 1

[Editor]
DistanceSpacing: 1
BeatDivisor: 4
GridSize: 8

[Metadata]
Title:The Day Takeoff
Artist:Hashimoto Miyuki
Creator:Suzully
Version:Gamerica
Source:Daiteikoku
Tags:Alicesoft KSHR Sorda S_o_r_d_a

[Difficulty]
HPDrainRate:2
CircleSize:3
OverallDifficulty:2
ApproachRate:3
SliderMultiplier:0.8
SliderTickRate:1

[Events]
//Background and Video events
Video,0,"daiteikoku.flv"
0,0,"daiteikoku3.jpg"
//Break Periods
2,36835,38195
//Storyboard Layer 0 (Background)
//Storyboard Layer 1 (Fail)
//Storyboard Layer 2 (Pass)
//Storyboard Layer 3 (Foreground)
//Storyboard Sound Samples
//Background Colour Transformations
3,100,163,162,255

[TimingPoints]
635,375,4,2,1,90,1,0
36541,-100,4,2,1,60,0,0
36728,-100,4,2,1,90,0,0
87635,-100,4,2,1,90,0,1
114635,-100,4,2,1,60,0,1
117635,-100,4,2,1,60,0,0

[Colours]
Combo1 : 180,180,0
Combo2 : 0,0,160
Combo3 : 0,128,0
Combo4 : 128,0,128
Combo5 : 200,0,0

[HitObjects]
288,192,635,2,0,B|296:128|360:88,2,120,4|0|0
352,240,2135,2,0,B|416:216|480:256,2,120
296,296,3635,2,0,B|136:296,2,160
456,296,5885,1,4
456,136,6635,6,0,B|376:96|292:140,1,160,0|2
300,216,7760,1,0
304,296,8135,2,0,B|384:336|468:292,1,160,0|2
460,216,9260,1,0
256,192,9635,12,0,11885
136,56,12635,6,0,B|80:136|136:216,1,160,4|8
208,344,14135,1,0
368,344,14885,1,0
472,224,15635,2,0,B|472:136|392:80,1,160,4|8
248,40,17135,1,0
248,200,17885,1,0
88,184,18635,6,0,B|88:296|88:296|56:336,2,160,4|8|0
192,64,20885,1,0
296,184,21635,2,0,B|336:144|336:144|456:144,2,160,8|0|0
240,336,23885,2,0,B|336:336,1,80,4|4
400,336,24635,6,0,B|432:248|392:168,1,160,8|0
312,48,26135,2,0,B|256:112|160:72,1,160,0|4
88,56,27260,1,4
32,112,27635,2,0,B|24:208|112:248,1,160,8|0
240,328,29135,2,0,B|256:232|352:216,1,160,0|4
416,200,30260,1,4
496,192,30635,6,0,B|504:112|432:48,2,160,8|0|0
424,336,32885,1,2
256,192,33635,12,4,36635
256,192,39635,5,2
96,192,40385,1,0
176,328,41135,2,0,B|344:328,1,160
280,184,42635,2,0,B|440:184,2,160,2|0|0
120,184,44885,2,0,B|120:104,1,80,4|4
120,24,45635,6,0,B|248:24,1,120,2|0
320,24,46572,1,0
384,72,46947,2,0,B|288:136|288:136|280:184,1,160,2|0
280,256,48072,1,0
280,336,48447,2,0,B|440:336,1,160,2|0
456,136,50135,2,0,B|456:64|400:16,2,120,2|0|4
456,216,51635,5,4
328,304,52385,1,0
168,272,53135,2,0,B|104:208|136:112,1,160,2|0
280,56,54635,2,0,B|344:120|312:216,2,160,2|0|0
120,48,56885,2,0,B|120:136,1,80,4|4
120,208,57635,6,0,B|208:208|272:272,1,160,2|0
408,344,59135,2,0,B|464:272|440:176,1,160,2|0
256,192,60260,12,0,62885
256,192,63635,6,0,B|256:368,2,160,4|0|2
256,32,65885,1,0
416,32,66635,2,0,B|440:128|368:184,1,160,2|0
216,144,68135,2,0,B|176:128|128:152,3,80,2|0|2|0
64,168,69635,6,0,B|64:264|152:312,1,160,4|0
288,344,71135,2,0,B|392:344|432:264,1,160,2|0
320,160,72635,2,0,B|360:80|464:80,2,160,2|0|0
232,296,74885,2,0,B|144:296,1,80,4|4
72,296,75635,6,0,B|32:208|80:136,1,160,2|0
136,88,76760,1,0
216,64,77135,2,0,B|232:160|328:168,1,160,2|0
400,160,78260,1,0
480,152,78635,2,0,B|496:256|424:312,2,160,2|0|0
432,88,80510,6,0,B|496:24,2,80,4|4|4
376,144,81635,2,0,B|208:144,1,160,2|0
72,216,83135,2,0,B|104:248|104:248|224:248,1,160,2|0
352,336,84635,2,0,B|448:336,2,80,2|0|0
256,192,85760,12,4,87635
472,208,88385,6,0,B|424:192|424:136,1,80,8|0
424,72,89135,2,0,B|336:72,1,80,0|0
264,72,89885,2,0,B|184:72,1,80,4|4
104,72,90635,2,0,B|104:192|104:192|64:224,2,160,8|0|8
256,128,92885,2,0,B|256:216,1,80,4|4
256,288,93635,6,0,B|224:328|224:328|112:328,1,160,4|8
200,192,95135,2,0,B|232:152|232:152|344:152,1,160,0|8
440,280,96635,1,0
296,344,97385,1,8
152,280,98135,2,0,B|64:280,2,80,8|0|0
232,280,99260,1,4
312,280,99635,6,0,B|304:192|368:128,1,160,4|8
488,32,101135,2,0,B|328:32,1,160,0|4
248,32,102260,1,4
168,32,102635,2,0,B|168:144|168:144|128:184,1,160,8|0
24,296,104135,2,0,B|64:336|64:336|176:336,1,160,8|4
248,336,105260,1,4
328,336,105635,6,0,B|488:336,2,160,8|0|8
192,248,107885,1,0
328,160,108635,2,0,B|496:160,2,160,8|0|0
192,72,110885,1,2
112,72,111260,1,2
32,72,111635,6,0,B|0:152|32:240,1,160,4|8
56,304,112760,1,0
104,368,113135,2,0,B|168:312|272:336,1,160,4|8
336,352,114260,1,0
256,192,114635,12,4,117635
