osu file format v9

[General]
AudioFilename: Symphony.mp3
AudioLeadIn: 2000
PreviewTime: 67347
Countdown: 0
SampleSet: Soft
StackLeniency: 0.7
Mode: 1
LetterboxInBreaks: 1

[Editor]
DistanceSpacing: 1.2
BeatDivisor: 4
GridSize: 8

[Metadata]
Title:Symphonic Love (Short Ver.)
Artist:Hashimoto Miyuki
Creator:suirenn05
Version:Taiko DS
Source:Mashiro Iro Symphony -Love is pure white-
Tags:Cookiezi Palette KDS

[Difficulty]
HPDrainRate:6
CircleSize:5
OverallDifficulty:5
ApproachRate:5
SliderMultiplier:1.40000000596046
SliderTickRate:1

[Events]
//Background and Video events
0,0,"Taiko BG.png"
//Break Periods
//Storyboard Layer 0 (Background)
//Storyboard Layer 1 (Fail)
//Storyboard Layer 2 (Pass)
//Storyboard Layer 3 (Foreground)
//Storyboard Sound Samples
//Background Colour Transformations
3,100,163,162,255

[TimingPoints]
671,416.666666666667,4,2,0,100,1,0
67337,-100,4,2,0,100,0,1
93171,-100,4,2,0,100,0,0

[Colours]
Combo1 : 0,128,255
Combo2 : 255,0,0

[HitObjects]
256,192,671,21,8
256,192,879,1,8
256,192,1296,5,0
256,192,1712,1,0
256,192,2337,1,0
256,192,2546,1,0
256,192,2962,5,8
256,192,3379,1,8
256,192,4004,1,8
256,192,4212,1,8
256,192,4629,5,0
256,192,5046,1,0
256,192,5671,1,0
256,192,5879,1,0
256,192,6296,5,8
256,192,6712,1,8
256,192,6921,5,0
256,192,7129,5,8
256,192,7233,1,8
256,192,7337,5,0
256,192,7546,1,0
256,192,7754,5,8
256,192,7962,5,0
256,192,8171,1,0
256,192,8275,1,0
256,192,8379,1,0
256,192,8587,5,8
256,192,9004,5,0
256,192,9212,1,0
256,192,9421,5,8
256,192,9629,5,0
256,192,9733,1,0
256,192,9837,1,0
256,192,10046,1,0
256,192,10254,5,8
256,192,10671,5,0
256,192,10879,1,0
256,192,11087,5,8
256,192,11296,5,0
256,192,11504,1,0
256,192,11608,1,0
256,192,11712,1,0
256,192,11816,1,0
256,192,11920,5,8
256,192,12129,5,0
256,192,12337,1,4
256,192,12545,1,0
256,192,12650,1,0
256,192,12754,1,0
256,192,12962,5,8
256,192,13170,5,0
256,192,13275,1,0
256,192,13379,5,8
256,192,13483,1,8
256,192,13587,5,0
256,192,13795,5,8
256,192,14004,5,4
256,192,14212,1,0
256,192,14316,1,0
256,192,14420,5,8
256,192,14629,5,0
256,192,14837,1,0
256,192,15045,1,0
256,192,15150,1,0
256,192,15254,5,8
256,192,15462,5,0
256,192,15670,1,0
256,192,15879,1,0
256,192,15983,1,0
256,192,16087,5,8
256,192,16295,5,0
256,192,16504,1,0
256,192,16712,1,0
256,192,16816,1,0
256,192,16920,5,8
256,192,17129,5,0
256,192,17337,1,0
256,192,17441,1,0
256,192,17545,1,0
256,192,17754,5,8
256,192,17962,5,0
256,192,18170,1,0
256,192,18275,1,0
256,192,18379,1,0
256,192,18587,5,8
256,192,18796,5,0
256,192,19004,1,0
256,192,19108,1,0
256,192,19212,1,0
256,192,19421,5,8
256,192,19629,5,0
256,192,19733,1,0
256,192,19837,5,8
256,192,20046,5,0
256,192,20150,1,0
256,192,20254,5,8
256,192,20358,1,8
256,192,20462,1,8
256,192,20671,5,0
256,192,20775,1,0
256,192,20879,1,0
256,192,20983,1,0
256,192,21087,5,8
256,192,21296,5,0
256,192,21504,1,0
256,192,21608,1,0
256,192,21712,1,0
256,192,21816,1,0
256,192,21921,5,8
256,192,22129,5,0
256,192,22337,1,0
256,192,22441,1,0
256,192,22546,1,0
256,192,22650,1,0
256,192,22754,5,8
256,192,22962,5,0
256,192,23171,1,0
256,192,23275,1,0
256,192,23379,5,8
256,192,23483,5,0
256,192,23587,5,8
256,192,23796,5,0
256,192,24004,1,0
256,192,24108,1,0
256,192,24212,1,0
256,192,24421,1,0
256,192,24525,1,0
256,192,24629,1,0
256,192,24837,21,0
256,192,24941,1,0
256,192,25046,5,8
256,192,25150,1,8
256,192,25254,5,0
256,192,25358,1,0
256,192,25462,5,8
256,192,25671,5,4
256,192,25879,1,4
256,192,26087,1,4
256,192,26296,1,4
256,192,26504,1,4
256,192,26712,1,4
256,192,27129,1,0
256,192,27233,1,0
256,192,27337,1,0
256,192,27546,1,0
256,192,27650,1,0
256,192,27754,5,8
256,192,27962,5,0
256,192,28066,5,8
256,192,28171,5,0
256,192,28379,5,8
256,192,28796,5,0
256,192,28900,1,0
256,192,29004,1,0
256,192,29212,1,0
256,192,29316,1,0
256,192,29421,5,8
256,192,29629,5,0
256,192,29733,1,0
256,192,29837,5,8
256,192,30046,1,8
256,192,30462,5,0
256,192,30566,1,0
256,192,30671,1,0
256,192,30879,1,0
256,192,30983,1,0
256,192,31087,5,8
256,192,31296,5,0
256,192,31400,5,8
256,192,31504,5,0
256,192,31712,5,8
256,192,32129,5,0
256,192,32233,1,0
256,192,32337,1,0
256,192,32441,5,8
256,192,32546,1,8
264,200,32754,1,8
264,200,32962,5,0
264,200,33171,1,0
264,200,33379,5,12
264,200,33587,1,12
256,192,33796,5,0
256,192,33900,5,8
256,192,34004,5,0
264,200,34212,5,8
264,200,34316,5,0
264,200,34421,5,8
264,200,34629,5,0
264,200,34733,5,8
264,200,34837,5,0
264,200,35046,5,8
256,192,35254,1,8
256,192,35462,5,0
256,192,35566,5,8
264,200,35671,5,0
264,200,35879,5,8
264,200,35983,5,0
264,200,36087,5,8
264,200,36296,5,0
264,200,36400,5,8
264,200,36504,5,0
264,200,36712,5,8
264,200,36921,5,0
264,200,37129,5,8
264,192,37337,5,0
264,192,37546,5,8
264,192,37650,1,8
264,192,37754,5,0
264,192,37962,1,0
264,192,38171,5,8
264,192,38275,1,8
264,192,38379,5,0
264,192,38587,5,8
264,192,38796,1,8
264,192,38900,1,8
256,192,39004,5,0
256,192,39108,1,0
256,192,39212,1,0
256,192,39421,5,8
256,192,39629,5,0
264,192,39733,1,0
256,192,39837,1,0
256,192,40045,5,8
256,192,40254,5,0
264,192,40358,1,0
256,192,40462,5,8
256,192,40670,5,0
256,192,40775,1,0
256,192,40879,1,0
256,192,40983,1,0
256,192,41087,5,8
256,192,41295,5,0
256,192,41504,1,0
256,192,41608,1,0
256,192,41712,1,0
256,192,41816,1,0
256,192,41920,5,8
256,192,42129,5,0
256,192,42337,1,0
256,192,42441,1,0
256,192,42545,1,0
256,192,42650,1,0
256,192,42754,5,8
256,192,42962,5,0
256,192,43170,5,8
256,192,43275,5,0
256,192,43379,1,0
256,192,43483,1,0
256,192,43587,5,8
256,192,43795,5,0
256,192,44004,1,0
256,192,44108,1,0
256,192,44212,1,0
256,192,44316,1,0
256,192,44420,5,8
256,192,44629,5,0
256,192,44837,1,0
256,192,44941,1,0
256,192,45045,1,0
256,192,45150,1,0
256,192,45254,5,8
256,192,45462,5,0
256,192,45566,1,0
256,192,45670,1,0
256,192,45879,5,8
256,192,46087,5,0
256,192,46191,1,0
256,192,46295,5,8
256,192,46504,1,8
256,192,46608,1,8
256,192,46712,5,0
256,192,46816,1,0
256,192,46920,5,8
256,192,47129,5,0
256,192,47337,5,8
256,192,47441,5,0
256,192,47545,1,0
256,192,47650,1,0
256,192,47754,5,8
256,192,47962,5,0
256,192,48170,5,8
256,192,48275,5,0
256,192,48379,1,0
256,192,48483,1,0
256,192,48587,5,8
256,192,48795,5,0
256,192,49004,5,8
256,192,49108,5,0
256,192,49212,1,0
256,192,49316,1,0
256,192,49420,5,8
256,192,49629,5,0
256,192,49837,5,8
256,192,49941,1,8
256,192,50045,5,0
256,192,50150,5,8
256,192,50254,1,8
256,192,50462,1,8
256,192,50670,5,0
256,192,50775,1,0
256,192,50879,5,8
256,192,51087,5,0
256,192,51191,1,0
256,192,51295,5,8
256,192,51504,5,0
256,192,51608,1,0
256,192,51712,5,8
256,192,51816,5,0
256,192,51920,1,0
256,192,52025,1,0
256,192,52129,5,8
256,192,52233,5,0
256,192,52337,1,0
256,192,52441,1,0
256,192,52545,1,0
256,192,52754,1,0
256,192,52858,1,0
256,192,52962,1,0
256,192,53170,1,4
256,192,53379,5,8
256,192,53587,1,8
256,192,53691,1,8
256,192,53795,5,0
256,200,54004,1,4
256,200,54212,1,4
256,200,54420,5,12
256,200,54629,1,12
256,192,55045,5,0
256,192,55150,1,0
256,192,55254,5,8
256,200,55462,5,0
256,200,55670,1,0
256,200,55879,5,8
256,200,56087,5,0
256,192,56295,5,8
256,192,56504,1,8
256,200,56608,1,8
256,200,56712,5,0
256,200,56920,5,8
256,200,57337,5,4
256,200,57545,5,12
256,200,57754,5,4
256,200,57962,5,12
256,200,58379,5,0
256,200,58483,1,0
256,200,58587,5,8
256,200,58795,5,0
256,200,59004,1,0
256,200,59108,1,0
256,200,59212,5,8
256,200,59420,5,0
256,200,59525,1,0
256,200,59629,5,8
256,200,59837,5,0
256,200,59941,5,8
256,200,60045,1,8
256,200,60150,1,8
256,200,60254,1,8
256,200,60462,5,0
256,200,60670,1,4
256,200,60879,1,4
256,200,61087,5,12
256,200,61295,1,12
256,200,61712,5,0
256,200,61816,1,0
256,200,61920,5,8
256,200,62129,5,0
256,200,62337,5,8
256,200,62545,5,0
256,200,62754,5,8
256,200,62858,5,0
256,200,62962,1,0
256,192,63170,5,8
256,192,63379,1,8
256,192,63483,5,0
256,192,63587,5,8
256,192,63691,1,8
256,192,63795,1,8
256,192,64004,5,4
256,192,64212,5,8
256,192,64420,5,0
256,192,64629,5,8
256,192,64733,1,8
256,192,64837,5,0
256,192,64941,1,0
256,192,65045,5,8
256,192,65150,1,8
256,192,65254,5,0
256,192,65358,1,0
256,192,65462,5,8
256,192,65566,1,8
256,192,65670,5,0
256,192,65879,1,0
256,192,66087,1,0
256,192,66295,1,0
256,192,66504,1,0
256,192,66712,5,8
256,192,66920,1,8
256,192,67025,1,8
256,192,67129,1,8
256,192,67233,1,8
256,200,67337,5,0
256,200,67545,5,8
256,200,67650,5,0
256,200,67754,5,8
256,200,67962,5,0
256,200,68066,5,8
256,200,68170,5,0
256,200,68379,5,8
256,200,68483,5,0
256,200,68587,5,8
256,200,68795,5,0
256,200,68900,5,8
256,200,69004,5,0
256,200,69212,5,8
256,200,69316,5,0
256,200,69420,5,8
256,200,69629,5,0
256,200,69733,1,0
256,200,69837,5,8
256,200,69941,5,0
256,200,70045,1,0
256,200,70254,5,8
256,200,70462,5,0
256,200,70566,1,0
256,200,70670,1,0
256,200,70879,1,0
256,200,71087,5,12
256,200,71295,5,0
256,200,71400,1,0
256,200,71504,1,0
256,200,71712,1,0
256,200,71920,5,12
256,200,72129,5,0
256,200,72233,1,0
256,200,72337,1,0
256,200,72545,5,8
256,200,72754,5,0
256,200,72858,1,0
256,200,72962,5,8
256,200,73170,5,0
256,200,73379,5,12
256,200,73587,1,12
256,200,74004,5,0
256,200,74212,5,8
256,200,74316,5,0
256,200,74420,5,8
256,200,74629,1,8
256,200,74733,1,8
256,200,74837,5,0
256,200,75045,5,8
256,200,75150,5,0
256,200,75254,5,8
256,200,75462,1,8
256,200,75566,1,8
256,200,75670,5,0
256,200,75879,5,8
256,200,75983,5,0
256,200,76087,5,8
256,200,76295,1,8
256,200,76400,1,8
256,200,76504,5,0
256,200,76608,5,8
256,200,76712,5,0
256,200,76920,5,8
256,200,77129,5,0
256,200,77233,1,0
256,200,77337,1,0
256,200,77441,1,0
256,200,77545,1,0
256,200,77754,5,12
256,200,77962,5,0
256,200,78066,1,0
256,200,78170,1,0
256,200,78275,1,0
256,200,78379,1,0
256,200,78587,5,12
256,200,78796,5,0
256,192,79004,1,4
256,192,79212,5,12
256,192,79421,5,4
256,192,79629,5,12
256,192,79837,5,0
256,192,79941,1,0
256,192,80046,1,0
256,192,80150,1,0
256,192,80254,5,8
256,192,80358,1,8
256,192,80462,1,8
256,192,80566,1,8
256,192,80671,5,0
256,200,80879,5,8
256,200,80983,5,0
256,200,81087,5,8
256,200,81296,5,0
256,200,81400,5,8
256,200,81504,5,0
256,200,81712,5,8
256,200,81816,5,0
256,200,81921,5,8
256,200,82129,5,0
256,200,82233,5,8
256,200,82337,5,0
256,200,82546,5,8
256,200,82650,5,0
256,200,82754,5,8
256,200,82962,5,0
256,200,83066,5,8
256,200,83171,1,8
256,200,83275,1,8
256,200,83379,5,0
256,200,83587,5,8
256,200,83796,5,0
256,200,83900,1,0
256,200,84004,1,0
256,200,84212,1,0
256,200,84421,5,12
256,200,84629,5,0
256,200,84733,1,0
256,200,84837,1,0
256,200,85046,1,0
256,200,85254,5,12
256,200,85462,5,0
256,200,85566,1,0
256,200,85671,1,0
256,200,85775,1,0
256,200,85879,5,8
256,200,86087,5,0
256,200,86191,1,0
256,200,86296,5,8
256,200,86504,5,0
256,200,86608,1,0
256,200,86712,1,0
256,200,86816,5,8
256,200,86921,5,0
256,200,87337,1,0
256,200,87546,5,8
256,200,87650,5,0
256,200,87754,5,8
256,200,87962,1,8
256,200,88066,1,8
256,200,88171,5,0
256,200,88379,5,8
256,200,88483,5,0
256,200,88587,5,8
256,200,88796,1,8
256,200,88900,1,8
256,200,89004,5,0
256,200,89212,5,8
256,200,89316,5,0
256,200,89421,5,8
256,200,89629,1,8
256,200,89733,5,0
256,200,89837,5,8
256,200,89941,1,8
256,200,90046,5,0
256,200,90254,5,8
256,200,90462,5,0
256,200,90566,1,0
256,200,90671,5,8
256,200,90775,5,0
256,200,90879,1,0
256,200,90983,1,0
256,200,91087,5,8
256,200,91296,5,0
256,200,91400,1,0
256,200,91504,5,8
256,200,91608,5,0
256,200,91712,5,8
256,200,91816,5,0
256,200,91921,5,8
256,192,92129,5,0
256,192,92233,5,8
256,192,92337,5,0
256,192,92546,5,12
256,192,92754,5,4
256,192,92962,5,12
256,192,93171,5,4
