osu file format v9

[General]
AudioFilename: Symphony.mp3
AudioLeadIn: 2000
PreviewTime: 67347
Countdown: 0
SampleSet: Soft
StackLeniency: 0.7
Mode: 0
LetterboxInBreaks: 1

[Editor]
DistanceSpacing: 0.9
BeatDivisor: 4
GridSize: 8

[Metadata]
Title:Symphonic Love (Short Ver.)
Artist:Hashimoto Miyuki
Creator:suirenn05
Version:Normal
Source:Mashiro Iro Symphony -Love is pure white-
Tags:Cookiezi Palette KDS

[Difficulty]
HPDrainRate:3
CircleSize:3
OverallDifficulty:4
ApproachRate:4
SliderMultiplier:1.2
SliderTickRate:1

[Events]
//Background and Video events
0,0,"2.jpg"
//Break Periods
//Storyboard Layer 0 (Background)
//Storyboard Layer 1 (Fail)
//Storyboard Layer 2 (Pass)
//Storyboard Layer 3 (Foreground)
//Storyboard Sound Samples
//Background Colour Transformations
3,100,163,162,255

[TimingPoints]
671,416.666666666667,4,2,0,100,1,0
3587,-100,4,2,0,80,0,0
4421,-100,4,2,0,60,0,0
5254,-100,4,2,0,50,0,0
6087,-100,4,2,0,40,0,0
7337,-100,4,2,0,60,0,0
7754,-100,4,2,0,100,0,0
10671,-100,4,2,0,80,0,0
11504,-100,4,2,0,60,0,0
12337,-100,4,2,0,100,0,0
14837,-100,4,2,0,80,0,0
15671,-100,4,2,0,60,0,0
17337,-100,4,2,0,80,0,0
21087,-100,4,2,0,60,0,0
21921,-100,4,2,0,40,0,0
23171,-100,4,2,0,80,0,0
26921,-100,4,2,0,70,0,0
28587,-100,4,2,0,70,0,0
29004,-100,4,2,0,100,0,0
30254,-100,4,2,0,70,0,0
30671,-100,4,2,0,100,0,0
31921,-100,4,2,0,70,0,0
32337,-100,4,2,0,100,0,0
33379,-100,4,2,0,70,0,0
34004,-100,4,2,0,100,0,0
35254,-100,4,2,0,70,0,0
35671,-100,4,2,0,100,0,0
36921,-100,4,2,0,70,0,0
37337,-100,4,2,0,100,0,0
41087,-100,4,2,0,80,0,0
41921,-100,4,2,0,60,0,0
43171,-100,4,2,0,80,0,0
43379,-100,4,2,0,60,0,0
44004,-100,4,2,0,80,0,0
44212,-100,4,2,0,60,0,0
44421,-100,4,2,0,100,0,0
46504,-100,4,2,0,80,0,0
47337,-100,4,2,0,100,0,0
47754,-100,4,2,0,80,0,0
48587,-100,4,2,0,60,0,0
49421,-100,4,2,0,50,0,0
50254,-100,4,2,0,40,0,0
50671,-100,4,2,0,80,0,0
51087,-100,4,2,0,90,0,0
51504,-100,4,2,0,100,0,0
54004,-100,4,2,0,70,0,0
54837,-100,4,2,0,100,0,0
57337,-100,4,2,0,70,0,0
58171,-100,4,2,0,100,0,0
60671,-100,4,2,0,70,0,0
61504,-100,4,2,0,80,0,0
67337,-100,4,2,0,80,0,1
70254,-100,4,2,0,80,0,1
70671,-100,4,2,0,100,0,1
73587,-100,4,2,0,70,0,1
74004,-100,4,2,0,100,0,1
79004,-100,4,2,0,80,0,1
80254,-100,4,2,0,100,0,1
83379,-100,4,2,0,70,0,1
84004,-100,4,2,0,100,0,1
86712,-100,4,2,0,70,0,1
86921,-100,4,2,0,100,0,1
90254,-100,4,2,0,70,0,1
90671,-100,4,2,0,100,0,1
93171,-100,4,2,0,100,0,0

[Colours]
Combo1 : 255,128,255
Combo2 : 255,0,255
Combo3 : 255,0,128

[HitObjects]
256,176,671,2,0,B|256:112,2,60
232,280,1504,1,0
328,232,1921,1,0
400,312,2337,2,0,B|448:280|448:280|448:208,1,120
480,112,3171,1,0
392,48,3587,1,2
320,120,4004,6,0,B|216:192,2,120,0|2|0
312,24,5254,1,2
208,56,5671,1,0
256,152,6087,2,0,B|256:272,2,120,2|0|4
152,168,7337,6,0,B|176:224|152:288,1,120,4|0
240,352,8171,1,0
280,312,8379,1,0
328,328,8587,1,0
384,240,9004,2,0,B|408:192|480:176,1,120
440,72,9837,1,0
400,112,10046,1,0
344,104,10254,1,0
256,40,10671,6,0,B|152:96|152:96,1,120,2|0
40,88,11504,2,0,B|56:216,1,120,2|0
160,232,12337,1,4
160,344,12754,2,0,B|272:384|400:312,1,240
480,256,14004,6,0,B|496:200|480:136,1,120,4|2
392,72,14837,1,0
344,96,15045,1,0
296,72,15254,1,2
312,176,15670,2,0,B|256:280,1,120,0|2
200,184,16504,2,0,B|144:288,1,120,0|2
32,280,17337,5,2
88,184,17754,1,0
80,80,18170,2,0,B|168:120|280:72,1,180
296,48,19004,1,0
400,56,19421,1,0
440,96,19629,1,0
440,152,19837,1,0
408,256,20254,2,0,B|424:312,2,60,0|0|4
352,160,21087,5,2
312,200,21296,1,0
320,256,21504,1,0
216,216,21921,1,2
224,272,22129,1,0
216,328,22337,1,0
112,304,22754,2,0,B|88:360,2,60,2|0|2
88,200,23587,1,0
144,104,24004,5,2
200,112,24212,1,0
248,88,24421,1,0
352,88,24837,1,2
288,176,25254,1,0
288,288,25671,1,2
344,288,25879,1,0
392,264,26087,2,0,B|440:312,2,60,4|0|4
336,168,26921,1,0
232,192,27337,5,4
216,296,27754,2,0,B|248:352,2,60,0|0|0
136,224,28587,1,2
72,312,29004,1,0
32,208,29421,1,0
32,152,29629,1,0
72,120,29837,1,0
176,96,30254,1,2
184,200,30671,5,0
280,248,31087,2,0,B|224:352,2,120,0|0|2
328,152,32337,1,0
368,192,32546,1,0
368,248,32754,1,0
464,208,33171,2,0,B|496:264,2,60,0|8|8
464,96,34004,5,4
360,128,34421,1,0
264,72,34837,1,0
216,48,35046,1,0
160,48,35254,1,2
192,152,35671,1,0
112,224,36087,1,0
72,120,36504,2,0,B|40:64,2,60,0|0|2
40,224,37337,5,0
64,328,37754,1,0
168,320,38171,1,0
184,272,38379,1,0
232,256,38587,1,2
296,344,39004,2,0,B|344:312|416:320,1,120
488,248,39837,1,2
400,192,40254,6,0,B|472:184|480:112,1,120,0|4
376,80,41087,2,0,B|328:24|264:56,1,120,0|2
304,152,41920,1,0
264,256,42337,1,2
176,192,42754,1,0
160,144,42962,1,0
176,88,43170,1,2
72,96,43587,2,0,B|32:40,2,60,0|0|2
32,200,44420,5,0
136,192,44837,1,2
224,256,45254,2,0,B|144:352,2,120,0|2|0
200,152,46504,1,2
304,192,46920,1,4
296,296,47337,6,0,B|400:224,1,120,0|2
464,312,48170,2,0,B|528:272|480:192,1,120,0|2
456,104,49004,2,0,B|432:48|432:48|352:56,1,120,0|2
264,72,49837,2,0,B|208:40|152:88|152:88,1,120,0|2
184,192,50670,5,2
88,144,51087,1,0
56,248,51504,1,2
104,264,51712,1,0
144,304,51920,2,0,B|144:368,2,60,0|0|4
464,56,54004,6,0,B|360:112,1,120,4|2
264,56,54837,1,0
184,128,55254,1,0
208,232,55670,2,0,B|128:328,1,120
240,344,56504,1,0
296,344,56712,1,0
336,312,56920,1,2
296,208,57337,6,0,B|232:104,1,120
344,120,58170,1,0
400,216,58587,1,0
496,160,59004,2,0,B|464:40,1,120
360,24,59837,1,0
336,72,60045,1,0
336,128,60254,1,2
288,224,60670,5,4
232,128,61087,2,0,B|168:144|128:80,1,120,2|0
64,168,61920,2,0,B|16:208|56:288,1,120
136,344,62754,1,0
208,264,63170,1,2
264,256,63379,1,0
304,288,63587,1,2
256,192,64004,12,4,65670
256,168,67337,6,0,B|256:24,2,120,4|0|0
336,240,68587,1,0
392,224,68795,1,0
424,272,69004,1,0
336,336,69420,1,0
224,336,69837,2,0,B|160:344,2,60,0|0|4
288,256,70670,6,0,B|352:240|336:144,1,120,0|0
424,224,71504,1,0
456,176,71712,1,0
448,120,71920,1,0
344,88,72337,2,0,B|344:40|280:24|248:64,1,120
232,160,73170,1,2
184,136,73379,1,0
160,88,73587,1,2
72,152,74004,6,0,B|16:192|64:264,1,120,4|0
160,296,74837,1,0
224,208,75254,2,0,B|264:160,2,60
256,312,76087,2,0,B|304:368,2,60
152,272,76920,2,0,B|80:288|72:208,1,120
48,104,77754,2,0,B|80:48|168:80,1,120
368,120,79004,6,0,B|472:48,2,120,2|0|2
272,168,80254,1,0
184,104,80671,1,4
152,144,80879,1,0
152,200,81087,1,0
240,256,81504,1,0
272,296,81712,1,0
256,344,81921,1,0
152,344,82337,2,0,B|72:352|64:272,1,120
128,192,83171,2,0,B|96:136,1,60,2|0
240,56,84004,5,0
344,88,84421,1,0
328,192,84837,2,0,B|384:232,2,60
240,128,85671,2,0,B|152:120|144:200,1,120
48,232,86504,1,2
96,256,86712,1,0
112,304,86921,1,2
208,352,87337,5,4
248,256,87754,1,0
352,264,88171,2,0,B|464:216,2,120
312,168,89421,1,0
392,96,89837,1,0
344,72,90046,1,0
288,72,90254,1,0
256,192,90671,12,4,93171
