osu file format v9

[General]
AudioFilename: Symphony.mp3
AudioLeadIn: 2000
PreviewTime: 67347
Countdown: 0
SampleSet: Soft
StackLeniency: 0.7
Mode: 0
LetterboxInBreaks: 1

[Editor]
DistanceSpacing: 1
BeatDivisor: 4
GridSize: 8

[Metadata]
Title:Symphonic Love (Short Ver.)
Artist:Hashimoto Miyuki
Creator:suirenn05
Version:Easy
Source:Mashiro Iro Symphony -Love is pure white-
Tags:Cookiezi Palette KDS

[Difficulty]
HPDrainRate:2
CircleSize:3
OverallDifficulty:2
ApproachRate:3
SliderMultiplier:0.7
SliderTickRate:1

[Events]
//Background and Video events
0,0,"easy.jpg"
//Break Periods
//Storyboard Layer 0 (Background)
//Storyboard Layer 1 (Fail)
//Storyboard Layer 2 (Pass)
//Storyboard Layer 3 (Foreground)
//Storyboard Sound Samples
//Background Colour Transformations
3,100,163,162,255

[TimingPoints]
671,416.666666666667,4,2,0,80,1,0
54004,-100,4,2,0,85,0,0
54837,-100,4,2,0,50,0,0
57337,-100,4,2,0,85,0,0
58171,-100,4,2,0,50,0,0
60671,-100,4,2,0,85,0,0
61504,-100,4,2,0,50,0,0
65671,-100,4,2,0,70,0,0
67337,-100,4,2,0,70,0,1
93171,-100,4,2,0,60,0,0

[Colours]
Combo1 : 255,128,255
Combo2 : 255,0,255
Combo3 : 255,0,128

[HitObjects]
88,232,671,2,0,B|88:312|176:376|256:312|256:232,1,280.000002384186,2|0
224,96,3171,2,0,B|272:0|408:16|432:136,1,280,0|2
472,264,5671,2,0,B|432:320|432:320|352:320,1,140.000001192093
224,328,7337,6,0,B|112:328|112:328|40:176|40:176,1,280.000002384186,4|0
120,64,9837,2,0,B|176:8|296:32|336:160,1,280
416,272,12337,2,0,B|288:320|288:320|152:272,1,280.000002384186,4|2
32,200,14837,6,0,B|0:96|104:8|216:64,1,280,0|2
328,112,17337,1,2
472,200,19004,6,0,B|488:328|392:384|296:336,1,280,0|4
160,320,21504,2,0,B|64:320|24:232|72:160|168:160,1,280.000002384186,0|2
256,192,24004,12,4,25671
448,96,27337,6,0,B|472:168|424:232,1,140
296,280,29004,2,0,B|248:344|160:336,1,140.000001192093
144,200,30671,2,0,B|72:168|48:96,1,140.000001192093
176,40,32337,5,0
312,48,33171,1,8
232,168,34004,2,0,B|312:160|352:224,1,140.000001192093,4|0
480,280,35671,2,0,B|440:344|344:336,1,140.000001192093
216,344,37337,2,0,B|136:312|152:224,1,140.000001192093
136,96,39004,6,0,B|192:32|256:16|328:32|376:96,1,280,0|2
464,208,41504,2,0,B|424:376|256:344,1,280,0|2
120,304,44004,1,2
192,184,44837,1,0
72,112,45670,6,0,B|112:48|200:48,1,140.000001192093
328,64,47337,1,2
424,160,48170,2,0,B|424:237|360:277,2,140.000001192093,0|0|2
296,224,50670,2,0,B|229:259|153:215,1,140.000001192093,2|0
64,120,52337,1,4
336,72,54004,6,0,B|400:48|480:80,1,140.000001192093,4|0
368,168,55670,1,0
456,280,56504,1,0
320,320,57337,6,0,B|256:344|256:344|176:320,1,140.000001192093,4|0
64,264,59004,1,0
192,208,59837,1,0
168,72,60670,6,0,B|240:56|240:56|312:80,1,140.000001192093,4|0
416,160,62337,1,0
392,296,63170,1,0
256,192,64004,12,0,65670
304,304,67337,6,0,B|368:352|432:304,1,140.000001192093,4|2
488,176,69004,1,2
416,56,69837,2,0,B|352:8|288:56,1,140.000001192093,2|2
144,40,71504,6,0,B|104:120|152:184,1,140.000001192093,2|2
280,208,73170,1,0
320,344,74004,6,0,B|440:360|496:264|424:160,1,280,4|2
360,40,76504,2,0,B|192:40|152:192,1,280.000002384186,2|2
280,248,79004,5,4
176,344,79837,1,0
80,248,80671,6,0,B|24:184|80:120,1,140.000001192093,4|2
200,48,82337,2,0,B|264:16|344:56,1,140.000001192093,2|2
288,184,84004,6,0,B|416:248,1,140.000001192093,2|2
304,336,85671,2,0,B|160:336,1,140.000001192093,2|4
96,216,87337,6,0,B|48:152|96:88,1,140.000001192093,4|2
216,160,89004,2,0,B|264:224|352:208,1,140.000001192093,2|2
256,192,90671,12,0,93171
