osu file format v11

[General]
AudioFilename: Symphony.mp3
AudioLeadIn: 2000
PreviewTime: 67333
Countdown: 0
SampleSet: Soft
StackLeniency: 0.7
Mode: 0
LetterboxInBreaks: 0

[Editor]
DistanceSpacing: 1.2
BeatDivisor: 4
GridSize: 32

[Metadata]
Title:Symphonic Love (Short Ver.)
TitleUnicode:シンフォニック・ラブ (Short Ver.)
Artist:Hashimoto Miyuki
ArtistUnicode:橋本 みゆき
Creator:DarknessAngel
Version:Difficult
Source:Mashiro Iro Symphony -Love is pure white-
Tags:palette hentai game eroge opening Pokie alacat KayeSara
BeatmapID:208847
BeatmapSetID:71697

[Difficulty]
HPDrainRate:5
CircleSize:4
OverallDifficulty:6
ApproachRate:7
SliderMultiplier:1.6
SliderTickRate:1

[Events]
//Background and Video events
0,0,"pure white.jpg"
Video,-950,"OP.avi"
//Break Periods
//Storyboard Layer 0 (Background)
//Storyboard Layer 1 (Fail)
//Storyboard Layer 2 (Pass)
//Storyboard Layer 3 (Foreground)
//Storyboard Sound Samples
//Background Colour Transformations
3,100,163,162,255

[TimingPoints]
617,416.666666666667,4,2,1,50,1,0
4367,-111.111111111111,4,2,1,40,0,0
4575,-111.111111111111,4,2,1,50,0,0
4783,-111.111111111111,4,2,1,40,0,0
4992,-111.111111111111,4,2,1,50,0,0
5200,-125,4,2,1,35,0,0
5617,-125,4,2,1,50,0,0
6033,-142.857142857143,4,2,1,35,0,0
6242,-142.857142857143,4,2,1,50,0,0
6450,-142.857142857143,4,2,1,30,0,0
6658,-142.857142857143,4,2,1,50,0,0
6867,-166.666666666667,4,2,1,30,0,0
7283,-100,4,2,1,60,0,0
13950,-100,4,2,2,70,0,0
24783,-100,4,2,2,50,0,0
25200,-100,4,2,2,60,0,0
25617,-100,4,2,2,70,0,0
27075,-100,4,2,1,65,0,0
40200,-100,4,2,1,80,0,0
40617,-100,4,2,2,65,0,0
52283,-100,4,2,2,50,0,0
53325,-100,4,2,1,60,0,0
53533,-100,4,1,1,50,0,0
53950,-100,4,2,1,60,0,0
54158,-100,4,2,2,60,0,0
54367,-100,4,2,1,60,0,0
54575,-100,4,2,2,60,0,0
54992,-100,4,2,1,60,0,0
57492,-100,4,2,2,60,0,0
57700,-100,4,2,1,60,0,0
57908,-100,4,2,2,60,0,0
58325,-100,4,2,1,60,0,0
60825,-100,4,2,2,60,0,0
61033,-100,4,2,1,60,0,0
61242,-100,4,2,2,60,0,0
61658,-100,4,2,1,60,0,0
66033,-100,4,2,1,55,0,0
66450,-100,4,2,1,65,0,0
67283,-100,4,1,1,60,0,1
79783,-100,4,1,1,60,0,0
80617,-100,4,1,1,60,0,1
91450,-100,4,1,1,50,0,1
92283,-100,4,2,0,60,0,0

[Colours]
Combo1 : 181,106,255
Combo2 : 119,255,255
Combo3 : 79,114,253
Combo4 : 250,245,75
Combo5 : 113,255,113
Combo6 : 184,112,112
Combo7 : 255,172,89
Combo8 : 250,95,226

[HitObjects]
444,105,617,5,0,1:0:0
444,105,825,1,0,1:0:0
444,105,1033,2,0,P|406:124|366:124,1,80,0|0,0:0|1:0,0:0:0
282,105,1450,1,0,0:0:0
196,85,1658,1,0,1:0:0
196,85,2075,5,0,0:0:0
115,49,2283,2,0,P|73:41|33:44,2,80,0|0|0,1:0|1:0|0:0,0:0:0
196,85,2908,2,0,P|189:126|167:163,1,80,0|0,1:0|0:0,0:0:0
84,136,3325,1,0,1:0:0
106,220,3533,2,0,P|126:258|158:278,1,80
240,303,3950,5,0,1:0:0
240,303,4158,1,0,1:0:0
319,303,4367,2,0,P|361:301|392:292,1,71.9999978027344,0|0,0:0|1:0,0:0:0
236,267,4783,5,0,0:0:0
236,267,4992,1,0,1:0:0
304,250,5200,2,0,P|339:241|366:225,1,64
219,228,5617,5,0,1:0:0
219,228,5825,1,0,1:0:0
274,202,6033,2,0,P|306:185|319:165,1,55.9999982910157,0|0,0:0|1:0,0:0:0
195,195,6450,5,0,0:0:0
195,195,6658,1,0,1:0:0
238,165,6867,2,0,P|253:143|261:121,1,47.9999985351563
193,66,7283,5,4,1:0:0
104,66,7492,1,0,0:0:0
61,142,7700,1,8,0:0:0
109,216,7908,2,0,P|127:303|62:319,1,160,0|0,1:0|1:0,0:0:0
36,234,8533,2,0,P|72:212|114:218,1,80,8|0,0:0|0:0,0:0:0
195,195,8950,5,0,1:0:0
267,243,9158,1,0,1:0:0
351,219,9367,1,8,0:0:0
407,151,9575,2,0,P|411:104|401:68,1,80,0|0,1:0|0:0,0:0:0
316,90,9992,1,0,1:0:0
271,165,10200,2,0,P|262:196|266:243,1,80,8|0,0:0|0:0,0:0:0
293,326,10617,6,0,P|374:338|451:331,1,160,0|8,1:0|0:0,0:0:0
485,249,11242,2,0,P|499:204|498:167,1,80,0|0,1:0|0:0,0:0:0
431,114,11658,1,0,1:0:0
344,129,11866,1,8,0:0:0
326,215,12075,1,0,0:0:0
326,215,12179,1,0,0:0:0
326,215,12283,1,4,1:0:0
256,192,12387,12,0,13741,0:0:0
196,253,13950,5,4,1:0:0
127,197,14158,2,0,P|118:115,1,80,0|8,0:0|0:0,0:0:0
239,54,14575,1,0,0:0:0
239,54,14679,1,0,0:0:0
239,54,14783,1,2,0:0:0
315,98,14991,2,0,P|323:177,1,80,0|8,0:0|0:0,0:0:0
239,330,15408,5,0,0:0:0
239,330,15512,1,0,0:0:0
239,330,15616,1,2,0:0:0
196,253,15825,1,0,0:0:0
283,252,16033,2,0,P|324:252|363:257,1,80,8|0,0:0|0:0,0:0:0
440,298,16450,2,0,P|457:254|463:218,1,80,2|0,0:0|0:0,0:0:0
446,135,16866,1,8,0:0:0
320,62,17075,5,0,0:0:0
320,62,17179,1,0,0:0:0
320,62,17283,2,0,P|275:56|235:62,1,80,2|0,0:0|0:0,0:0:0
178,123,17700,1,8,0:0:0
294,207,17908,1,0,0:0:0
294,207,18012,1,0,0:0:0
294,207,18116,2,0,P|339:213|379:207,1,80,2|0,0:0|0:0,0:0:0
436,146,18533,1,8,0:0:0
409,61,18741,5,0,0:0:0
321,62,18950,2,0,P|268:123,1,80,2|0,0:0|0:0,0:0:0
212,190,19367,1,8,0:0:0
183,106,19575,1,0,0:0:0
294,207,19783,2,0,P|306:291,1,80,2|8,0:0|0:0,0:0:0
212,190,20200,2,0,P|175:261,1,80,8|0,0:0|0:0,0:0:0
112,142,20617,6,0,P|183:106,1,80,4|0,1:0|0:0,0:0:0
256,57,21033,1,8,0:0:0
398,81,21242,2,0,P|438:61,2,40,0|0|2,0:0|0:0|0:0,0:0:0
319,119,21658,1,0,0:0:0
319,119,21867,1,8,0:0:0
213,165,22075,6,0,P|173:145,2,40,0|0|2,0:0|0:0|0:0,0:0:0
292,203,22492,1,0,0:0:0
292,203,22700,1,8,0:0:0
438,224,22908,2,0,P|478:204,2,40,0|0|2,0:0|0:0|0:0,0:0:0
359,262,23325,1,0,0:0:0
359,262,23533,1,8,0:0:0
212,279,23742,5,0,0:0:0
212,279,23846,1,0,0:0:0
212,279,23950,2,0,P|251:298|286:305,1,80,2|2,0:0|0:0,0:0:0
292,203,24367,2,0,P|253:184|218:177,1,80,10|2,0:0|0:0,0:0:0
141,220,24783,2,0,P|112:247,3,40,2|2|2|2,0:0|0:0|0:0|0:0,0:0:0
72,267,25200,2,0,P|30:257,3,40,2|2|2|2,0:0|0:0|0:0|0:0,0:0:0
21,214,25617,6,0,P|-2:134,1,80,0|0,1:0|1:0,0:0:0
109,35,26033,2,0,P|31:54,1,80,0|0,1:0|1:0,0:0:0
114,145,26450,1,0,1:0:0
114,145,26658,1,0,1:0:0
349,111,27075,6,0,P|378:82,2,40,0|0|4,0:0|0:0|0:0,0:0:0
267,78,27492,1,0,0:0:0
267,78,27596,1,0,0:0:0
267,78,27700,1,8,0:0:0
278,165,27908,1,0,1:0:0
152,236,28117,5,0,0:0:0
270,318,28325,1,2,0:0:0
319,245,28533,5,8,0:0:0
278,165,28742,1,0,0:0:0
278,165,28846,1,0,0:0:0
278,165,28950,1,2,0:0:0
365,170,29158,2,0,P|405:151,2,40,0|0|8,0:0|0:0|0:0,0:0:0
319,245,29575,6,0,P|272:257|237:246,1,80,0|0,1:0|0:0,0:0:0
235,89,29992,2,0,P|282:77|317:88,1,80,2|8,0:0|0:0,0:0:0
278,165,30408,5,0,0:0:0
189,166,30617,1,2,0:0:0
148,88,30825,2,0,P|108:65,2,40,0|0|8,0:0|0:0|0:0,0:0:0
101,163,31242,1,0,1:0:0
140,301,31450,5,0,0:0:0
26,212,31658,1,2,0:0:0
62,293,31867,6,0,P|103:304|144:300,1,80,8|0,0:0|0:0,0:0:0
226,282,32283,1,2,0:0:0
226,282,32387,1,2,0:0:0
226,282,32492,1,0,1:0:0
279,175,32700,1,8,0:0:0
397,189,32908,1,2,0:0:0
421,306,33117,1,0,0:0:0
315,363,33325,1,8,0:1:0
326,261,33533,5,8,0:1:0
397,189,33742,6,0,P|437:180,2,40,0|0|4,0:0|0:0|0:0,0:0:0
346,116,34158,2,0,P|368:83,2,40,0|0|8,0:0|0:0|0:0,0:0:0
279,175,34575,1,0,1:0:0
279,175,34679,1,0,0:0:0
279,175,34783,1,0,0:0:0
202,52,34992,5,2,0:0:0
279,175,35200,2,0,P|235:186|200:183,1,80,8|0,0:0|0:0,0:0:0
142,116,35617,5,2,0:0:0
202,52,35825,2,0,P|237:49|281:60,1,80,0|8,0:0|0:0,0:0:0
346,117,36242,1,0,1:0:0
346,117,36346,1,0,0:0:0
346,117,36450,1,0,0:0:0
310,256,36658,5,2,0:0:0
346,117,36867,2,0,P|386:114|429:120,1,80,8|0,0:0|0:0,0:0:0
457,201,37283,6,0,P|417:204|374:198,1,80,2|0,0:0|0:0,0:0:0
310,256,37700,2,0,P|297:328|371:348,1,160,8|0,0:0|0:0,0:0:0
388,264,38325,2,0,P|343:254|307:256,1,80,2|8,0:0|0:0,0:0:0
222,268,38742,5,0,0:0:0
222,268,38846,1,0,0:0:0
222,268,38950,2,0,P|196:229,2,40,2|2|2,0:0|0:0|0:0,0:0:0
185,348,39367,2,0,P|144:359|103:350,1,80,8|2,0:0|0:0,0:0:0
40,295,39783,1,0,0:0:0
87,220,39991,1,0,1:0:0
0,142,40200,5,8,0:1:0
214,77,40616,6,0,P|297:65|375:72,1,160,4|8,1:0|0:0,0:0:0
466,275,41450,2,0,P|383:287|305:280,1,160,2|8,0:0|0:0,0:0:0
87,221,42283,6,0,P|52:248|33:279,2,80,2|0|8,0:0|0:0|0:0,0:0:0
325,191,43116,2,0,P|360:164|379:133,2,80,2|0|8,0:0|0:0|0:0,0:0:0
237,178,43741,5,0,0:0:0
237,178,43846,1,0,0:0:0
237,178,43950,2,0,P|192:172|158:176,1,80,2|0,0:0|0:0,0:0:0
158,264,44366,2,0,P|203:270|236:265,1,80,8|0,0:0|0:0,0:0:0
376,266,44783,2,0,P|353:303|321:326,1,80,2|0,0:0|0:0,0:0:0
306,227,45200,2,0,P|329:190|361:167,1,80,8|0,0:0|0:0,0:0:0
357,168,45512,5,0,0:0:0
357,168,45616,1,2,0:0:0
438,135,45825,2,0,P|447:95|441:55,1,80,0|8,0:0|0:0,0:0:0
332,28,46241,1,0,0:0:0
256,110,46450,2,0,P|212:122|171:121,1,80,2|0,0:0|0:0,0:0:0
95,45,46866,2,0,P|139:33|180:34,1,80,8|0,0:0|0:0,0:0:0
256,110,47283,5,4,0:0:0
64,225,47700,1,8,0:0:0
64,225,48116,5,2,0:0:0
127,285,48325,1,0,0:0:0
204,243,48533,1,8,0:0:0
448,225,48950,5,2,0:0:0
385,285,49158,1,0,0:0:0
308,243,49366,1,8,0:0:0
308,243,49783,5,2,0:0:0
256,313,49991,1,0,0:0:0
204,243,50200,1,8,0:0:0
306,59,50616,6,0,P|343:131,1,80,2|2,0:0|0:0,0:0:0
206,59,51033,2,0,P|169:131,1,80,10|2,0:0|0:0,0:0:0
256,151,51450,1,2,0:0:0
256,170,51554,1,2,0:0:0
256,189,51658,1,2,0:0:0
256,208,51762,1,2,0:0:0
256,228,51866,2,0,P|256:271,3,40,10|2|2|2,0:0|0:0|0:0|0:0,0:0:0
293,290,52283,6,0,P|333:301|375:299,1,80,2|2,1:0|1:0,0:0:0
219,290,52700,2,0,P|179:301|137:299,1,80,2|2,1:0|1:0,0:0:0
63,229,53116,1,2,1:0:0
135,155,53325,1,8,0:0:0
119,52,53533,1,0,0:0:0
99,48,53637,1,0,0:0:0
78,48,53741,1,0,0:0:0
58,52,53846,1,0,0:0:0
40,61,53950,6,0,P|32:104|41:142,1,80,4|2,1:0|0:1,0:0:0
135,155,54366,2,0,P|176:137|203:108,1,80,8|2,0:0|0:1,0:0:0
390,67,54991,6,0,P|368:31,2,40,0|0|8,0:0|0:0|0:0,0:0:0
422,148,55408,1,2,0:0:0
430,235,55616,2,0,P|423:276|398:306,2,80,0|2|8,0:0|0:0|0:0,0:0:0
350,197,56241,1,0,0:0:0
235,231,56450,5,0,0:0:0
321,314,56658,1,2,0:0:0
350,197,56866,2,0,P|333:156|310:130,1,80,8|0,0:0|0:0,0:0:0
226,81,57283,6,0,P|259:50|296:34,1,80,4|2,0:0|0:1,0:0:0
158,137,57700,2,0,P|125:106|88:90,1,80,8|2,0:0|0:1,0:0:0
295,137,58325,6,0,P|334:120,2,40,0|0|8,0:0|0:0|0:0,0:0:0
226,81,58741,1,0,0:0:0
158,137,58950,2,0,P|119:120,2,40,0|0|2,0:0|0:0|0:0,0:0:0
227,192,59366,1,8,0:0:0
295,247,59575,1,2,0:0:0
295,247,59679,1,0,0:0:0
295,247,59783,2,0,P|301:288|289:327,1,80,0|8,0:0|0:0,0:0:0
227,192,60200,6,0,P|264:169|303:162,1,80,8|0,0:0|0:0,0:0:0
216,278,60616,5,4,0:0:0
129,319,60825,1,2,0:1:0
93,229,61033,1,8,0:0:0
6,270,61241,1,2,0:1:0
173,68,61658,6,0,P|129:48,2,40,0|0|8,0:0|0:0|0:0,0:0:0
256,96,62075,1,0,0:0:0
316,159,62283,2,0,P|356:163|398:146,1,80,0|2,0:0|0:0,0:0:0
444,78,62700,2,0,P|473:108|479:147,1,80,8|2,0:0|0:0,0:0:0
439,223,63116,5,0,0:0:0
385,292,63325,1,2,0:0:0
309,247,63533,1,8,0:0:0
256,318,63741,1,2,0:0:0
256,192,63950,12,4,65617,1:0:0
148,103,66033,5,0,1:0:0
135,132,66450,5,0,1:0:0
123,161,66866,6,0,P|98:237,1,80,0|0,1:0|0:0,0:0:0
147,319,67283,5,4,0:0:0
213,249,67491,1,0,0:0:0
308,246,67700,1,10,0:0:0
381,308,67908,2,0,P|348:331|307:342,1,80,0|2,0:0|0:0,0:0:0
308,246,68325,5,0,0:0:0
308,246,68429,1,0,0:0:0
308,246,68533,1,10,0:0:0
399,215,68741,2,0,P|404:176|398:130,1,80,0|2,0:0|0:0,0:0:0
310,41,69158,2,0,P|305:80|311:126,1,80,0|10,0:0|0:0,0:0:0
237,183,69575,1,0,0:0:0
141,186,69783,1,2,0:0:0
61,130,69991,2,0,P|57:82|61:48,1,80,0|10,0:0|0:0,0:0:0
160,60,70408,6,0,P|182:23,2,40,0|0|2,0:0|0:0|0:0,0:0:0
61,130,70825,2,0,P|22:136|-19:134,1,80,0|10,0:0|0:0,0:0:0
35,241,71241,2,0,P|1:276,2,40,0|0|2,0:0|0:0|0:0,0:0:0
141,186,71658,2,0,P|180:180|221:182,1,80,0|10,0:0|0:0,0:0:0
314,203,72075,5,0,0:0:0
314,203,72179,1,0,0:0:0
314,203,72283,1,2,0:0:0
425,186,72491,1,0,0:0:0
438,74,72700,1,10,0:0:0
340,18,72908,1,0,0:0:0
266,103,73116,1,2,0:0:0
355,113,73325,5,8,0:0:0
355,113,73533,1,10,0:0:0
255,321,73950,5,4,0:0:0
180,260,74158,1,0,0:0:0
96,308,74366,1,10,0:0:0
36,232,74575,2,0,P|26:190|25:151,1,80,0|2,0:0|0:0,0:0:0
19,57,74991,1,0,0:0:0
19,57,75408,6,0,P|59:64|93:86,1,80,0|2,0:0|0:0,0:0:0
171,139,75825,2,0,P|219:146|252:141,1,80,0|10,0:0|0:0,0:0:0
331,90,76241,1,0,0:0:0
331,90,76346,1,0,0:0:0
331,90,76450,1,2,0:0:0
414,137,76658,1,0,0:0:0
256,299,77075,6,0,P|219:327,2,40,0|0|2,0:0|0:0|0:0,0:0:0
362,239,77491,2,0,P|334:211|299:187,1,80,0|10,0:0|0:0,0:0:0
256,299,77908,2,0,P|293:327,2,40,0|0|2,0:0|0:0|0:0,0:0:0
150,239,78325,2,0,P|178:211|213:187,1,80,0|10,0:0|0:0,0:0:0
256,102,78742,5,0,0:0:0
256,102,78846,1,0,0:0:0
256,102,78950,2,0,P|256:21,1,80,2|0,0:0|0:0,0:0:0
164,51,79367,2,0,P|157:94|162:132,1,80,10|0,0:0|0:0,0:0:0
350,129,79783,2,0,P|355:94|348:51,1,80,2|2,0:0|0:0,0:0:0
256,102,80200,1,2,0:0:0
256,121,80304,1,2,0:0:0
256,140,80408,1,2,0:0:0
256,159,80512,1,2,0:0:0
256,179,80617,6,0,P|327:224|401:221,1,160,4|10,0:0|0:0,0:0:0
351,130,81242,1,0,0:0:0
351,130,81658,2,0,P|313:209,1,80,0|10,0:0|0:0,0:0:0
161,254,82075,1,0,0:0:0
161,254,82492,6,0,P|199:175,1,80,0|10,0:0|0:0,0:0:0
277,284,82908,1,0,0:0:0
369,310,83117,1,2,0:0:0
443,249,83325,2,0,P|453:208|456:167,1,80,0|10,0:0|0:0,0:0:0
396,94,83742,5,0,0:0:0
396,94,83846,1,0,0:0:0
396,94,83950,1,2,0:0:0
299,23,84158,1,0,0:0:0
256,126,84367,1,10,0:0:0
116,94,84575,5,0,0:0:0
116,94,84679,1,0,0:0:0
116,94,84783,1,2,0:0:0
213,23,84992,1,0,0:0:0
256,126,85200,1,10,0:0:0
256,221,85408,6,0,P|256:262,2,40,0|0|2,0:0|0:0|0:0,0:0:0
172,172,85825,1,0,0:0:0
256,126,86033,1,10,0:0:0
340,172,86242,1,0,0:0:0
256,221,86450,1,2,0:0:0
335,268,86658,5,8,0:0:0
177,268,86867,1,10,0:0:0
421,227,87283,5,4,0:0:0
340,172,87492,1,0,0:0:0
335,268,87700,1,10,0:0:0
421,227,87908,2,0,P|437:183|435:146,1,80,0|2,0:0|0:0,0:0:0
448,54,88325,2,0,P|413:58|372:76,1,80,0|10,0:0|0:0,0:0:0
278,95,88742,5,0,0:0:0
278,95,88846,1,0,0:0:0
278,95,88950,2,0,P|239:101|190:94,1,80,2|0,0:0|0:0,0:0:0
117,45,89367,2,0,P|102:83|108:125,1,80,10|0,0:0|0:0,0:0:0
175,187,89783,1,2,0:0:0
151,280,89992,1,0,0:0:0
151,280,90096,1,0,0:0:0
151,280,90200,1,10,0:0:0
83,212,90408,6,0,P|35:202,2,40,0|0|2,0:0|0:0|0:0,0:0:0
175,186,90825,1,2,0:0:0
243,253,91033,1,10,0:0:0
338,239,91242,1,2,0:0:0
381,153,91450,2,0,P|386:107,3,40,2|2|2|2,0:0|0:0|0:0|0:0,0:0:0
368,67,91867,2,0,P|327:39,3,40,2|2|2|2,0:0|0:0|0:0|0:0,0:0:0
287,44,92283,6,0,P|206:44,1,80,2|2,0:0|0:0,0:0:0
207,191,92700,2,0,P|287:191,1,80,0|2,0:0|0:0,0:0:0
162,118,93117,2,0,P|82:118,1,80,2|0,0:0|0:0,0:0:0
