osu file format v11

[General]
AudioFilename: Symphony.mp3
AudioLeadIn: 2000
PreviewTime: 67342
Countdown: 0
SampleSet: Normal
StackLeniency: 0.7
Mode: 1
LetterboxInBreaks: 0
SkinPreference:Default

[Editor]
DistanceSpacing: 0.8
BeatDivisor: 2
GridSize: 16

[Metadata]
Title:Symphonic Love
TitleUnicode:シンフォニック・ラブ
Artist:Hashimoto Miyuki
ArtistUnicode:Hashimoto Miyuki
Creator:Kuro
Version:Taiko Muzukashii
Source:Mashiro Iro Symphony
Tags:Acl138
BeatmapID:181405
BeatmapSetID:60705

[Difficulty]
HPDrainRate:5
CircleSize:3
OverallDifficulty:5
ApproachRate:3
SliderMultiplier:1.4
SliderTickRate:1

[Events]
//Background and Video events
0,0,"Taiko_BG.jpg"
//Break Periods
//Storyboard Layer 0 (Background)
//Storyboard Layer 1 (Fail)
//Storyboard Layer 2 (Pass)
//Storyboard Layer 3 (Foreground)
//Storyboard Sound Samples
//Background Colour Transformations
3,100,163,162,255

[TimingPoints]
676,416.666666666667,4,1,0,80,1,0
14009,-100,4,1,0,80,0,1
27342,-100,4,1,0,80,0,0
67342,-100,4,1,0,80,0,1
92342,-100,4,1,0,80,0,0

[HitObjects]
368,144,676,1,8,0:0:0
368,144,1509,1,8,0:0:0
288,48,2342,1,8,0:0:0
288,48,3176,1,8,0:0:0
336,64,4009,1,8,0:0:0
336,64,4842,1,8,0:0:0
336,64,5676,1,8,0:0:0
336,64,5884,1,8,0:0:0
336,64,6301,1,8,0:0:0
336,64,6717,1,8,0:0:0
282,67,7342,5,0,0:0:0
282,67,7759,1,8,0:0:0
160,208,8592,1,8,0:0:0
352,240,9009,1,0,0:0:0
282,67,9426,1,8,0:0:0
282,67,10259,1,8,0:0:0
160,208,10676,1,0,0:0:0
282,67,11092,1,8,0:0:0
282,67,11926,1,8,0:0:0
256,192,12342,12,0,13592,0:0:0
282,67,14009,5,0,0:0:0
282,67,14218,1,0,0:0:0
282,67,14426,1,8,0:0:0
282,67,14635,1,0,0:0:0
282,67,14843,1,0,0:0:0
282,67,15260,1,8,0:0:0
282,67,15676,5,0,0:0:0
282,67,15884,1,0,0:0:0
282,67,16092,1,8,0:0:0
282,67,16301,1,0,0:0:0
282,67,16509,1,0,0:0:0
282,67,16717,1,0,0:0:0
282,67,16926,1,8,0:0:0
282,67,17343,5,0,0:0:0
282,67,17551,1,0,0:0:0
282,67,17760,1,8,0:0:0
282,67,17968,1,0,0:0:0
282,67,18176,1,0,0:0:0
282,67,18593,1,8,0:0:0
282,67,19010,5,0,0:0:0
282,67,19218,1,0,0:0:0
282,67,19426,1,8,0:0:0
352,64,19635,1,0,0:0:0
192,112,19843,1,0,0:0:0
282,67,20051,1,0,0:0:0
282,67,20260,1,8,0:0:0
352,192,20676,5,0,0:0:0
282,67,20885,1,0,0:0:0
282,67,21093,1,8,0:0:0
282,67,21301,1,0,0:0:0
282,67,21510,1,0,0:0:0
282,67,21926,1,8,0:0:0
282,67,22343,5,0,0:0:0
282,67,22551,1,0,0:0:0
282,67,22760,1,8,0:0:0
282,67,22968,1,0,0:0:0
282,67,23176,1,0,0:0:0
282,67,23385,1,0,0:0:0
282,67,23593,1,8,0:0:0
282,67,24010,5,0,0:0:0
282,67,24218,1,0,0:0:0
282,67,24426,1,8,0:0:0
282,67,24635,1,0,0:0:0
231,44,24843,1,0,0:0:0
231,44,25051,1,0,0:0:0
231,44,25260,1,8,0:0:0
231,44,25468,1,0,0:0:0
231,44,25676,2,0,P|464:48,1,210
231,44,26509,1,0,0:0:0
231,44,26717,5,0,0:0:0
282,67,27342,5,4,0:0:0
282,67,27759,1,8,0:0:0
208,208,28176,1,0,0:0:0
282,67,28592,1,8,0:0:0
208,208,29009,1,0,0:0:0
282,67,29426,1,8,0:0:0
208,208,29842,1,0,0:0:0
282,67,30259,1,8,0:0:0
208,208,30676,1,0,0:0:0
282,67,31092,1,8,0:0:0
208,208,31509,1,0,0:0:0
282,67,31926,1,8,0:0:0
272,64,32342,5,0,0:0:0
282,67,32551,1,0,0:0:0
288,64,32759,1,8,0:0:0
282,67,32967,1,0,0:0:0
282,67,33176,1,0,0:0:0
272,64,33280,1,0,0:0:0
282,67,33384,1,0,0:0:0
282,67,33592,1,8,0:0:0
282,67,34009,1,0,0:0:0
282,67,34217,1,0,0:0:0
282,67,34426,1,8,0:0:0
282,67,34634,1,0,0:0:0
282,67,34842,1,0,0:0:0
282,67,35051,1,8,0:0:0
282,67,35467,5,0,0:0:0
288,64,35571,1,0,0:0:0
282,67,35676,1,0,0:0:0
282,67,35884,1,0,0:0:0
282,67,36092,1,8,0:0:0
282,67,36301,1,0,0:0:0
282,67,36509,1,0,0:0:0
282,67,36717,1,8,0:0:0
282,67,37134,5,0,0:0:0
282,67,37238,1,0,0:0:0
282,67,37342,1,0,0:0:0
282,67,37551,1,0,0:0:0
282,67,37759,1,8,0:0:0
336,160,38176,1,8,0:0:0
282,67,38384,1,0,0:0:0
282,67,38801,1,0,0:0:0
282,67,39009,1,0,0:0:0
282,67,39217,1,0,0:0:0
282,67,39426,1,8,0:0:0
282,67,39634,1,0,0:0:0
282,67,39842,1,0,0:0:0
282,67,40259,1,8,0:0:0
176,128,40467,1,0,0:0:0
282,67,40676,5,4,0:0:0
282,67,41092,1,0,0:0:0
282,67,41509,1,0,0:0:0
178,25,41926,1,8,0:0:0
282,67,42342,1,0,0:0:0
282,67,42759,1,0,0:0:0
282,67,43176,1,0,0:0:0
164,72,43592,1,8,0:0:0
282,67,44009,5,0,0:0:0
282,67,44426,1,0,0:0:0
282,67,44842,1,0,0:0:0
244,15,45259,1,8,0:0:0
176,112,45467,1,0,0:0:0
176,112,45676,1,8,0:0:0
176,112,45884,1,8,0:0:0
240,96,46092,1,0,0:0:0
176,112,46301,1,8,0:0:0
176,112,46509,1,8,0:0:0
176,112,46926,1,8,0:0:0
176,128,47342,5,0,0:0:0
192,112,47551,1,0,0:0:0
282,67,47759,1,8,0:0:0
282,67,47967,1,0,0:0:0
282,67,48176,1,0,0:0:0
282,67,48592,1,8,0:0:0
282,67,48801,1,0,0:0:0
282,67,48905,1,0,0:0:0
282,67,49009,5,0,0:0:0
282,67,49217,1,0,0:0:0
282,67,49426,1,8,0:0:0
282,67,49634,1,0,0:0:0
282,67,49842,1,0,0:0:0
282,67,50259,1,8,0:0:0
272,64,50467,1,8,0:0:0
282,67,50676,1,0,0:0:0
282,67,50884,1,0,0:0:0
282,67,51092,1,8,0:0:0
282,67,51301,1,0,0:0:0
282,67,51405,1,0,0:0:0
282,67,51509,5,0,0:0:0
282,67,51717,1,0,0:0:0
282,67,51926,1,8,0:0:0
352,64,52342,1,0,0:0:0
384,64,52446,1,0,0:0:0
384,64,52551,1,0,0:0:0
320,80,52759,1,0,0:0:0
352,80,52863,1,0,0:0:0
352,64,52967,1,0,0:0:0
368,64,53176,1,0,0:0:0
288,80,54009,5,4,0:0:0
282,67,54426,1,8,0:0:0
288,80,54634,1,0,0:0:0
400,16,55051,1,0,0:0:0
282,67,55259,1,8,0:0:0
400,16,55467,1,0,0:0:0
400,16,55676,1,0,0:0:0
400,16,55884,1,0,0:0:0
282,67,56092,1,8,0:0:0
282,67,56509,1,8,0:0:0
282,67,56717,1,0,0:0:0
282,67,56926,1,8,0:0:0
282,67,57342,5,0,0:0:0
282,67,57759,1,8,0:0:0
282,67,57967,1,0,0:0:0
192,176,58384,1,0,0:0:0
282,67,58592,1,8,0:0:0
368,192,58801,1,8,0:0:0
192,176,59009,1,0,0:0:0
192,176,59217,1,0,0:0:0
282,67,59426,1,8,0:0:0
192,176,60051,1,0,0:0:0
192,176,60259,1,8,0:0:0
224,144,60676,5,0,0:0:0
224,144,60884,1,0,0:0:0
224,144,61092,1,8,0:0:0
224,144,61301,1,0,0:0:0
224,144,61717,1,0,0:0:0
224,144,61821,1,0,0:0:0
224,144,61926,1,0,0:0:0
224,144,62134,1,0,0:0:0
224,144,62342,1,8,0:0:0
224,144,62551,1,0,0:0:0
282,67,62759,1,8,0:0:0
416,112,62967,1,0,0:0:0
416,112,63176,1,0,0:0:0
224,144,63384,1,0,0:0:0
282,67,63592,1,8,0:0:0
352,16,63801,1,8,0:0:0
160,64,64009,5,0,0:0:0
176,80,64426,1,0,0:0:0
176,80,64842,1,8,0:0:0
176,80,64946,1,8,0:0:0
176,80,65051,1,8,0:0:0
176,80,65259,1,8,0:0:0
176,80,65363,1,8,0:0:0
176,80,65467,1,8,0:0:0
176,80,65676,1,8,0:0:0
48,96,65884,5,0,0:0:0
272,128,66092,1,8,0:0:0
272,128,66301,1,8,0:0:0
272,128,66509,1,8,0:0:0
272,128,66717,1,0,0:0:0
128,16,66926,1,8,0:0:0
282,67,67342,5,0,0:0:0
304,176,67551,1,0,0:0:0
282,67,67759,1,8,0:0:0
282,67,67967,1,0,0:0:0
282,67,68384,1,0,0:0:0
282,67,68592,1,8,0:0:0
282,67,68801,1,0,0:0:0
282,67,69217,1,0,0:0:0
282,67,69426,1,8,0:0:0
282,67,69634,1,0,0:0:0
282,67,70051,1,0,0:0:0
282,67,70259,1,8,0:0:0
282,67,70467,5,0,0:0:0
282,67,70676,1,0,0:0:0
282,67,70884,1,0,0:0:0
282,67,71092,1,8,0:0:0
282,67,71301,1,0,0:0:0
282,67,71509,1,0,0:0:0
282,67,71926,1,8,0:0:0
282,67,72134,1,0,0:0:0
282,67,72342,1,0,0:0:0
282,67,72551,1,0,0:0:0
282,67,72759,1,8,0:0:0
282,67,72967,1,0,0:0:0
282,67,73176,5,0,0:0:0
282,67,73280,1,0,0:0:0
282,67,73384,1,0,0:0:0
282,67,73488,1,0,0:0:0
282,67,73592,1,0,0:0:0
282,67,74009,5,0,0:0:0
282,67,74217,1,0,0:0:0
282,67,74426,1,8,0:0:0
282,67,74634,1,0,0:0:0
282,67,75051,1,0,0:0:0
282,67,75155,1,0,0:0:0
282,67,75259,1,0,0:0:0
282,67,75467,1,0,0:0:0
282,67,75884,1,0,0:0:0
282,67,76092,1,8,0:0:0
282,67,76301,1,0,0:0:0
282,67,76509,1,0,0:0:0
282,67,76717,1,0,0:0:0
282,67,76926,1,8,0:0:0
288,48,77134,5,0,0:0:0
304,64,77238,1,0,0:0:0
288,64,77342,1,0,0:0:0
282,67,77551,1,0,0:0:0
282,67,77967,1,0,0:0:0
288,64,78071,1,0,0:0:0
288,64,78176,1,0,0:0:0
282,67,78384,5,0,0:0:0
282,67,78592,1,8,0:0:0
282,67,78801,1,0,0:0:0
282,67,79009,1,8,0:0:0
282,67,79217,1,0,0:0:0
282,67,79426,1,8,0:0:0
282,67,79634,1,0,0:0:0
282,67,79842,1,8,0:0:0
272,64,80259,1,0,0:0:0
208,80,80363,1,0,0:0:0
272,64,80467,1,0,0:0:0
288,64,80571,1,0,0:0:0
282,67,80676,5,0,0:0:0
282,67,80884,1,0,0:0:0
282,67,81092,1,8,0:0:0
282,67,81301,1,0,0:0:0
282,67,81717,1,0,0:0:0
282,67,81926,1,8,0:0:0
282,67,82134,1,0,0:0:0
282,67,82551,1,0,0:0:0
282,67,82759,1,8,0:0:0
282,67,82967,1,0,0:0:0
282,67,83384,1,0,0:0:0
282,67,83592,1,8,0:0:0
282,67,83801,5,0,0:0:0
282,67,83905,1,0,0:0:0
282,67,84009,1,0,0:0:0
282,67,84217,1,0,0:0:0
282,67,84634,1,0,0:0:0
272,80,84738,1,0,0:0:0
282,67,84842,1,0,0:0:0
282,67,85051,1,0,0:0:0
282,67,85467,1,0,0:0:0
282,67,85676,1,8,0:0:0
282,67,85884,1,0,0:0:0
282,67,86092,1,8,0:0:0
272,32,86301,1,0,0:0:0
272,32,86509,1,0,0:0:0
272,32,86717,1,8,0:0:0
272,32,86926,1,8,0:0:0
282,67,87342,5,0,0:0:0
282,67,87551,1,0,0:0:0
282,67,87759,1,8,0:0:0
282,67,87967,1,0,0:0:0
282,67,88384,1,0,0:0:0
282,67,88592,1,8,0:0:0
282,67,88801,1,0,0:0:0
282,67,89217,1,0,0:0:0
282,67,89426,1,8,0:0:0
282,67,89634,1,0,0:0:0
282,67,89842,1,0,0:0:0
282,67,90051,1,0,0:0:0
282,67,90259,1,8,0:0:0
282,67,90467,5,0,0:0:0
282,67,90571,1,0,0:0:0
282,67,90676,1,0,0:0:0
282,67,90884,1,0,0:0:0
282,67,91301,1,0,0:0:0
288,64,91405,1,0,0:0:0
282,67,91509,1,0,0:0:0
282,67,91717,1,0,0:0:0
272,80,92342,5,0,0:0:0
282,67,92446,1,0,0:0:0
288,64,92551,1,0,0:0:0
288,64,92759,1,0,0:0:0
282,67,92967,1,8,0:0:0
282,67,93176,1,0,0:0:0
