osu file format v11

[General]
AudioFilename: Symphony.mp3
AudioLeadIn: 2000
PreviewTime: 67342
Countdown: 0
SampleSet: Normal
StackLeniency: 0.7
Mode: 0
LetterboxInBreaks: 1
SkinPreference:Default

[Editor]
DistanceSpacing: 1.3
BeatDivisor: 8
GridSize: 4

[Metadata]
Title:Symphonic Love
TitleUnicode:シンフォニック・ラブ
Artist:Hashimoto Miyuki
ArtistUnicode:Hashimoto Miyuki
Creator:Kuro
Version:Pure White
Source:Mashiro Iro Symphony
Tags:Acl138
BeatmapID:181410
BeatmapSetID:60705

[Difficulty]
HPDrainRate:7
CircleSize:5
OverallDifficulty:7
ApproachRate:9
SliderMultiplier:1.5
SliderTickRate:2

[Events]
//Background and Video events
Video,0,"PV.avi"
0,0,"BG2.jpg"
//Break Periods
//Storyboard Layer 0 (Background)
//Storyboard Layer 1 (Fail)
//Storyboard Layer 2 (Pass)
//Storyboard Layer 3 (Foreground)
//Storyboard Sound Samples
//Background Colour Transformations
3,100,163,162,255

[TimingPoints]
676,416.666666666667,4,2,0,80,1,0
7342,-100,4,1,0,80,0,0
9634,-100,4,1,0,60,0,0
10051,-100,4,1,0,40,0,0
10676,-100,4,1,0,30,0,0
11302,-100,4,1,0,10,0,0
11718,-100,4,1,0,5,0,0
12342,-100,4,2,0,5,0,0
12446,-100,4,2,0,10,0,0
12550,-100,4,2,0,15,0,0
12655,-100,4,2,0,20,0,0
12759,-100,4,2,0,25,0,0
12863,-100,4,2,0,30,0,0
12967,-100,4,2,0,35,0,0
13071,-100,4,2,0,40,0,0
13175,-100,4,2,0,45,0,0
13280,-100,4,2,0,50,0,0
13384,-100,4,2,0,60,0,0
13488,-100,4,2,0,70,0,0
13592,-100,4,2,0,80,0,0
14009,-100,4,1,0,80,0,1
27342,-100,4,2,0,60,0,0
32342,-100,4,1,0,80,0,0
34009,-100,4,2,0,60,0,0
39009,-100,4,1,0,80,0,0
45467,-100,4,2,0,80,0,0
47342,-100,4,1,0,80,0,0
52342,-100,4,1,0,80,0,0
55051,-100,4,2,0,80,0,0
57342,-66.6666666666667,4,1,0,80,0,0
58384,-100,4,2,0,80,0,0
60676,-100,4,1,0,80,0,0
61717,-100,4,2,0,80,0,0
63800,-66.6666666666667,4,2,0,80,0,0
64737,-66.6666666666667,4,1,0,80,0,0
65729,-66.6666666666667,4,2,0,5,0,0
67342,-100,4,1,0,80,0,1
92342,-100,4,2,0,80,0,0

[Colours]
Combo1 : 255,255,255
Combo2 : 15,15,255
Combo3 : 112,196,193

[HitObjects]
140,80,676,1,0,0:0:0
140,80,883,1,0,0:0:0
140,260,1300,1,0,0:0:0
140,260,1716,1,0,0:0:0
388,264,2341,5,0,0:0:0
388,264,2550,1,0,0:0:0
392,80,2966,1,0,0:0:0
392,80,3383,1,0,0:0:0
316,160,4008,5,0,0:0:0
316,160,4216,1,0,0:0:0
136,160,4633,1,0,0:0:0
136,160,5050,1,0,0:0:0
136,160,5675,5,0,0:0:0
136,160,5883,1,0,0:0:0
316,160,6300,1,0,0:0:0
316,160,6716,1,0,0:0:0
52,224,7341,5,0,0:0:0
108,156,7550,1,0,2:0:0
172,92,7758,1,8,0:0:0
224,164,7966,1,0,0:0:0
284,232,8175,1,0,2:0:0
344,164,8383,1,0,0:0:0
400,92,8591,1,8,0:0:0
400,272,9008,5,0,0:0:0
324,320,9216,1,0,0:0:0
248,272,9425,1,8,0:0:0
160,268,9633,1,0,0:0:0
68,264,9841,1,0,2:0:0
72,172,10050,1,0,0:0:0
160,172,10258,1,8,0:0:0
340,168,10675,5,0,0:0:0
340,260,10883,1,0,2:0:0
252,260,11091,1,8,0:0:0
252,168,11300,1,0,0:0:0
340,168,11508,1,0,0:0:0
340,257,11716,1,0,0:0:0
249,259,11925,1,8,0:0:0
252,168,12133,1,0,0:0:0
156,160,12342,2,4,B|156:136,28,18.75
256,16,14008,5,4,0:0:0
256,104,14216,1,0,2:0:0
346,106,14425,1,8,0:0:0
353,195,14633,1,0,2:0:0
444,190,14842,2,0,B|508:238|468:324,1,150,0|8,0:0|0:0,0:0:0
378,312,15466,1,0,2:0:0
307,255,15675,1,0,0:0:0
217,256,15883,1,0,2:0:0
127,253,16091,5,8,0:0:0
123,162,16300,1,0,2:0:0
212,159,16509,2,0,B|282:96|355:174,1,150,0|8,0:0|0:0,0:0:0
411,225,17133,1,0,2:0:0
321,224,17341,5,0,0:0:0
230,225,17550,1,0,2:0:0
140,225,17758,1,8,0:0:0
139,135,17966,1,0,2:0:0
229,135,18175,2,0,B|293:135|381:135,1,150,0|8,0:0|0:0,0:0:0
469,133,18800,1,0,2:0:0
470,222,19008,1,0,0:0:0
380,222,19216,5,0,0:0:0
378,131,19425,1,0,0:0:0
288,132,19633,1,0,0:0:0
198,132,19841,1,0,0:0:0
107,131,20051,2,0,B|31:131,3,75,0|0|0|4,0:0|0:0|0:0|0:0,0:0:0
32,220,20883,1,0,2:0:0
121,220,21091,5,8,0:0:0
117,310,21300,1,0,2:0:0
206,309,21509,2,0,B|272:368|344:308|344:308,1,150,0|8,0:0|0:0,0:0:0
340,218,22133,1,0,2:0:0
343,128,22341,5,0,0:0:0
268,178,22550,1,0,2:0:0
195,230,22758,1,8,0:0:0
114,269,22966,1,0,2:0:0
114,178,23175,2,0,B|278:177,1,150,0|8,0:0|0:0,0:0:0
266,86,23800,1,0,2:0:0
176,86,24008,5,0,0:0:0
176,86,24216,1,0,0:0:0
85,84,24425,1,0,0:0:0
85,84,24633,1,0,0:0:0
82,173,24842,2,0,B|83:217|83:217,3,37.5
128,214,25258,2,0,B|160:214,7,18.75
169,213,25675,2,0,B|256:213,5,75
65,191,27133,5,0,2:0:0
65,191,27237,1,0,2:0:0
65,191,27341,1,4,0:0:0
155,193,27550,1,0,0:0:0
155,193,27654,1,0,0:0:0
155,193,27758,1,8,2:1:0
244,193,27966,1,0,0:0:0
244,193,28070,1,0,0:0:0
244,193,28175,1,0,0:0:0
340,193,28383,1,0,0:0:0
422,158,28591,1,8,2:1:0
361,90,28800,6,0,B|394:50,2,37.5
271,82,29217,2,0,B|271:42,2,37.5,0|0|8,0:0|0:0|2:1,0:0:0
180,85,29633,2,0,B|163:52,2,37.5
99,126,30050,1,0,0:0:0
96,215,30258,1,8,2:1:0
185,215,30466,5,0,0:0:0
185,215,30570,1,0,0:0:0
185,215,30675,1,0,0:0:0
274,213,30883,1,0,0:0:0
274,213,30987,1,0,0:0:0
274,213,31091,1,8,2:1:0
364,211,31300,1,0,0:0:0
364,211,31404,1,0,0:0:0
364,211,31508,1,0,0:0:0
367,121,31716,1,0,0:0:0
276,119,31925,1,8,2:1:0
186,116,32133,5,0,0:0:0
106,158,32342,2,0,B|106:233|106:233,4,75
186,116,33383,1,8,0:0:0
275,112,33591,1,8,0:0:0
274,202,33800,5,0,2:0:0
274,202,33904,1,0,2:0:0
274,202,34008,1,4,0:0:0
355,154,34216,1,0,0:0:0
355,154,34320,1,0,0:0:0
355,154,34425,1,8,2:1:0
275,112,34633,1,0,0:0:0
275,112,34737,1,0,0:0:0
275,112,34841,1,0,0:0:0
198,159,35050,1,0,0:0:0
274,202,35258,1,8,2:1:0
195,158,35467,6,0,B|143:158,2,37.5
274,113,35883,2,0,B|274:73|274:73,2,37.5,0|0|8,0:0|0:0|2:1,0:0:0
360,156,36300,2,0,B|400:156,2,37.5
277,199,36716,1,0,0:0:0
196,157,36925,1,8,2:1:0
465,149,37550,2,0,B|465:69,1,75
465,254,38175,2,0,B|465:342,1,75
430,198,38800,5,0,0:0:0
430,198,38904,1,0,0:0:0
430,198,39008,2,0,B|345:198|343:198,3,75
265,199,39841,1,0,0:0:0
84,192,40258,1,8,0:0:0
84,192,40466,1,0,0:0:0
44,40,40675,6,0,B|44:88|44:88|80:88,1,75,4|0,0:0|0:0,0:0:0
72,88,41092,2,0,B|120:88|120:88|120:128,1,75,8|0,0:0|0:0,0:0:0
120,116,41508,2,0,B|120:152|120:152|168:152|168:152,1,75,0|0,0:0|0:0,0:0:0
159,152,41925,2,0,B|196:152|196:152|196:192,1,75,8|0,0:0|0:0,0:0:0
196,190,42342,2,0,B|196:228|196:228|240:228,1,75
233,228,42758,2,0,B|272:228|272:228|272:264,1,75,8|0,0:0|0:0,0:0:0
272,264,43175,2,0,B|272:300|272:300|320:300,1,75
311,300,43592,2,0,B|352:300|352:300|352:252,1,75,8|0,0:0|0:0,0:0:0
352,266,44008,2,0,B|352:228|352:228|312:228,1,75
315,228,44425,2,0,B|272:228|272:228|272:196,1,75,8|0,0:0|0:0,0:0:0
272,196,44842,2,0,B|272:152|272:152|228:152,1,75
180,144,45466,5,0,0:0:0
120,144,45675,2,0,B|40:144,4,75
196,52,46925,1,0,0:0:0
236,96,47133,1,0,0:0:0
256,192,47342,6,0,B|256:272,1,75
316,268,47758,2,0,B|316:188,1,75,8|0,0:0|0:0,0:0:0
376,192,48175,2,0,B|376:276,1,75
436,268,48592,2,0,B|436:180,1,75,8|0,0:0|0:0,0:0:0
436,132,49008,1,0,0:0:0
436,132,49216,1,0,0:0:0
376,132,49425,2,0,B|292:132,1,75,8|0,0:0|0:0,0:0:0
240,132,49841,1,0,0:0:0
240,132,50050,1,0,0:0:0
180,132,50258,2,0,B|100:132,1,75,8|0,0:0|0:0,0:0:0
104,192,50676,6,0,B|104:268|104:268,3,75
164,268,51508,2,0,B|212:268,3,37.5
232,268,51925,2,0,B|256:268,7,18.75
256,240,52342,6,0,B|256:192,10,37.5
200,72,54008,6,0,B|88:8|88:200|204:132,1,225
316,144,55050,1,0,0:0:0
316,204,55258,1,0,0:0:0
256,204,55467,2,0,B|176:204,1,75
120,204,55883,1,0,0:0:0
120,204,56091,1,0,0:0:0
120,144,56300,2,0,B|204:144,1,75
196,84,56717,2,0,B|120:84,1,75
296,84,57342,6,0,B|272:136|300:192,1,112.500004291535
348,144,57758,2,0,B|388:192|340:256,1,112.500004291535
204,156,58383,5,0,0:0:0
172,204,58591,1,0,0:0:0
208,252,58800,1,0,0:0:0
268,252,59008,1,0,0:0:0
300,200,59216,1,0,0:0:0
264,152,59425,1,0,0:0:0
236,204,59633,1,0,0:0:0
236,204,59841,1,0,0:0:0
236,204,60050,2,0,B|236:56,1,131.25
296,44,60675,6,0,B|296:96|256:120,1,75
200,112,61092,2,0,B|168:80|176:32,1,75
60,72,61716,5,0,0:0:0
60,100,61820,1,0,0:0:0
60,132,61925,1,0,0:0:0
60,192,62133,2,0,B|60:268,1,75
120,268,62550,2,0,B|120:192,1,75
120,132,62967,2,0,B|120:48,1,75
180,56,63383,2,0,B|180:136,1,75
180,168,63800,6,0,B|180:360|304:340|432:356|432:156,1,450.000017166138
432,132,64737,2,0,B|432:72,8,56.2500021457673
388,132,65675,2,0,B|344:132,28,28.1250010728836,4|0|0|0|0|0|0|0|0|0|0|0|0|0|0|0|0|0|0|0|0|0|0|0|0|0|0|0|0,0:0|0:0|0:0|0:0|0:0|0:0|0:0|0:0|0:0|0:0|0:0|0:0|0:0|0:0|0:0|0:0|0:0|0:0|0:0|0:0|0:0|0:0|0:0|0:0|0:0|0:0|0:0|0:0|0:0,0:0:0
256,192,67341,5,0,0:0:0
316,192,67550,1,0,0:0:0
376,192,67758,1,8,0:0:0
376,132,67966,1,0,0:0:0
256,128,68383,5,0,0:0:0
196,128,68591,1,8,0:0:0
136,128,68800,1,0,0:0:0
148,248,69217,2,0,B|168:292|192:208|204:248,4,75,0|8|0|0|0,0:0|0:0|0:0|0:0|0:0,0:0:0
152,128,70466,5,0,2:0:0
152,128,70570,1,0,2:0:0
152,128,70675,1,0,2:0:0
212,128,70883,2,0,B|292:128,1,75,0|8,2:0|2:1,0:0:0
288,188,71300,5,0,2:0:0
288,188,71404,1,0,2:0:0
288,188,71508,1,0,2:0:0
228,188,71717,2,0,B|148:188,1,75,0|8,2:0|2:1,0:0:0
152,248,72133,5,0,0:0:0
188,296,72342,2,0,B|148:320|112:292,4,75,0|0|8|0|0,0:0|0:0|0:0|0:0|0:0,0:0:0
216,244,73383,1,8,0:0:0
276,244,73591,1,8,0:0:0
396,244,74008,6,0,B|396:160,3,75,0|0|8|0,0:0|0:0|0:0|0:0,0:0:0
304,244,75050,2,0,B|304:160,2,75,0|8|0,0:0|0:0|0:0,0:0:0
184,244,75884,2,0,B|184:168,2,75,0|8|0,0:0|0:0|0:0,0:0:0
184,244,76509,2,0,B|96:244,2,75,0|0|8,0:0|0:0|0:0,0:0:0
244,244,77133,5,0,2:0:0
244,244,77237,1,0,2:0:0
244,244,77342,2,0,B|332:244,1,75,0|0,2:0|2:0,0:0:0
388,244,77758,1,8,2:1:0
388,184,77966,5,0,2:0:0
388,184,78070,1,0,2:0:0
388,184,78175,2,0,B|308:184,1,75,0|0,2:0|2:0,2:0:0
252,184,78591,1,8,2:1:0
252,244,78800,5,0,0:0:0
252,304,79009,2,0,B|176:304|176:304,3,75
176,244,79841,2,0,B|176:212,15,18.75
176,228,80675,6,0,B|176:80,1,131.25,0|8,0:0|0:0,0:0:0
236,80,81300,1,0,0:0:0
356,76,81716,5,0,0:0:0
356,136,81925,1,8,0:0:0
356,196,82133,1,0,0:0:0
236,196,82550,6,0,B|152:196,2,75,0|8|0,0:0|0:0|0:0,0:0:0
116,196,83383,5,0,0:0:0
116,196,83591,1,8,0:0:0
116,256,83800,6,0,B|116:296,2,37.5,0|0|0,2:0|2:0|2:0,0:0:0
176,252,84217,2,0,B|176:328,1,75,0|8,2:0|2:1,0:0:0
236,328,84633,2,0,B|236:288,2,37.5,0|0|0,2:0|2:0|2:0,0:0:0
296,328,85050,2,0,B|296:244,1,75,0|8,2:0|2:1,0:0:0
356,252,85466,1,0,2:0:0
356,252,85570,1,0,2:0:0
356,252,85675,2,0,B|356:332,4,75
416,252,86717,6,0,P|448:220|388:220|420:184,1,75,8|8,0:0|0:0,0:0:0
360,132,87342,6,0,B|276:132,1,75
224,132,87758,1,8,0:0:0
164,132,87966,1,0,0:0:0
164,252,88384,6,0,B|244:252,2,75,0|8|0,0:0|0:0|0:0,0:0:0
164,252,89217,2,0,B|88:252,2,75,0|8|0,0:0|0:0|0:0,0:0:0
104,148,90050,1,0,0:0:0
104,88,90258,1,8,0:0:0
164,88,90466,5,0,2:0:0
164,88,90570,1,0,2:0:0
164,88,90675,2,0,B|164:164,1,75,0|0,2:0|2:0,0:0:0
224,164,91091,1,8,2:1:0
284,164,91300,5,0,2:0:0
284,164,91404,1,0,2:0:0
284,164,91508,2,0,B|284:88,1,75,0|0,2:0|2:0,0:0:0
344,88,91925,5,8,0:0:0
372,88,92029,2,0,B|424:88,2,37.5
256,192,92341,12,4,93176,0:0:0
