osu file format v11

[General]
AudioFilename: Symphony.mp3
AudioLeadIn: 2000
PreviewTime: 67342
Countdown: 0
SampleSet: Normal
StackLeniency: 0.7
Mode: 0
LetterboxInBreaks: 1
SkinPreference:Default

[Editor]
DistanceSpacing: 0.8
BeatDivisor: 8
GridSize: 4

[Metadata]
Title:Symphonic Love
TitleUnicode:シンフォニック・ラブ
Artist:Hashimoto Miyuki
ArtistUnicode:Hashimoto Miyuki
Creator:Kuro
Version:Hard
Source:Mashiro Iro Symphony
Tags:Acl138
BeatmapID:181408
BeatmapSetID:60705

[Difficulty]
HPDrainRate:6
CircleSize:4
OverallDifficulty:6
ApproachRate:7
SliderMultiplier:1.5
SliderTickRate:2

[Events]
//Background and Video events
Video,0,"PV.avi"
0,0,"BG4.jpg"
//Break Periods
2,27126,32901
//Storyboard Layer 0 (Background)
//Storyboard Layer 1 (Fail)
//Storyboard Layer 2 (Pass)
//Storyboard Layer 3 (Foreground)
//Storyboard Sound Samples
//Background Colour Transformations
3,100,163,162,255

[TimingPoints]
676,416.666666666667,4,1,0,80,1,0
9217,-100,4,1,0,80,0,0
9634,-100,4,1,0,60,0,0
10052,-100,4,1,0,40,0,0
10468,-100,4,1,0,30,0,0
10885,-100,4,1,0,20,0,0
11302,-100,4,1,0,10,0,0
11718,-100,4,1,0,5,0,0
12343,-100,4,2,0,5,0,0
12447,-100,4,2,0,10,0,0
12551,-100,4,2,0,15,0,0
12656,-100,4,2,0,20,0,0
12760,-100,4,2,0,25,0,0
12864,-100,4,2,0,30,0,0
12968,-100,4,2,0,35,0,0
13072,-100,4,2,0,40,0,0
13176,-100,4,2,0,45,0,0
13281,-100,4,2,0,50,0,0
13385,-100,4,2,0,60,0,0
13489,-100,4,2,0,70,0,0
13593,-100,4,2,0,80,0,0
14009,-100,4,1,0,80,0,1
27342,-100,4,2,0,80,0,0
39009,-100,4,1,0,80,0,0
40676,-100,4,1,0,80,0,0
45676,-100,4,2,0,80,0,0
47342,-100,4,1,0,80,0,0
50676,-100,4,2,0,80,0,0
52342,-100,4,1,0,80,0,0
55051,-100,4,2,0,80,0,0
57342,-100,4,1,0,80,0,0
58384,-100,4,2,0,80,0,0
60676,-100,4,1,0,80,0,0
67342,-100,4,1,0,80,0,1
92342,-100,4,2,0,80,0,0

[Colours]
Combo1 : 255,255,255
Combo2 : 15,15,255
Combo3 : 112,196,193

[HitObjects]
84,56,7342,1,0,0:0:0
128,92,7550,1,0,0:0:0
172,56,7759,1,8,0:0:0
212,96,7967,2,0,B|296:96,1,75
340,96,8384,1,0,0:0:0
340,152,8592,1,8,0:0:0
340,272,9009,5,0,0:0:0
256,306,9426,1,8,0:0:0
173,271,9842,1,0,0:0:0
139,188,10259,1,8,0:0:0
173,105,10676,1,0,0:0:0
256,71,11092,1,8,0:0:0
340,105,11509,1,0,0:0:0
374,188,11926,1,8,0:0:0
256,192,12342,2,0,B|256:168,24,18.75,4|4|4|4|4|4|4|4|4|4|4|4|4|4|4|4|4|4|4|4|4|4|4|4|4,0:0|0:0|0:0|0:0|0:0|0:0|0:0|0:0|0:0|0:0|0:0|0:0|0:0|0:0|0:0|0:0|0:0|0:0|0:0|0:0|0:0|0:0|0:0|0:0|0:0,0:0:0
256,16,14009,5,4,0:0:0
360,60,14426,1,8,0:0:0
444,148,14842,2,0,B|492:208|444:288,1,150,0|8,0:0|0:0,0:0:0
360,288,15676,5,0,0:0:0
360,168,16092,1,8,0:0:0
244,164,16509,2,0,B|164:164|92:164,1,150,0|8,0:0|0:0,0:0:0
92,284,17342,5,0,0:0:0
204,284,17759,1,8,0:0:0
208,172,18176,2,0,B|272:172|360:172,1,150,0|8,0:0|0:0,0:0:0
360,292,19009,5,0,0:0:0
408,256,19217,1,0,0:0:0
408,196,19426,1,8,0:0:0
408,136,19634,1,0,0:0:0
408,76,19842,1,0,0:0:0
348,76,20051,2,0,B|272:76,3,75,0|8|0|0,0:0|0:0|0:0|0:0,0:0:0
144,76,21092,5,8,0:0:0
144,76,21509,2,0,B|144:156|212:208|212:208,1,150,0|8,0:0|0:0,0:0:0
312,200,22342,1,0,0:0:0
312,200,22759,1,8,0:0:0
424,204,23176,2,0,B|424:356,1,150,0|8,0:0|0:0,0:0:0
304,356,24009,6,0,B|216:356,3,75,0|0|8|0,0:0|0:0|0:0|0:0,0:0:0
228,296,24842,2,0,B|228:252|228:252,3,37.5
216,236,25259,2,0,B|248:236,7,18.75,0|0|0|0|0|0|0|0,0:0|0:0|0:0|0:0|0:0|0:0|0:0|0:0,0:0:0
220,236,25676,2,0,B|132:236,5,75
116,236,26821,1,0,0:0:0
84,236,26926,1,8,0:0:0
256,200,33801,6,0,B|256:244,2,37.5
256,140,34217,2,0,B|256:100,2,37.5,0|0|8,0:0|0:0|2:1,0:0:0
308,168,34634,2,0,B|352:168,2,37.5
256,200,35051,1,2,0:0:0
204,172,35467,6,0,B|152:172,2,37.5
256,144,35884,2,0,B|256:104|256:104,2,37.5,0|0|8,0:0|0:0|2:1,0:0:0
308,172,36301,2,0,B|352:172,2,37.5
256,200,36717,1,2,0:0:0
492,148,37551,6,0,B|492:68,1,75,0|2,0:0|0:0,0:0:0
492,280,38176,2,0,B|492:368,1,75
432,208,38801,5,0,0:0:0
432,208,38905,1,0,0:0:0
432,208,39009,2,0,P|400:176|400:240|368:208,1,75
368,148,39426,1,0,0:0:0
368,88,39634,2,0,P|324:88|304:124,1,75
304,232,40259,1,8,0:0:0
244,232,40467,1,0,0:0:0
184,232,40676,6,0,P|184:152,2,75,0|0|8,0:0|0:0|0:0,0:0:0
100,316,41509,2,0,P|132:348|164:348,1,75
212,348,41926,1,8,0:0:0
340,348,42342,2,0,P|364:324|340:300,1,75
340,236,42759,1,8,0:0:0
340,116,43176,6,0,P|260:116,1,75
204,116,43592,1,8,0:0:0
84,116,44009,2,0,B|84:164,2,37.5
84,212,44426,1,8,0:0:0
84,332,44842,1,0,0:0:0
184,268,45259,1,8,0:0:0
256,192,45676,12,0,46926,0:0:0
400,312,47342,6,0,P|400:232,1,75,4|0,0:0|0:0,0:0:0
336,240,47759,2,0,P|336:320,1,75,8|0,0:0|0:0,0:0:0
272,312,48176,2,0,P|272:232,1,75
216,240,48592,1,8,0:0:0
152,240,48801,1,0,0:0:0
152,184,49009,1,0,0:0:0
216,184,49217,1,0,0:0:0
216,128,49426,1,8,0:0:0
152,128,49634,1,0,0:0:0
152,72,49842,1,0,0:0:0
216,72,50051,1,0,0:0:0
276,72,50259,1,8,0:0:0
256,192,50676,12,4,51926,0:0:0
256,244,52342,6,0,B|256:192,10,37.5
168,84,54009,6,0,P|256:84,1,75,4|0,0:0|0:0,0:0:0
304,84,54426,1,0,0:0:0
364,84,54634,1,0,0:0:0
256,192,55051,12,4,56926,0:0:0
192,192,57342,5,0,0:0:0
232,152,57551,1,0,0:0:0
288,152,57759,1,0,0:0:0
328,192,57967,1,0,0:0:0
256,192,58384,12,4,60259,0:0:0
288,192,60676,6,0,P|312:168|288:144,1,75
224,144,61092,6,0,P|200:168|224:192,1,75
256,192,61717,12,4,65676,0:0:0
256,192,67342,5,4,0:0:0
292,240,67551,1,0,0:0:0
324,192,67759,1,8,0:0:0
360,240,67967,1,0,0:0:0
336,128,68384,5,0,0:0:0
272,128,68592,1,8,0:0:0
208,128,68801,1,0,0:0:0
96,128,69217,1,0,0:0:0
208,208,69634,2,0,B|236:232|248:184|276:208,2,75
152,128,70467,5,0,0:0:0
152,128,70571,1,0,0:0:0
152,128,70676,1,0,0:0:0
152,184,70884,2,0,B|152:264,1,75,0|8,0:0|0:0,0:0:0
224,240,71301,5,0,0:0:0
224,240,71405,1,0,0:0:0
224,240,71509,1,0,0:0:0
224,180,71717,2,0,B|224:100,1,75,0|8,0:0|0:0,0:0:0
284,108,72134,5,0,0:0:0
340,108,72342,2,0,B|380:84|416:112,4,75,0|0|8|0|0,0:0|0:0|0:0|0:0|0:0,0:0:0
380,156,73384,1,8,0:0:0
380,212,73592,1,8,0:0:0
260,220,74009,6,0,B|260:136,3,75,0|0|8|0,0:0|0:0|0:0|0:0,0:0:0
260,76,75050,2,0,B|172:76,2,75,0|8|0,0:0|0:0|0:0,0:0:0
380,76,75884,2,0,B|380:156,2,75,0|8|0,0:0|0:0|0:0,0:0:0
316,76,76509,2,0,B|228:76,2,75,0|0|8,0:0|0:0|0:0,0:0:0
316,148,77134,5,0,0:0:0
316,148,77238,1,0,0:0:0
316,148,77342,2,0,B|228:148,1,75
180,148,77759,1,8,0:0:0
184,208,77967,5,0,0:0:0
184,208,78071,1,0,0:0:0
184,208,78175,2,0,B|264:208,1,75
320,208,78592,1,8,0:0:0
384,208,78800,5,0,0:0:0
384,152,79009,2,0,B|384:72|384:72,3,75
332,48,79842,1,0,0:0:0
108,136,80676,5,4,0:0:0
220,172,81092,2,0,P|244:120|236:88,1,75,8|0,0:0|0:0,0:0:0
356,76,81717,5,0,0:0:0
356,136,81925,1,8,0:0:0
356,196,82134,1,0,0:0:0
352,320,82550,6,0,B|268:320,2,75,0|8|0,0:0|0:0|0:0,0:0:0
280,224,83384,1,0,0:0:0
280,224,83592,1,8,0:0:0
216,224,83800,6,0,B|216:184,2,37.5
216,168,84217,2,0,B|216:92,1,75,0|8,0:0|0:0,0:0:0
160,104,84634,2,0,B|160:144,2,37.5
160,168,85050,2,0,B|160:252,1,75,0|8,0:0|0:0,0:0:0
216,248,85467,1,0,0:0:0
216,248,85571,1,0,0:0:0
216,248,85676,2,0,B|308:248,4,75,0|0|8|0|0,0:0|0:0|0:0|0:0|0:0,0:0:0
172,288,86717,1,8,0:0:0
124,248,86926,1,8,0:0:0
360,132,87342,6,0,B|276:132,1,75
224,132,87759,1,8,0:0:0
164,132,87967,1,0,0:0:0
160,256,88384,6,0,B|160:336,2,75,0|8|0,0:0|0:0|0:0,0:0:0
280,256,89217,2,0,B|280:332,2,75,0|8|0,0:0|0:0|0:0,0:0:0
400,248,90050,5,0,0:0:0
400,188,90259,1,8,0:0:0
280,184,90676,6,0,B|200:184,3,75,0|0|0|0,0:0|0:0|0:0|0:0,0:0:0
136,184,91509,2,0,B|136:136,7,37.5,0|0|0|0|0|0|0|0,0:0|0:0|0:0|0:0|0:0|0:0|0:0|0:0,0:0:0
256,192,92342,12,4,93176,0:0:0
