osu file format v11

[General]
AudioFilename: Symphony.mp3
AudioLeadIn: 2000
PreviewTime: 67342
Countdown: 0
SampleSet: Normal
StackLeniency: 0.7
Mode: 0
LetterboxInBreaks: 1
SkinPreference:Default

[Editor]
DistanceSpacing: 0.6
BeatDivisor: 4
GridSize: 8

[Metadata]
Title:Symphonic Love
TitleUnicode:シンフォニック・ラブ
Artist:Hashimoto Miyuki
ArtistUnicode:Hashimoto Miyuki
Creator:Kuro
Version:Easy
Source:Mashiro Iro Symphony
Tags:Acl138
BeatmapID:181407
BeatmapSetID:60705

[Difficulty]
HPDrainRate:1
CircleSize:4
OverallDifficulty:2
ApproachRate:2
SliderMultiplier:1
SliderTickRate:1

[Events]
//Background and Video events
Video,0,"PV.avi"
0,0,"BG5.jpg"
//Break Periods
2,26917,32449
//Storyboard Layer 0 (Background)
//Storyboard Layer 1 (Fail)
//Storyboard Layer 2 (Pass)
//Storyboard Layer 3 (Foreground)
//Storyboard Sound Samples
//Background Colour Transformations
3,100,163,162,255

[TimingPoints]
676,416.666666666667,4,1,0,80,1,0
14009,-100,4,1,0,80,0,1
27342,-100,4,2,0,100,0,0
40676,-100,4,1,0,80,0,0
45676,-100,4,2,0,80,0,0
47342,-100,4,1,0,80,0,0
50676,-100,4,2,0,80,0,0
52342,-100,4,1,0,80,0,0
55051,-100,4,2,0,80,0,0
57342,-100,4,1,0,80,0,0
58384,-100,4,2,0,80,0,0
60676,-100,4,1,0,80,0,0
61717,-100,4,2,0,80,0,0
67342,-100,4,1,0,80,0,1
92342,-100,4,2,0,80,0,0

[Colours]
Combo1 : 255,255,255
Combo2 : 15,15,255
Combo3 : 112,196,193

[HitObjects]
256,16,14009,1,0,0:0:0
352,64,14426,1,8,0:0:0
368,176,14842,2,0,B|368:280,2,100,0|8|0,0:0|0:0|0:0,0:0:0
256,176,16092,5,8,0:0:0
256,288,16509,2,0,B|176:288|152:288,2,100,0|8|0,0:0|0:0|0:0,0:0:0
256,176,17759,1,8,0:0:0
256,64,18176,2,0,B|320:64|360:64,2,100,0|8|0,0:0|0:0|0:0,0:0:0
336,136,19426,1,0,0:0:0
224,136,19842,2,0,P|184:120|168:96,2,50
224,32,20676,5,0,0:0:0
112,32,21092,1,8,0:0:0
32,112,21509,2,0,B|32:176|64:216|64:216,2,100,0|8|0,0:0|0:0|0:0,0:0:0
144,112,22759,1,8,0:0:0
256,112,23176,6,0,B|256:216,2,100,0|8|0,0:0|0:0|0:0,0:0:0
368,112,24426,1,8,0:0:0
432,208,24842,1,0,0:0:0
352,288,25259,1,8,0:0:0
240,288,25676,2,0,B|184:288,5,50
256,192,34009,5,0,0:0:0
368,192,34842,1,0,0:0:0
368,80,35676,1,0,0:0:0
256,80,36509,1,0,0:0:0
144,80,37342,1,0,0:0:0
144,192,38176,1,0,0:0:0
256,192,39009,1,0,0:0:0
256,192,39426,12,0,40259,0:0:0
296,192,40676,6,8,B|400:192,3,100,0|0|0|8,0:0|0:0|0:0|0:0,0:0:0
400,80,42342,2,0,B|296:80,3,100,0|0|0|8,0:0|0:0|0:0|0:0,0:0:0
144,80,44009,2,0,B|144:184,3,100,0|0|0|8,0:0|0:0|0:0|0:0,0:0:0
256,192,45676,12,0,46926,0:0:0
256,192,47342,5,4,0:0:0
368,192,47759,1,8,0:0:0
368,80,48176,1,0,0:0:0
256,80,48592,1,8,0:0:0
144,80,49009,1,0,0:0:0
144,192,49426,1,8,0:0:0
256,192,49842,1,0,0:0:0
368,192,50259,1,8,0:0:0
256,192,50676,12,4,51926,0:0:0
192,160,52342,6,0,P|188:192|196:216,4,50
256,192,54009,6,0,B|312:192,3,50,4|0|0|0,0:0|0:0|0:0|0:0,0:0:0
256,192,55051,12,4,56926,0:0:0
256,192,57342,6,0,B|256:136,3,50
256,192,58384,12,4,60259,0:0:0
256,192,60676,6,0,B|200:192,3,50
256,192,61717,12,4,65676,0:0:0
256,192,67342,5,4,0:0:0
376,192,68176,1,0,0:0:0
376,80,69009,1,0,0:0:0
256,80,69842,1,0,0:0:0
160,80,70676,5,0,0:0:0
160,192,71509,1,0,0:0:0
80,272,72342,1,0,0:0:0
80,160,73175,1,0,0:0:0
80,48,74009,5,0,0:0:0
192,48,74842,1,0,0:0:0
304,48,75675,1,0,0:0:0
416,48,76509,1,0,0:0:0
416,160,77342,5,0,0:0:0
416,272,78175,1,0,0:0:0
304,272,79009,1,0,0:0:0
256,192,80675,5,4,0:0:0
144,192,81509,1,0,0:0:0
144,304,82342,2,0,B|352:304,1,200
432,192,84009,6,0,B|224:192,1,200
160,80,85675,2,0,B|368:80,1,200
432,192,87342,5,4,0:0:0
432,304,88175,1,0,0:0:0
320,304,89009,1,0,0:0:0
208,304,89842,1,0,0:0:0
96,304,90675,5,0,0:0:0
96,192,91509,1,0,0:0:0
256,192,92342,12,4,93175,0:0:0
