osu file format v9

[General]
AudioFilename: akane op.mp3
AudioLeadIn: 1996
PreviewTime: 42286
Countdown: 0
SampleSet: Soft
StackLeniency: 0.7
Mode: 0
LetterboxInBreaks: 0

[Editor]
Bookmarks: 41,8408,17184,24327,29429,42490,50041,57796,62082,68613,69633
DistanceSpacing: 0.8
BeatDivisor: 4
GridSize: 4

[Metadata]
Title:Setsunasa no Gradation (Short ver.)
Artist:Hashimoto Miyuki
Creator:keimntn
Version:Insane
Source:Akane Iro ni Somaru Saka
Tags:feng

[Difficulty]
HPDrainRate:7
CircleSize:4
OverallDifficulty:7
ApproachRate:8
SliderMultiplier:1.7
SliderTickRate:2

[Events]
//Background and Video events
Video,0,"akane op.avi"
0,0,"Konachan_com%katagiri_yuuhi%nagase_minato%ryohka.jpg"
//Break Periods
//Storyboard Layer 0 (Background)
//Storyboard Layer 1 (Fail)
//Storyboard Layer 2 (Pass)
//Storyboard Layer 3 (Foreground)
//Storyboard Sound Samples
//Background Colour Transformations
3,100,163,162,255

[TimingPoints]
1062,408.163265306122,4,2,1,80,1,0
5041,-100,4,2,2,80,0,0
5245,-100,4,2,1,80,0,0
8408,-100,4,2,1,95,0,0
10755,-100,4,2,2,95,0,0
10959,-100,4,2,1,95,0,0
17388,-100,4,2,1,85,0,0
29429,-100,4,2,1,90,0,0
43510,-100,4,2,1,100,0,1
68613,-200,4,2,1,100,0,0
69633,-100,4,2,1,100,0,0
76164,-100,4,2,1,88,0,0
76572,-100,4,2,1,76,0,0
76980,-100,4,2,1,64,0,0
77388,-100,4,2,1,52,0,0
77796,-100,4,2,1,40,0,0
78204,-100,4,2,1,28,0,0
78613,-100,4,2,1,16,0,0
79021,-100,4,2,1,5,0,0

[Colours]
Combo1 : 210,20,70
Combo2 : 238,98,4
Combo3 : 249,196,70

[HitObjects]
384,128,653,1,0
264,96,857,1,0
136,104,1062,2,0,B|40:108|0:192,2,170,2|0|2
392,72,2286,1,0
440,320,2694,5,2
320,272,2898,1,0
288,152,3102,1,0
72,64,3510,5,2
192,112,3714,1,0
224,232,3918,1,0
424,72,4327,1,2
120,304,4939,6,0,B|168:256|168:136,1,170
167,145,5449,1,0
167,145,5551,1,0
296,144,5755,1,0
296,144,5959,2,0,B|296:256|344:304,1,170,2|0
448,232,6572,1,0
448,200,6674,1,0
440,168,6776,1,2
256,192,6980,12,0,8000
424,160,8408,5,2
344,64,8613,1,0
344,64,8715,1,0
344,64,8817,2,0,B|280:64|240:72,1,85,0|4
136,184,9225,2,0,B|176:200|232:192,1,85,2|0
384,248,9633,2,0,B|344:264|288:256,1,85
256,136,10041,5,2
288,144,10143,1,0
312,168,10245,1,0
320,200,10347,1,0
320,232,10449,1,0
232,232,10653,2,0,B|168:240|152:280|176:328|248:328,1,170
360,352,11266,1,0
472,296,11470,5,4
476,40,11878,1,4
476,168,12082,1,0
476,168,12286,2,0,B|420:96|292:104,1,170,4|0
228,24,12898,1,2
168,136,13102,1,0
296,152,13306,6,0,B|328:192|312:248,1,85
376,120,13715,2,0,B|408:176|400:232,2,85,2|0|0
272,48,14327,1,0
272,48,14429,1,0
272,48,14531,1,2
400,56,14735,1,0
400,56,14837,1,0
400,56,14939,1,4
256,192,15041,12,4,16572
256,192,17184,5,4
120,112,17796,5,4
120,112,17898,1,0
120,112,18000,2,0,B|160:88|200:88,1,85
320,136,18408,2,0,B|264:152|208:152,1,85,0|2
352,216,18817,2,0,B|264:216|176:264,1,170
188,257,19327,1,0
188,257,19429,1,2
80,192,19633,1,0
136,80,19837,1,0
264,80,20041,1,0
360,168,20245,6,0,B|296:168|256:184,2,85,2|0|0
360,296,20857,2,0,B|424:320|464:320,2,85,0|2|0
424,184,21470,5,0
424,152,21572,1,0
408,120,21674,1,0
384,96,21776,1,0
352,80,21878,1,2
320,80,21980,1,0
288,80,22082,2,0,B|160:80|160:0,1,170,4|0
160,128,22694,1,2
280,160,22898,6,0,B|248:216|248:272|296:328,1,170,4|0
256,320,23408,1,0
224,320,23510,1,2
208,192,23715,2,0,B|296:192,2,85
208,64,24327,6,0,B|272:61|312:85,1,85,2|0
291,75,24633,1,0
291,75,24735,1,0
384,160,24939,1,0
456,56,25143,1,2
512,176,25347,2,0,B|480:264|384:288,1,170
391,285,25857,1,0
391,285,25959,2,0,B|384:232|336:232,1,85,2|0
208,232,26368,2,0,B|104:232,2,85,0|0|2
352,144,26980,5,4
88,360,27388,1,2
424,336,27796,1,4
136,152,28204,1,4
456,48,28613,1,6
312,256,29021,1,0
312,256,29225,1,2
312,128,29429,5,0
312,128,29531,1,0
312,128,29633,2,0,B|300:76|264:44,1,85
240,176,30041,2,0,B|232:128|192:96,1,85,2|0
88,208,30449,5,4
352,56,30857,1,6
304,360,31266,1,4
240,248,31470,5,2
240,376,31674,1,2
304,264,31878,2,8,B|264:336|192:320|168:248,1,170,0|2
173,262,32388,1,0
173,262,32490,1,2
173,262,32694,2,0,B|152:192|72:192|56:264,1,170,4|0
168,320,33306,1,6
200,320,33408,1,0
232,304,33510,1,0
248,272,33613,1,0
248,240,33715,6,0,B|248:152|264:128|344:128,2,170,4|6|4
128,280,34735,1,0
224,200,34939,1,2
352,192,35143,5,0
352,192,35245,1,0
352,192,35347,2,0,B|376:144|336:88,1,85
448,192,35755,2,0,B|464:240|424:288,3,85,2|0|0|0
312,256,36572,5,2
312,256,36674,1,0
312,256,36776,1,0
312,128,36980,2,0,B|296:28|176:32,1,170,0|2
192,160,37592,1,0
200,288,37796,5,2
208,320,37898,1,0
232,344,38000,1,0
264,360,38102,1,0
296,360,38204,1,2
328,352,38306,1,0
360,336,38408,1,0
376,304,38510,1,0
384,272,38613,6,0,B|384:192|408:168|488:168,1,170,6|0
368,48,39225,2,0,B|368:128|344:152|264:152,1,170,4|0
268,151,39837,1,4
368,48,40041,1,2
440,152,40245,5,4
440,152,40347,1,0
440,152,40449,1,0
440,152,40653,2,0,B|440:208|384:232,1,85,0|4
336,224,41266,1,2
272,224,41674,1,2
480,224,41878,1,4
432,184,42490,5,2
320,96,42694,5,2
256,88,42898,1,2
192,96,43102,5,0
160,104,43204,1,2
136,128,43306,1,2
120,160,43408,1,2
120,192,43510,6,0,B|120:256|80:288,1,85,4|0
192,192,43919,2,0,B|192:256|232:288,2,85,2|0|0
224,176,44429,1,0
256,168,44531,1,0
384,168,44735,1,2
384,168,44939,2,0,B|456:240,2,85
384,168,45551,1,2
320,56,45755,5,0
320,56,45857,1,0
320,56,45959,2,0,B|272:16|208:32,1,85
248,152,46368,2,0,B|192:152|160:128,1,85,2|0
104,24,46776,5,4
104,24,46878,1,0
104,24,46980,2,0,B|40:72|32:112,1,85,0|2
72,208,47388,1,0
168,296,47592,1,2
296,304,47796,1,0
408,240,48000,1,2
432,112,48204,1,0
312,80,48408,5,4
312,80,48510,1,0
312,80,48613,1,0
240,184,48817,1,2
360,216,49021,2,0,B|400:320|312:360,1,170,0|4
280,364,49531,1,0
248,360,49633,1,2
216,348,49735,1,0
188,332,49837,1,2
164,308,49939,1,2
156,276,50041,1,2
352,112,50449,6,0,B|392:136|408:180,1,85,6|0
160,272,50857,2,0,B|120:248|104:204,1,85,4|0
100,176,51164,1,0
108,144,51266,1,2
188,44,51470,2,0,B|264:84|256:196,1,170,4|0
256,188,51980,1,0
256,188,52082,2,0,B|248:292|336:340,1,170,6|2
428,260,52694,5,0
420,196,52898,1,2
372,156,53102,1,0
304,148,53306,5,4
28,344,53715,1,2
212,56,54123,1,4
392,344,54531,1,4
88,188,54939,5,4
256,224,55143,1,2
424,192,55347,1,2
356,84,55551,2,0,B|280:28|184:60,1,170
194,56,56061,1,0
194,56,56164,1,2
192,184,56368,1,0
312,232,56572,5,0
412,312,56776,1,0
296,364,56980,1,2
264,360,57082,1,0
232,352,57184,1,0
200,340,57286,1,0
168,324,57388,1,6
256,84,57796,5,4
256,84,58204,1,4
256,116,58306,1,0
256,148,58408,1,0
256,180,58510,1,0
256,216,58613,2,0,B|256:304,1,85,2|0
104,224,59021,6,0,B|72:224|72:252|72:284|112:284,1,85,2|0
408,224,59429,2,0,B|440:224|440:252|440:284|400:284,1,85,2|0
352,308,59837,5,4
148,304,60041,1,2
48,136,60245,1,2
192,48,60449,5,4
260,48,60857,1,4
328,48,61266,1,4
468,260,61674,1,0
468,260,61878,1,0
360,192,62082,5,2
360,192,62184,1,2
360,192,62286,2,0,B|284:136|204:128,1,170,4|0
104,204,62898,1,0
192,348,63102,5,2
168,320,63204,1,0
148,296,63306,1,0
312,336,63510,5,2
332,308,63613,1,0
348,276,63715,1,0
184,236,63919,5,2
180,204,64021,1,0
176,168,64123,1,0
340,208,64327,5,2
340,176,64429,1,0
340,140,64531,1,0
256,48,64735,6,0,B|400:48,2,127.5,4|0|4
256,48,65551,1,0
132,72,65755,6,0,B|96:96,1,42.5,2|0
116,132,65959,2,0,B|80:160,1,42.5,2|0
108,192,66164,2,0,B|72:220,1,42.5,2|0
96,256,66368,2,0,B|88:320|144:380|228:356,1,170,4|0
256,244,66980,1,0
256,192,67184,12,4,68000
372,188,68613,6,0,B|372:136|328:104,1,85,2|0
272,60,69225,2,0,B|252:40|216:40,2,42.5,2|0|2
272,188,69837,5,0
272,316,70041,2,0,B|376:328|456:284,1,170,2|0
364,192,70653,5,0
364,192,70755,1,0
364,192,70857,1,2
364,192,71061,2,0,B|308:264|204:264,1,170,4|0
216,136,71674,1,2
212,8,71878,2,0,B|108:8|48:76,1,170,4|0
40,96,72388,1,0
32,128,72490,1,2
32,160,72592,1,0
48,192,72694,1,0
72,216,72796,1,0
96,240,72898,5,2
204,220,73102,1,0
348,296,73306,2,0,B|252:288|200:216,1,170,6|0
204,92,73919,5,0
204,92,74021,1,0
204,92,74123,1,2
332,88,74327,2,0,B|416:120|468:196,1,170,4|0
476,224,74837,1,0
480,256,74939,1,2
372,324,75143,2,0,B|316:356|204:364,1,170,4|0
176,364,75653,1,0
144,356,75755,1,4
100,236,75959,1,4
256,192,76164,12,0,79429
