osu file format v13

[General]
AudioFilename: Salut.soleil!(short ver).mp3
AudioLeadIn: 0
PreviewTime: 76163
Countdown: 0
SampleSet: Soft
StackLeniency: 0.7
Mode: 3
LetterboxInBreaks: 0
SpecialStyle: 0
WidescreenStoryboard: 1

[Editor]
DistanceSpacing: 1.2
BeatDivisor: 4
GridSize: 4
TimelineZoom: 1.4

[Metadata]
Title:Salut.soleil!
TitleUnicode:Salut.soleil!
Artist:Hashimoto Miyuki
ArtistUnicode:橋本みゆき
Creator:richardfeder
Version:Hard
Source:失われた未来を求めて
Tags:TRUMPLE Ushinawareta Mirai wo Motomete
BeatmapID:484329
BeatmapSetID:174304

[Difficulty]
HPDrainRate:7.5
CircleSize:7
OverallDifficulty:7.5
ApproachRate:5
SliderMultiplier:1.4
SliderTickRate:1

[Events]
//Background and Video events
0,0,"BG2.JPG",0,0
//Break Periods
//Storyboard Layer 0 (Background)
//Storyboard Layer 1 (Fail)
//Storyboard Layer 2 (Pass)
//Storyboard Layer 3 (Foreground)
//Storyboard Sound Samples
//Background Colour Transformations
3,100,163,162,255

[TimingPoints]
450,468.75,4,3,0,30,1,0
30450,-100,4,2,0,30,0,0
77325,-100,4,3,0,30,0,0
135450,-100,4,2,0,30,0,0
163575,-100,4,3,0,30,0,0
210450,-111.111111111111,4,2,0,20,0,0

[HitObjects]
36,192,450,5,4,0:0:0:0:
256,192,450,1,0,0:0:0:0:
475,192,450,1,0,0:0:0:0:
256,192,2090,1,4,0:0:0:0:
256,192,2325,1,4,0:0:0:0:
256,192,4200,1,4,0:0:0:0:
256,192,5840,1,4,0:0:0:0:
256,192,6075,1,4,0:0:0:0:
256,192,7481,1,4,0:0:0:0:
256,192,7715,1,4,0:0:0:0:
256,192,7950,1,0,0:0:0:0:
36,192,7950,1,4,0:0:0:0:
475,192,7950,1,0,0:0:0:0:
256,192,9590,1,4,0:0:0:0:
256,192,9825,1,4,0:0:0:0:
256,192,11700,1,4,0:0:0:0:
182,192,13106,1,0,0:0:0:0:
256,192,13223,1,0,0:0:0:0:
475,192,13340,1,4,0:0:0:0:
329,192,13340,1,0,0:0:0:0:
256,192,13457,1,0,0:0:0:0:
182,192,13575,1,0,0:0:0:0:
36,192,13575,1,4,0:0:0:0:
329,192,13809,1,4,0:0:0:0:
475,192,13809,1,0,0:0:0:0:
36,192,14043,128,4,14512:0:0:0:0:
182,192,14043,128,0,14512:0:0:0:0:
329,192,14746,1,4,0:0:0:0:
475,192,14746,1,0,0:0:0:0:
182,192,15215,1,0,0:0:0:0:
36,192,15215,1,0,0:0:0:0:
402,192,15215,128,0,15450:0:0:0:0:
475,192,15450,1,4,0:0:0:0:
109,192,15450,1,0,0:0:0:0:
256,192,15450,128,0,15918:0:0:0:0:
36,192,15450,1,0,0:0:0:0:
182,192,15684,1,0,0:0:0:0:
36,192,15918,1,0,0:0:0:0:
475,192,15918,1,0,0:0:0:0:
182,192,16153,128,0,17090:0:0:0:0:
329,192,16153,1,0,0:0:0:0:
256,192,16387,1,4,0:0:0:0:
329,192,16621,1,0,0:0:0:0:
475,192,16856,1,0,0:0:0:0:
36,192,16856,1,0,0:0:0:0:
256,192,17090,1,0,0:0:0:0:
402,192,17325,128,0,17793:0:0:0:0:
109,192,17325,1,4,0:0:0:0:
256,192,17559,1,0,0:0:0:0:
36,192,17793,1,0,0:0:0:0:
475,192,17793,1,0,0:0:0:0:
182,192,18028,128,0,19200:0:0:0:0:
329,192,18028,1,0,0:0:0:0:
109,192,18262,1,4,0:0:0:0:
256,192,18496,1,0,0:0:0:0:
36,192,18731,1,0,0:0:0:0:
475,192,18731,1,0,0:0:0:0:
256,192,18965,1,0,0:0:0:0:
329,192,19200,128,0,19668:0:0:0:0:
36,192,19200,1,4,0:0:0:0:
182,192,19434,1,0,0:0:0:0:
36,192,19668,1,0,0:0:0:0:
475,192,19668,1,0,0:0:0:0:
109,192,19903,128,0,20840:0:0:0:0:
256,192,19903,1,0,0:0:0:0:
402,192,20137,1,4,0:0:0:0:
256,192,20371,1,0,0:0:0:0:
475,192,20606,1,0,0:0:0:0:
36,192,20606,1,0,0:0:0:0:
329,192,20840,1,0,0:0:0:0:
475,192,21075,128,0,21543:0:0:0:0:
182,192,21075,1,4,0:0:0:0:
256,192,21309,1,0,0:0:0:0:
36,192,21543,1,0,0:0:0:0:
329,192,21543,1,0,0:0:0:0:
329,192,21778,128,0,22246:0:0:0:0:
182,192,21778,1,0,0:0:0:0:
109,192,22012,1,4,0:0:0:0:
475,192,22246,1,0,0:0:0:0:
256,192,22246,1,0,0:0:0:0:
402,192,22481,1,0,0:0:0:0:
36,192,22481,1,0,0:0:0:0:
182,192,22481,1,0,0:0:0:0:
256,192,22598,1,0,0:0:0:0:
109,192,22715,1,0,0:0:0:0:
329,192,22715,1,0,0:0:0:0:
475,192,22715,1,0,0:0:0:0:
402,192,22950,128,0,23418:0:0:0:0:
475,192,22950,1,4,0:0:0:0:
182,192,22950,1,0,0:0:0:0:
36,192,22950,1,0,0:0:0:0:
256,192,23184,1,0,0:0:0:0:
36,192,23418,1,0,0:0:0:0:
329,192,23418,1,0,0:0:0:0:
182,192,23653,128,0,24590:0:0:0:0:
256,192,23653,1,0,0:0:0:0:
402,192,23887,1,4,0:0:0:0:
256,192,24121,1,0,0:0:0:0:
36,192,24356,1,0,0:0:0:0:
475,192,24356,1,0,0:0:0:0:
402,192,24590,1,0,0:0:0:0:
256,192,24590,1,0,0:0:0:0:
329,192,24825,128,0,25293:0:0:0:0:
109,192,24825,1,4,0:0:0:0:
256,192,25059,1,0,0:0:0:0:
36,192,25293,1,0,0:0:0:0:
475,192,25293,1,0,0:0:0:0:
256,192,25528,128,0,26465:0:0:0:0:
109,192,25528,1,0,0:0:0:0:
402,192,25762,1,4,0:0:0:0:
182,192,25996,1,0,0:0:0:0:
36,192,26231,1,0,0:0:0:0:
475,192,26231,1,0,0:0:0:0:
329,192,26465,1,0,0:0:0:0:
475,192,26700,128,0,27168:0:0:0:0:
109,192,26700,1,4,0:0:0:0:
256,192,26934,1,0,0:0:0:0:
36,192,27168,1,0,0:0:0:0:
402,192,27168,1,0,0:0:0:0:
182,192,27403,128,0,28575:0:0:0:0:
329,192,27403,1,0,0:0:0:0:
256,192,27637,1,4,0:0:0:0:
402,192,27871,1,0,0:0:0:0:
329,192,28106,1,0,0:0:0:0:
36,192,28106,1,0,0:0:0:0:
402,192,28340,1,0,0:0:0:0:
256,192,28575,128,0,29512:0:0:0:0:
475,192,28575,1,4,0:0:0:0:
329,192,28809,1,0,0:0:0:0:
36,192,29043,1,0,0:0:0:0:
475,192,29043,1,0,0:0:0:0:
109,192,29278,1,4,0:0:0:0:
402,192,29395,1,4,0:0:0:0:
182,192,29512,1,0,0:0:0:0:
329,192,29629,1,0,0:0:0:0:
475,192,29746,1,0,0:0:0:0:
256,192,29746,1,4,0:0:0:0:
36,192,29746,1,0,0:0:0:0:
329,192,29981,1,0,0:0:0:0:
256,192,30098,1,4,0:0:0:0:
36,192,30098,1,0,0:0:0:0:
475,192,30098,1,0,0:0:0:0:
182,192,30450,1,4,0:0:0:0:
402,192,30450,1,0,0:0:0:0:
256,192,32325,1,0,0:0:0:0:
475,192,32325,1,0,0:0:0:0:
36,192,32559,1,0,0:0:0:0:
182,192,32793,1,0,0:0:0:0:
329,192,33028,1,0,0:0:0:0:
402,192,33496,1,0,0:0:0:0:
256,192,33731,1,0,0:0:0:0:
182,192,33965,1,0,0:0:0:0:
36,192,34200,1,0,0:0:0:0:
402,192,34200,1,0,0:0:0:0:
109,192,34434,1,0,0:0:0:0:
256,192,34668,1,0,0:0:0:0:
329,192,34903,1,0,0:0:0:0:
402,192,35371,1,0,0:0:0:0:
256,192,35606,1,0,0:0:0:0:
182,192,35840,1,0,0:0:0:0:
36,192,36075,1,0,0:0:0:0:
329,192,36075,1,0,0:0:0:0:
182,192,36309,1,0,0:0:0:0:
402,192,36543,1,0,0:0:0:0:
256,192,36778,1,0,0:0:0:0:
109,192,37246,1,0,0:0:0:0:
182,192,37481,1,0,0:0:0:0:
256,192,37715,1,0,0:0:0:0:
329,192,37950,1,0,0:0:0:0:
36,192,37950,1,0,0:0:0:0:
109,192,38418,1,0,0:0:0:0:
256,192,38653,1,0,0:0:0:0:
329,192,39825,1,0,0:0:0:0:
109,192,39825,1,0,0:0:0:0:
182,192,40059,1,0,0:0:0:0:
36,192,40293,1,0,0:0:0:0:
256,192,40528,1,0,0:0:0:0:
182,192,41700,1,0,0:0:0:0:
402,192,41700,1,0,0:0:0:0:
36,192,41934,1,0,0:0:0:0:
256,192,42168,1,0,0:0:0:0:
402,192,42403,1,0,0:0:0:0:
475,192,43575,1,0,0:0:0:0:
256,192,43575,1,0,0:0:0:0:
329,192,44278,1,0,0:0:0:0:
109,192,44278,1,0,0:0:0:0:
109,192,44746,1,0,0:0:0:0:
329,192,44746,1,0,0:0:0:0:
329,192,44981,1,0,0:0:0:0:
109,192,44981,1,0,0:0:0:0:
109,192,45215,1,0,0:0:0:0:
329,192,45215,1,0,0:0:0:0:
256,192,45450,1,4,0:0:0:0:
36,192,45450,1,0,0:0:0:0:
475,192,45450,1,0,0:0:0:0:
182,192,45684,1,0,0:0:0:0:
402,192,45918,1,0,0:0:0:0:
36,192,45918,1,0,0:0:0:0:
256,192,46153,1,0,0:0:0:0:
329,192,46387,1,0,0:0:0:0:
36,192,46387,1,0,0:0:0:0:
182,192,46621,1,0,0:0:0:0:
256,192,46856,1,0,0:0:0:0:
36,192,46856,1,0,0:0:0:0:
109,192,47090,1,0,0:0:0:0:
475,192,47325,1,0,0:0:0:0:
36,192,47325,1,0,0:0:0:0:
329,192,47325,1,0,0:0:0:0:
109,192,47559,1,0,0:0:0:0:
475,192,47793,1,0,0:0:0:0:
256,192,47793,1,0,0:0:0:0:
182,192,48028,1,0,0:0:0:0:
329,192,48262,1,0,0:0:0:0:
475,192,48262,1,0,0:0:0:0:
109,192,48496,1,0,0:0:0:0:
475,192,48731,1,0,0:0:0:0:
182,192,48731,1,0,0:0:0:0:
329,192,48731,1,0,0:0:0:0:
329,192,48965,128,0,50606:0:0:0:0:
36,192,48965,1,0,0:0:0:0:
475,192,49200,1,0,0:0:0:0:
256,192,49200,1,0,0:0:0:0:
109,192,49200,1,0,0:0:0:0:
182,192,49434,1,0,0:0:0:0:
36,192,49668,1,0,0:0:0:0:
475,192,49668,1,0,0:0:0:0:
109,192,49903,1,0,0:0:0:0:
475,192,50137,1,0,0:0:0:0:
182,192,50137,1,0,0:0:0:0:
109,192,50371,1,0,0:0:0:0:
256,192,50606,1,0,0:0:0:0:
475,192,50606,1,0,0:0:0:0:
36,192,50606,1,0,0:0:0:0:
182,192,50840,128,0,52012:0:0:0:0:
402,192,50840,1,0,0:0:0:0:
475,192,51075,1,0,0:0:0:0:
36,192,51075,1,0,0:0:0:0:
329,192,51075,1,0,0:0:0:0:
109,192,51309,1,0,0:0:0:0:
475,192,51543,1,0,0:0:0:0:
402,192,51543,1,0,0:0:0:0:
329,192,51778,1,0,0:0:0:0:
256,192,52012,1,0,0:0:0:0:
36,192,52012,1,0,0:0:0:0:
109,192,52246,1,0,0:0:0:0:
329,192,52481,1,0,0:0:0:0:
475,192,52481,1,0,0:0:0:0:
36,192,52481,1,0,0:0:0:0:
329,192,52715,128,0,54356:0:0:0:0:
182,192,52715,1,0,0:0:0:0:
36,192,52715,1,0,0:0:0:0:
475,192,52950,1,0,0:0:0:0:
109,192,52950,1,0,0:0:0:0:
256,192,53184,1,0,0:0:0:0:
475,192,53418,1,0,0:0:0:0:
36,192,53418,1,0,0:0:0:0:
182,192,53653,1,0,0:0:0:0:
256,192,53887,1,0,0:0:0:0:
475,192,53887,1,0,0:0:0:0:
109,192,54121,1,0,0:0:0:0:
256,192,54356,1,0,0:0:0:0:
475,192,54356,1,0,0:0:0:0:
256,192,54590,128,0,56231:0:0:0:0:
36,192,54590,1,0,0:0:0:0:
475,192,54825,1,0,0:0:0:0:
329,192,54825,1,0,0:0:0:0:
109,192,54825,1,0,0:0:0:0:
182,192,55059,1,0,0:0:0:0:
36,192,55293,1,0,0:0:0:0:
475,192,55293,1,0,0:0:0:0:
109,192,55528,1,0,0:0:0:0:
475,192,55762,1,0,0:0:0:0:
182,192,55762,1,0,0:0:0:0:
402,192,55996,1,0,0:0:0:0:
182,192,56231,1,0,0:0:0:0:
36,192,56231,1,0,0:0:0:0:
475,192,56231,1,0,0:0:0:0:
182,192,56465,128,0,58575:0:0:0:0:
329,192,56465,1,0,0:0:0:0:
475,192,56700,1,0,0:0:0:0:
36,192,56700,1,0,0:0:0:0:
402,192,56700,1,0,0:0:0:0:
256,192,56934,1,0,0:0:0:0:
475,192,57168,1,0,0:0:0:0:
36,192,57168,1,0,0:0:0:0:
329,192,57403,1,0,0:0:0:0:
36,192,57637,1,0,0:0:0:0:
256,192,57637,1,0,0:0:0:0:
475,192,57871,1,0,0:0:0:0:
36,192,58106,1,0,0:0:0:0:
329,192,58106,1,0,0:0:0:0:
402,192,58340,1,0,0:0:0:0:
475,192,58575,1,0,0:0:0:0:
36,192,58575,1,0,0:0:0:0:
402,192,58809,1,0,0:0:0:0:
329,192,59043,1,0,0:0:0:0:
402,192,59278,1,0,0:0:0:0:
36,192,59278,1,0,0:0:0:0:
329,192,59512,1,0,0:0:0:0:
256,192,59746,1,0,0:0:0:0:
402,192,59981,1,0,0:0:0:0:
109,192,59981,1,0,0:0:0:0:
182,192,60450,128,0,62090:0:0:0:0:
36,192,60450,1,0,0:0:0:0:
256,192,60450,1,4,0:0:0:0:
475,192,60450,1,0,0:0:0:0:
402,192,60918,1,0,0:0:0:0:
109,192,61387,1,0,0:0:0:0:
402,192,61856,1,0,0:0:0:0:
402,192,62325,128,0,63965:0:0:0:0:
36,192,62325,1,0,0:0:0:0:
475,192,62325,1,0,0:0:0:0:
182,192,62793,1,0,0:0:0:0:
475,192,63262,1,0,0:0:0:0:
182,192,63731,1,0,0:0:0:0:
256,192,64200,128,0,65840:0:0:0:0:
36,192,64200,1,0,0:0:0:0:
475,192,64200,1,0,0:0:0:0:
475,192,64668,1,0,0:0:0:0:
329,192,64668,1,0,0:0:0:0:
402,192,65137,1,0,0:0:0:0:
109,192,65137,1,0,0:0:0:0:
182,192,65606,1,0,0:0:0:0:
36,192,65606,1,0,0:0:0:0:
475,192,65840,1,0,0:0:0:0:
402,192,65957,1,0,0:0:0:0:
329,192,66075,128,0,66778:0:0:0:0:
182,192,66075,1,0,0:0:0:0:
36,192,66543,1,0,0:0:0:0:
182,192,66778,128,0,67481:0:0:0:0:
475,192,67012,1,0,0:0:0:0:
36,192,67481,1,0,0:0:0:0:
329,192,67481,1,0,0:0:0:0:
402,192,67715,1,0,0:0:0:0:
109,192,67715,1,0,0:0:0:0:
182,192,67950,1,4,0:0:0:0:
475,192,67950,1,0,0:0:0:0:
256,192,67950,128,0,69356:0:0:0:0:
329,192,67950,1,0,0:0:0:0:
402,192,68418,1,0,0:0:0:0:
475,192,68887,1,0,0:0:0:0:
329,192,69356,1,0,0:0:0:0:
402,192,69825,128,0,71231:0:0:0:0:
182,192,69825,1,0,0:0:0:0:
475,192,70293,1,0,0:0:0:0:
36,192,70762,1,0,0:0:0:0:
329,192,71231,1,0,0:0:0:0:
329,192,71700,128,0,72168:0:0:0:0:
475,192,71700,1,4,0:0:0:0:
109,192,71700,1,0,0:0:0:0:
256,192,72168,1,0,0:0:0:0:
36,192,72168,1,0,0:0:0:0:
182,192,72403,128,0,73106:0:0:0:0:
402,192,72403,1,0,0:0:0:0:
36,192,72871,1,0,0:0:0:0:
329,192,73106,128,0,73575:0:0:0:0:
475,192,73106,1,0,0:0:0:0:
109,192,73575,128,0,74043:0:0:0:0:
402,192,73575,1,4,0:0:0:0:
36,192,73575,1,0,0:0:0:0:
256,192,74043,1,0,0:0:0:0:
475,192,74043,1,0,0:0:0:0:
402,192,74278,128,0,74981:0:0:0:0:
182,192,74278,1,0,0:0:0:0:
256,192,74746,1,0,0:0:0:0:
109,192,74981,1,0,0:0:0:0:
475,192,74981,1,0,0:0:0:0:
182,192,75098,1,0,0:0:0:0:
256,192,75215,1,0,0:0:0:0:
329,192,75332,1,0,0:0:0:0:
402,192,75450,1,0,0:0:0:0:
36,192,75450,1,0,0:0:0:0:
182,192,75450,1,0,0:0:0:0:
402,192,75684,1,0,0:0:0:0:
182,192,75684,1,0,0:0:0:0:
36,192,75684,1,0,0:0:0:0:
109,192,75918,1,0,0:0:0:0:
329,192,75918,1,0,0:0:0:0:
475,192,75918,1,0,0:0:0:0:
329,192,76856,1,0,0:0:0:0:
475,192,76856,1,0,0:0:0:0:
36,192,76856,1,0,0:0:0:0:
36,192,77090,1,0,0:0:0:0:
182,192,77090,1,0,0:0:0:0:
475,192,77090,1,0,0:0:0:0:
256,192,77325,128,0,79200:0:0:0:0:
475,192,77325,1,4,0:0:0:0:
36,192,77325,1,0,0:0:0:0:
402,192,77559,1,0,0:0:0:0:
182,192,77676,1,0,0:0:0:0:
109,192,77793,1,0,0:0:0:0:
475,192,77793,1,0,0:0:0:0:
36,192,78028,1,0,0:0:0:0:
402,192,78145,1,0,0:0:0:0:
182,192,78262,1,4,0:0:0:0:
475,192,78379,1,0,0:0:0:0:
109,192,78496,1,0,0:0:0:0:
329,192,78614,1,0,0:0:0:0:
36,192,78731,1,0,0:0:0:0:
402,192,78731,1,0,0:0:0:0:
182,192,78965,1,0,0:0:0:0:
109,192,79200,128,0,81075:0:0:0:0:
475,192,79200,1,4,0:0:0:0:
402,192,79434,1,0,0:0:0:0:
256,192,79551,1,0,0:0:0:0:
36,192,79668,1,0,0:0:0:0:
475,192,79668,1,0,0:0:0:0:
182,192,79903,1,0,0:0:0:0:
402,192,80020,1,0,0:0:0:0:
256,192,80137,1,4,0:0:0:0:
475,192,80254,1,0,0:0:0:0:
329,192,80371,1,0,0:0:0:0:
402,192,80606,1,0,0:0:0:0:
36,192,80606,1,0,0:0:0:0:
256,192,80840,1,0,0:0:0:0:
329,192,81075,128,0,82950:0:0:0:0:
36,192,81075,1,4,0:0:0:0:
475,192,81309,1,0,0:0:0:0:
182,192,81426,1,0,0:0:0:0:
36,192,81543,1,0,0:0:0:0:
402,192,81543,1,0,0:0:0:0:
256,192,81660,1,0,0:0:0:0:
109,192,81778,1,0,0:0:0:0:
475,192,81895,1,0,0:0:0:0:
182,192,82012,1,4,0:0:0:0:
402,192,82129,1,0,0:0:0:0:
36,192,82246,1,0,0:0:0:0:
109,192,82481,1,0,0:0:0:0:
475,192,82481,1,0,0:0:0:0:
256,192,82715,1,0,0:0:0:0:
109,192,82950,128,0,84356:0:0:0:0:
475,192,82950,1,4,0:0:0:0:
256,192,83184,1,0,0:0:0:0:
402,192,83301,1,0,0:0:0:0:
36,192,83418,1,0,0:0:0:0:
475,192,83418,1,0,0:0:0:0:
182,192,83535,1,0,0:0:0:0:
402,192,83653,1,0,0:0:0:0:
256,192,83770,1,0,0:0:0:0:
475,192,83887,1,4,0:0:0:0:
329,192,84004,1,0,0:0:0:0:
256,192,84121,1,0,0:0:0:0:
329,192,84356,1,0,0:0:0:0:
475,192,84356,1,0,0:0:0:0:
182,192,84473,1,0,0:0:0:0:
36,192,84473,1,0,0:0:0:0:
329,192,84590,1,0,0:0:0:0:
182,192,84707,1,0,0:0:0:0:
475,192,84825,1,4,0:0:0:0:
36,192,84825,1,0,0:0:0:0:
256,192,84825,128,0,86700:0:0:0:0:
109,192,85059,1,0,0:0:0:0:
402,192,85176,1,0,0:0:0:0:
36,192,85293,1,0,0:0:0:0:
329,192,85293,1,0,0:0:0:0:
475,192,85528,1,0,0:0:0:0:
109,192,85645,1,0,0:0:0:0:
402,192,85762,1,4,0:0:0:0:
36,192,85879,1,0,0:0:0:0:
329,192,85996,1,0,0:0:0:0:
182,192,86114,1,0,0:0:0:0:
475,192,86231,1,0,0:0:0:0:
109,192,86231,1,0,0:0:0:0:
402,192,86465,1,0,0:0:0:0:
36,192,86700,128,0,88106:0:0:0:0:
475,192,86700,1,4,0:0:0:0:
182,192,86934,1,0,0:0:0:0:
329,192,87051,1,0,0:0:0:0:
475,192,87168,1,0,0:0:0:0:
109,192,87168,1,0,0:0:0:0:
256,192,87285,1,0,0:0:0:0:
402,192,87403,1,0,0:0:0:0:
182,192,87520,1,0,0:0:0:0:
475,192,87637,1,4,0:0:0:0:
256,192,87754,1,0,0:0:0:0:
402,192,87871,1,0,0:0:0:0:
475,192,88106,1,0,0:0:0:0:
329,192,88106,1,0,0:0:0:0:
256,192,88340,1,0,0:0:0:0:
475,192,88575,128,0,88926:0:0:0:0:
329,192,88575,128,0,88926:0:0:0:0:
182,192,88575,1,0,0:0:0:0:
329,192,89043,1,0,0:0:0:0:
475,192,89043,1,0,0:0:0:0:
182,192,89043,1,0,0:0:0:0:
36,192,89278,128,0,89746:0:0:0:0:
182,192,89278,128,0,89512:0:0:0:0:
329,192,89278,1,0,0:0:0:0:
475,192,89746,128,0,90215:0:0:0:0:
329,192,89746,128,0,89981:0:0:0:0:
182,192,89746,1,0,0:0:0:0:
329,192,90215,1,0,0:0:0:0:
36,192,90215,128,0,90684:0:0:0:0:
182,192,90215,128,0,90684:0:0:0:0:
475,192,90450,1,0,0:0:0:0:
402,192,90684,1,0,0:0:0:0:
256,192,90918,1,0,0:0:0:0:
182,192,91153,1,0,0:0:0:0:
475,192,91153,1,0,0:0:0:0:
329,192,91270,1,0,0:0:0:0:
109,192,91387,1,0,0:0:0:0:
256,192,91504,1,0,0:0:0:0:
402,192,91621,1,0,0:0:0:0:
182,192,91856,1,0,0:0:0:0:
36,192,91856,1,0,0:0:0:0:
329,192,91973,1,0,0:0:0:0:
475,192,91973,1,0,0:0:0:0:
182,192,92090,1,0,0:0:0:0:
36,192,92090,1,0,0:0:0:0:
329,192,92207,1,0,0:0:0:0:
475,192,92207,1,0,0:0:0:0:
182,192,92325,1,0,0:0:0:0:
36,192,92325,1,4,0:0:0:0:
402,192,92325,128,0,94200:0:0:0:0:
109,192,92559,1,0,0:0:0:0:
256,192,92676,1,0,0:0:0:0:
36,192,92793,1,0,0:0:0:0:
475,192,92793,1,0,0:0:0:0:
329,192,93028,1,0,0:0:0:0:
109,192,93145,1,0,0:0:0:0:
256,192,93262,1,4,0:0:0:0:
36,192,93379,1,0,0:0:0:0:
475,192,93496,1,0,0:0:0:0:
329,192,93614,1,0,0:0:0:0:
182,192,93731,1,0,0:0:0:0:
36,192,93731,1,0,0:0:0:0:
109,192,93965,1,0,0:0:0:0:
256,192,94200,128,0,96075:0:0:0:0:
475,192,94200,1,4,0:0:0:0:
109,192,94434,1,0,0:0:0:0:
329,192,94551,1,0,0:0:0:0:
182,192,94668,1,0,0:0:0:0:
475,192,94668,1,0,0:0:0:0:
402,192,94785,1,0,0:0:0:0:
36,192,94903,1,0,0:0:0:0:
329,192,95020,1,0,0:0:0:0:
109,192,95137,1,4,0:0:0:0:
475,192,95254,1,0,0:0:0:0:
402,192,95371,1,0,0:0:0:0:
329,192,95606,1,0,0:0:0:0:
36,192,95606,1,0,0:0:0:0:
109,192,95840,1,0,0:0:0:0:
402,192,95957,1,0,0:0:0:0:
182,192,96075,128,0,97950:0:0:0:0:
475,192,96075,1,4,0:0:0:0:
36,192,96309,1,0,0:0:0:0:
329,192,96426,1,0,0:0:0:0:
475,192,96543,1,0,0:0:0:0:
109,192,96543,1,0,0:0:0:0:
256,192,96660,1,0,0:0:0:0:
402,192,96778,1,0,0:0:0:0:
329,192,96895,1,0,0:0:0:0:
109,192,97012,1,4,0:0:0:0:
256,192,97129,1,0,0:0:0:0:
402,192,97246,1,0,0:0:0:0:
475,192,97481,1,0,0:0:0:0:
36,192,97481,1,0,0:0:0:0:
402,192,97598,1,0,0:0:0:0:
329,192,97715,1,0,0:0:0:0:
402,192,97832,1,0,0:0:0:0:
36,192,97950,128,0,98418:0:0:0:0:
475,192,97950,1,4,0:0:0:0:
182,192,98184,1,0,0:0:0:0:
256,192,98301,1,0,0:0:0:0:
329,192,98418,1,0,0:0:0:0:
475,192,98418,1,0,0:0:0:0:
182,192,98535,1,0,0:0:0:0:
402,192,98653,128,0,99121:0:0:0:0:
109,192,98653,1,0,0:0:0:0:
256,192,98770,1,0,0:0:0:0:
36,192,98887,1,4,0:0:0:0:
329,192,99004,1,0,0:0:0:0:
109,192,99121,1,0,0:0:0:0:
256,192,99239,1,0,0:0:0:0:
36,192,99356,1,0,0:0:0:0:
402,192,99356,1,0,0:0:0:0:
182,192,99590,1,0,0:0:0:0:
256,192,99707,1,0,0:0:0:0:
329,192,99825,128,0,100996:0:0:0:0:
475,192,99825,1,4,0:0:0:0:
36,192,99825,1,0,0:0:0:0:
109,192,100059,1,0,0:0:0:0:
182,192,100176,1,0,0:0:0:0:
256,192,100293,1,0,0:0:0:0:
475,192,100293,1,0,0:0:0:0:
109,192,100410,1,0,0:0:0:0:
402,192,100528,1,0,0:0:0:0:
36,192,100645,1,0,0:0:0:0:
182,192,100762,1,4,0:0:0:0:
109,192,100879,1,0,0:0:0:0:
256,192,100996,1,0,0:0:0:0:
36,192,100996,1,0,0:0:0:0:
475,192,100996,1,0,0:0:0:0:
256,192,101465,128,0,103575:0:0:0:0:
402,192,101465,1,0,0:0:0:0:
36,192,101465,1,0,0:0:0:0:
182,192,101465,1,0,0:0:0:0:
475,192,101934,128,0,102168:0:0:0:0:
329,192,102168,128,0,102403:0:0:0:0:
182,192,102403,128,0,102637:0:0:0:0:
475,192,102637,128,0,102871:0:0:0:0:
329,192,102871,128,0,103106:0:0:0:0:
36,192,103106,128,0,103340:0:0:0:0:
182,192,103340,128,0,103575:0:0:0:0:
329,192,103575,1,0,0:0:0:0:
475,192,103575,1,0,0:0:0:0:
36,192,103575,1,0,0:0:0:0:
36,192,103809,1,0,0:0:0:0:
329,192,103809,1,0,0:0:0:0:
475,192,103809,1,0,0:0:0:0:
475,192,104043,1,0,0:0:0:0:
329,192,104043,1,0,0:0:0:0:
36,192,104043,1,0,0:0:0:0:
475,192,104746,1,0,0:0:0:0:
36,192,104746,1,0,0:0:0:0:
329,192,104746,1,0,0:0:0:0:
36,192,105215,1,0,0:0:0:0:
475,192,105215,1,0,0:0:0:0:
182,192,105215,1,0,0:0:0:0:
329,192,105450,128,0,105918:0:0:0:0:
109,192,105450,1,0,0:0:0:0:
402,192,105450,1,0,0:0:0:0:
182,192,105684,1,0,0:0:0:0:
475,192,105918,1,0,0:0:0:0:
36,192,105918,1,0,0:0:0:0:
256,192,105918,1,0,0:0:0:0:
182,192,106153,128,0,106621:0:0:0:0:
402,192,106153,1,0,0:0:0:0:
329,192,106387,1,4,0:0:0:0:
109,192,106621,128,0,107090:0:0:0:0:
402,192,106621,1,0,0:0:0:0:
475,192,106856,1,0,0:0:0:0:
256,192,106856,1,0,0:0:0:0:
329,192,107090,128,0,107559:0:0:0:0:
36,192,107090,1,0,0:0:0:0:
182,192,107325,1,4,0:0:0:0:
402,192,107559,1,0,0:0:0:0:
475,192,107559,1,0,0:0:0:0:
329,192,107793,1,0,0:0:0:0:
36,192,107793,1,0,0:0:0:0:
182,192,107793,1,0,0:0:0:0:
256,192,108028,128,0,109200:0:0:0:0:
109,192,108028,1,0,0:0:0:0:
402,192,108262,1,4,0:0:0:0:
182,192,108496,1,0,0:0:0:0:
36,192,108731,1,0,0:0:0:0:
475,192,108731,1,0,0:0:0:0:
329,192,108965,1,0,0:0:0:0:
402,192,109200,128,0,109668:0:0:0:0:
109,192,109200,1,4,0:0:0:0:
182,192,109434,1,0,0:0:0:0:
256,192,109668,1,0,0:0:0:0:
475,192,109668,1,0,0:0:0:0:
36,192,109668,1,0,0:0:0:0:
182,192,109903,128,0,110371:0:0:0:0:
329,192,109903,1,0,0:0:0:0:
402,192,110137,1,4,0:0:0:0:
109,192,110371,128,0,110840:0:0:0:0:
256,192,110371,1,0,0:0:0:0:
329,192,110606,1,0,0:0:0:0:
475,192,110606,1,0,0:0:0:0:
402,192,110840,128,0,111309:0:0:0:0:
36,192,110840,1,0,0:0:0:0:
109,192,111075,1,4,0:0:0:0:
475,192,111309,1,0,0:0:0:0:
182,192,111309,1,0,0:0:0:0:
402,192,111543,1,0,0:0:0:0:
256,192,111543,1,0,0:0:0:0:
36,192,111543,1,0,0:0:0:0:
329,192,111778,128,0,112481:0:0:0:0:
182,192,111778,1,0,0:0:0:0:
36,192,112012,1,4,0:0:0:0:
109,192,112246,1,0,0:0:0:0:
475,192,112481,1,0,0:0:0:0:
36,192,112481,1,0,0:0:0:0:
109,192,112598,1,0,0:0:0:0:
402,192,112598,1,0,0:0:0:0:
182,192,112715,1,0,0:0:0:0:
329,192,112715,1,0,0:0:0:0:
109,192,112832,1,0,0:0:0:0:
402,192,112832,1,0,0:0:0:0:
36,192,112950,1,4,0:0:0:0:
475,192,112950,1,0,0:0:0:0:
256,192,112950,128,0,113418:0:0:0:0:
402,192,113184,1,0,0:0:0:0:
109,192,113418,1,0,0:0:0:0:
475,192,113418,1,0,0:0:0:0:
329,192,113418,1,0,0:0:0:0:
182,192,113653,128,0,114121:0:0:0:0:
402,192,113653,1,0,0:0:0:0:
36,192,113887,1,4,0:0:0:0:
256,192,114121,128,0,114590:0:0:0:0:
329,192,114121,1,0,0:0:0:0:
475,192,114356,1,0,0:0:0:0:
36,192,114356,1,0,0:0:0:0:
329,192,114590,128,0,115059:0:0:0:0:
182,192,114590,1,0,0:0:0:0:
109,192,114825,1,4,0:0:0:0:
182,192,115059,128,0,115293:0:0:0:0:
402,192,115059,1,0,0:0:0:0:
329,192,115293,128,0,116231:0:0:0:0:
475,192,115293,1,0,0:0:0:0:
36,192,115293,1,0,0:0:0:0:
109,192,115528,1,0,0:0:0:0:
256,192,115762,1,4,0:0:0:0:
182,192,115996,1,0,0:0:0:0:
36,192,116231,1,0,0:0:0:0:
475,192,116231,1,0,0:0:0:0:
256,192,116465,1,0,0:0:0:0:
182,192,116700,128,0,117168:0:0:0:0:
402,192,116700,1,4,0:0:0:0:
256,192,116934,1,0,0:0:0:0:
329,192,117168,128,0,117403:0:0:0:0:
36,192,117168,1,0,0:0:0:0:
475,192,117168,1,0,0:0:0:0:
182,192,117403,128,0,117871:0:0:0:0:
402,192,117403,1,0,0:0:0:0:
36,192,117637,1,4,0:0:0:0:
256,192,117871,128,0,118340:0:0:0:0:
475,192,117871,1,0,0:0:0:0:
402,192,118106,1,0,0:0:0:0:
36,192,118106,1,0,0:0:0:0:
329,192,118340,128,0,118575:0:0:0:0:
109,192,118340,1,0,0:0:0:0:
182,192,118575,1,4,0:0:0:0:
329,192,118809,128,0,119043:0:0:0:0:
36,192,118809,1,0,0:0:0:0:
182,192,119043,128,0,119981:0:0:0:0:
475,192,119043,1,0,0:0:0:0:
402,192,119043,1,0,0:0:0:0:
109,192,119278,1,0,0:0:0:0:
329,192,119512,1,4,0:0:0:0:
475,192,119746,128,0,120215:0:0:0:0:
36,192,119746,1,0,0:0:0:0:
402,192,119746,1,0,0:0:0:0:
329,192,119981,1,0,0:0:0:0:
36,192,120098,1,0,0:0:0:0:
256,192,120098,1,0,0:0:0:0:
402,192,120215,1,0,0:0:0:0:
182,192,120215,1,0,0:0:0:0:
329,192,120332,1,0,0:0:0:0:
36,192,120450,1,4,0:0:0:0:
475,192,120450,1,4,0:0:0:0:
256,192,120450,128,0,120801:0:0:0:0:
182,192,120684,1,0,0:0:0:0:
329,192,120801,128,0,121153:0:0:0:0:
475,192,120918,1,0,0:0:0:0:
36,192,120918,1,0,0:0:0:0:
109,192,121153,128,0,121856:0:0:0:0:
182,192,121153,1,0,0:0:0:0:
402,192,121387,1,4,0:0:0:0:
329,192,121621,1,0,0:0:0:0:
36,192,121856,1,0,0:0:0:0:
475,192,121856,1,0,0:0:0:0:
329,192,122090,128,0,122500:0:0:0:0:
182,192,122090,1,0,0:0:0:0:
109,192,122325,1,4,0:0:0:0:
402,192,122500,1,0,0:0:0:0:
182,192,122559,1,0,0:0:0:0:
329,192,122617,1,0,0:0:0:0:
256,192,122735,1,0,0:0:0:0:
475,192,122793,1,0,0:0:0:0:
36,192,122793,1,0,0:0:0:0:
182,192,122910,1,0,0:0:0:0:
109,192,123028,1,0,0:0:0:0:
329,192,123028,1,0,0:0:0:0:
182,192,123203,128,0,123965:0:0:0:0:
402,192,123262,1,4,0:0:0:0:
256,192,123496,1,0,0:0:0:0:
475,192,123731,1,0,0:0:0:0:
36,192,123731,1,0,0:0:0:0:
329,192,123965,1,0,0:0:0:0:
109,192,124200,128,0,124434:0:0:0:0:
256,192,124200,1,4,0:0:0:0:
402,192,124434,1,0,0:0:0:0:
36,192,124434,1,0,0:0:0:0:
329,192,124492,1,0,0:0:0:0:
256,192,124551,1,0,0:0:0:0:
182,192,124668,1,0,0:0:0:0:
475,192,124668,1,0,0:0:0:0:
402,192,124668,1,0,0:0:0:0:
36,192,124785,1,0,0:0:0:0:
256,192,124903,1,0,0:0:0:0:
109,192,125020,1,0,0:0:0:0:
329,192,125137,128,0,125371:0:0:0:0:
475,192,125137,1,4,0:0:0:0:
36,192,125371,1,0,0:0:0:0:
182,192,125371,1,0,0:0:0:0:
256,192,125489,1,0,0:0:0:0:
475,192,125606,1,0,0:0:0:0:
329,192,125606,1,0,0:0:0:0:
109,192,125606,1,0,0:0:0:0:
256,192,125723,1,0,0:0:0:0:
182,192,125840,128,0,126075:0:0:0:0:
36,192,125840,1,0,0:0:0:0:
475,192,126075,128,0,126543:0:0:0:0:
256,192,126075,1,0,0:0:0:0:
329,192,126309,128,0,126543:0:0:0:0:
109,192,126543,128,0,127012:0:0:0:0:
36,192,126543,1,0,0:0:0:0:
256,192,126778,128,0,127012:0:0:0:0:
402,192,127012,128,0,127481:0:0:0:0:
475,192,127012,1,0,0:0:0:0:
182,192,127481,1,0,0:0:0:0:
36,192,127481,1,0,0:0:0:0:
475,192,127481,1,0,0:0:0:0:
329,192,127598,1,0,0:0:0:0:
182,192,127715,1,0,0:0:0:0:
329,192,127832,1,0,0:0:0:0:
475,192,127950,1,0,0:0:0:0:
182,192,127950,128,0,128418:0:0:0:0:
109,192,128067,128,0,128418:0:0:0:0:
36,192,128184,128,0,128418:0:0:0:0:
475,192,128418,128,0,128887:0:0:0:0:
402,192,128575,128,0,128887:0:0:0:0:
329,192,128731,128,0,128887:0:0:0:0:
36,192,128887,128,0,129356:0:0:0:0:
109,192,129043,128,0,129356:0:0:0:0:
182,192,129200,128,0,129356:0:0:0:0:
329,192,129356,128,0,129825:0:0:0:0:
402,192,129512,128,0,129825:0:0:0:0:
475,192,129668,128,0,129825:0:0:0:0:
182,192,129825,128,0,130293:0:0:0:0:
109,192,129942,128,0,130293:0:0:0:0:
36,192,130059,128,0,130293:0:0:0:0:
475,192,130293,128,0,130762:0:0:0:0:
329,192,130450,128,0,130762:0:0:0:0:
182,192,130567,128,0,130762:0:0:0:0:
256,192,130762,128,0,131231:0:0:0:0:
36,192,131231,1,0,0:0:0:0:
475,192,131231,1,0,0:0:0:0:
402,192,131465,1,0,0:0:0:0:
36,192,131700,1,0,0:0:0:0:
475,192,131700,1,0,0:0:0:0:
256,192,131700,1,0,0:0:0:0:
402,192,131934,1,0,0:0:0:0:
109,192,131934,1,0,0:0:0:0:
256,192,131934,1,0,0:0:0:0:
36,192,132168,1,0,0:0:0:0:
256,192,132168,1,0,0:0:0:0:
475,192,132168,1,0,0:0:0:0:
256,192,132871,1,0,0:0:0:0:
36,192,132871,1,0,0:0:0:0:
475,192,132871,1,0,0:0:0:0:
329,192,133340,1,0,0:0:0:0:
475,192,133340,1,0,0:0:0:0:
36,192,133340,1,0,0:0:0:0:
182,192,133809,1,0,0:0:0:0:
36,192,133809,1,0,0:0:0:0:
475,192,133809,1,0,0:0:0:0:
475,192,134278,1,0,0:0:0:0:
36,192,134278,1,0,0:0:0:0:
256,192,134278,1,0,0:0:0:0:
475,192,134512,1,0,0:0:0:0:
36,192,134512,1,0,0:0:0:0:
256,192,134512,1,0,0:0:0:0:
182,192,134746,1,0,0:0:0:0:
402,192,134746,1,0,0:0:0:0:
329,192,134981,1,0,0:0:0:0:
109,192,134981,1,0,0:0:0:0:
36,192,135215,1,0,0:0:0:0:
256,192,135215,1,0,0:0:0:0:
475,192,135450,1,4,0:0:0:0:
182,192,135450,128,0,137090:0:0:0:0:
329,192,135450,1,0,0:0:0:0:
36,192,135918,1,0,0:0:0:0:
475,192,136387,1,0,0:0:0:0:
329,192,136856,1,0,0:0:0:0:
402,192,137325,128,0,138731:0:0:0:0:
36,192,137325,1,0,0:0:0:0:
182,192,137793,1,0,0:0:0:0:
36,192,138262,1,0,0:0:0:0:
475,192,138731,1,0,0:0:0:0:
329,192,139200,128,0,140606:0:0:0:0:
182,192,139200,1,0,0:0:0:0:
475,192,139668,1,0,0:0:0:0:
36,192,140137,1,0,0:0:0:0:
475,192,140606,1,0,0:0:0:0:
109,192,141075,128,0,141778:0:0:0:0:
36,192,141075,1,0,0:0:0:0:
475,192,141543,1,0,0:0:0:0:
256,192,141778,128,0,142481:0:0:0:0:
329,192,142012,1,0,0:0:0:0:
36,192,142481,1,0,0:0:0:0:
182,192,142481,1,0,0:0:0:0:
329,192,142715,1,0,0:0:0:0:
475,192,142715,1,0,0:0:0:0:
182,192,142950,128,4,144356:0:0:0:0:
36,192,142950,1,0,0:0:0:0:
256,192,142950,1,0,0:0:0:0:
475,192,142950,1,0,0:0:0:0:
402,192,143418,1,0,0:0:0:0:
109,192,143887,1,0,0:0:0:0:
402,192,144356,1,0,0:0:0:0:
402,192,144825,128,0,146231:0:0:0:0:
256,192,144825,1,0,0:0:0:0:
109,192,145293,1,0,0:0:0:0:
475,192,145762,1,0,0:0:0:0:
256,192,146231,1,0,0:0:0:0:
182,192,146700,1,0,0:0:0:0:
36,192,146700,1,0,0:0:0:0:
402,192,146700,1,0,0:0:0:0:
329,192,146934,1,0,0:0:0:0:
256,192,147168,1,0,0:0:0:0:
475,192,147403,1,0,0:0:0:0:
182,192,147403,1,0,0:0:0:0:
402,192,147637,1,0,0:0:0:0:
329,192,147871,1,0,0:0:0:0:
36,192,148106,1,0,0:0:0:0:
256,192,148106,1,0,0:0:0:0:
109,192,148340,1,0,0:0:0:0:
182,192,148575,1,0,0:0:0:0:
475,192,148575,1,0,0:0:0:0:
36,192,148575,1,0,0:0:0:0:
329,192,148809,1,0,0:0:0:0:
402,192,149043,1,0,0:0:0:0:
256,192,149278,1,0,0:0:0:0:
475,192,149278,1,0,0:0:0:0:
109,192,149512,1,0,0:0:0:0:
182,192,149746,1,0,0:0:0:0:
475,192,149981,1,0,0:0:0:0:
256,192,149981,1,0,0:0:0:0:
329,192,150215,1,0,0:0:0:0:
36,192,150450,1,0,0:0:0:0:
475,192,150450,1,0,0:0:0:0:
256,192,150450,1,0,0:0:0:0:
36,192,150684,1,0,0:0:0:0:
256,192,150684,1,0,0:0:0:0:
475,192,150684,1,0,0:0:0:0:
475,192,150918,1,0,0:0:0:0:
36,192,150918,1,0,0:0:0:0:
256,192,150918,1,0,0:0:0:0:
402,192,152090,1,0,0:0:0:0:
329,192,152168,1,0,0:0:0:0:
256,192,152246,1,0,0:0:0:0:
182,192,152325,1,4,0:0:0:0:
36,192,154200,1,0,0:0:0:0:
329,192,154434,1,0,0:0:0:0:
256,192,154903,1,0,0:0:0:0:
182,192,155137,1,0,0:0:0:0:
402,192,155371,1,0,0:0:0:0:
109,192,155606,1,0,0:0:0:0:
329,192,155840,1,0,0:0:0:0:
36,192,156075,1,0,0:0:0:0:
182,192,156309,1,0,0:0:0:0:
475,192,156543,1,0,0:0:0:0:
329,192,156778,1,0,0:0:0:0:
256,192,157012,1,0,0:0:0:0:
402,192,157246,1,0,0:0:0:0:
182,192,157481,1,0,0:0:0:0:
329,192,157715,1,0,0:0:0:0:
109,192,157950,1,0,0:0:0:0:
182,192,158184,1,0,0:0:0:0:
329,192,158418,1,0,0:0:0:0:
475,192,158653,1,0,0:0:0:0:
402,192,159121,1,0,0:0:0:0:
256,192,159356,1,0,0:0:0:0:
182,192,159590,1,0,0:0:0:0:
36,192,159825,1,0,0:0:0:0:
109,192,160059,1,0,0:0:0:0:
329,192,160293,1,0,0:0:0:0:
402,192,160528,1,0,0:0:0:0:
182,192,160762,1,0,0:0:0:0:
109,192,160996,1,0,0:0:0:0:
329,192,161231,1,0,0:0:0:0:
256,192,161465,1,0,0:0:0:0:
36,192,161700,1,0,0:0:0:0:
329,192,161934,1,0,0:0:0:0:
182,192,162168,1,0,0:0:0:0:
475,192,162403,1,0,0:0:0:0:
256,192,162871,1,0,0:0:0:0:
36,192,163106,1,0,0:0:0:0:
329,192,163106,1,0,0:0:0:0:
182,192,163340,1,0,0:0:0:0:
475,192,163340,1,0,0:0:0:0:
329,192,163575,1,0,0:0:0:0:
36,192,163575,1,4,0:0:0:0:
256,192,163575,128,0,164043:0:0:0:0:
109,192,164043,1,4,0:0:0:0:
402,192,164043,1,0,0:0:0:0:
182,192,164278,1,4,0:0:0:0:
475,192,164278,1,0,0:0:0:0:
329,192,164278,128,0,164746:0:0:0:0:
36,192,164746,1,4,0:0:0:0:
256,192,164746,1,0,0:0:0:0:
109,192,164746,128,0,165215:0:0:0:0:
329,192,165215,1,0,0:0:0:0:
475,192,165215,1,4,0:0:0:0:
182,192,165215,1,0,0:0:0:0:
256,192,165450,1,4,0:0:0:0:
475,192,165684,1,0,0:0:0:0:
329,192,165684,1,0,0:0:0:0:
182,192,165918,1,0,0:0:0:0:
256,192,166153,1,0,0:0:0:0:
402,192,166153,1,0,0:0:0:0:
36,192,166153,1,0,0:0:0:0:
182,192,166504,1,0,0:0:0:0:
402,192,166621,1,0,0:0:0:0:
36,192,166856,1,0,0:0:0:0:
329,192,166856,1,0,0:0:0:0:
402,192,166973,1,0,0:0:0:0:
109,192,166973,1,0,0:0:0:0:
475,192,167090,1,0,0:0:0:0:
182,192,167090,1,0,0:0:0:0:
36,192,167207,1,0,0:0:0:0:
329,192,167207,1,0,0:0:0:0:
109,192,167325,1,4,0:0:0:0:
402,192,167325,1,0,0:0:0:0:
256,192,167325,128,0,169200:0:0:0:0:
182,192,167559,1,0,0:0:0:0:
329,192,167676,1,0,0:0:0:0:
475,192,167793,1,0,0:0:0:0:
36,192,167793,1,0,0:0:0:0:
109,192,168028,1,0,0:0:0:0:
475,192,168145,1,0,0:0:0:0:
36,192,168262,1,4,0:0:0:0:
402,192,168379,1,0,0:0:0:0:
109,192,168496,1,0,0:0:0:0:
329,192,168614,1,0,0:0:0:0:
475,192,168731,1,0,0:0:0:0:
36,192,168731,1,0,0:0:0:0:
329,192,168965,1,0,0:0:0:0:
402,192,169082,1,0,0:0:0:0:
182,192,169200,128,0,171075:0:0:0:0:
475,192,169200,1,4,0:0:0:0:
36,192,169434,1,0,0:0:0:0:
402,192,169551,1,0,0:0:0:0:
109,192,169668,1,0,0:0:0:0:
329,192,169668,1,0,0:0:0:0:
475,192,169785,1,0,0:0:0:0:
256,192,169903,1,0,0:0:0:0:
402,192,170020,1,0,0:0:0:0:
36,192,170137,1,4,0:0:0:0:
329,192,170254,1,0,0:0:0:0:
109,192,170371,1,0,0:0:0:0:
329,192,170606,1,0,0:0:0:0:
36,192,170606,1,0,0:0:0:0:
402,192,170840,1,0,0:0:0:0:
329,192,170957,1,0,0:0:0:0:
109,192,171075,128,0,172950:0:0:0:0:
256,192,171075,1,4,0:0:0:0:
475,192,171309,1,0,0:0:0:0:
402,192,171426,1,0,0:0:0:0:
329,192,171543,1,0,0:0:0:0:
36,192,171543,1,0,0:0:0:0:
402,192,171660,1,0,0:0:0:0:
475,192,171778,1,0,0:0:0:0:
182,192,172012,1,4,0:0:0:0:
402,192,172129,1,0,0:0:0:0:
256,192,172246,1,0,0:0:0:0:
475,192,172481,1,0,0:0:0:0:
329,192,172481,1,0,0:0:0:0:
182,192,172715,1,0,0:0:0:0:
402,192,172950,128,0,173418:0:0:0:0:
256,192,172950,1,4,0:0:0:0:
36,192,173184,1,0,0:0:0:0:
109,192,173301,1,0,0:0:0:0:
329,192,173418,1,0,0:0:0:0:
182,192,173418,1,0,0:0:0:0:
475,192,173418,1,0,0:0:0:0:
109,192,173535,1,0,0:0:0:0:
256,192,173653,128,0,174356:0:0:0:0:
36,192,173653,1,0,0:0:0:0:
475,192,173770,1,0,0:0:0:0:
182,192,173887,1,4,0:0:0:0:
402,192,174004,1,0,0:0:0:0:
109,192,174121,1,0,0:0:0:0:
329,192,174356,1,0,0:0:0:0:
36,192,174356,1,0,0:0:0:0:
475,192,174356,1,0,0:0:0:0:
182,192,174473,1,0,0:0:0:0:
402,192,174590,1,0,0:0:0:0:
256,192,174707,1,0,0:0:0:0:
475,192,174825,1,4,0:0:0:0:
36,192,174825,1,0,0:0:0:0:
182,192,174825,128,0,175996:0:0:0:0:
402,192,175059,1,0,0:0:0:0:
329,192,175293,1,0,0:0:0:0:
36,192,175293,1,0,0:0:0:0:
475,192,175410,1,0,0:0:0:0:
109,192,175528,1,0,0:0:0:0:
402,192,175645,1,0,0:0:0:0:
256,192,175762,1,4,0:0:0:0:
329,192,175879,1,0,0:0:0:0:
402,192,175996,1,0,0:0:0:0:
36,192,175996,1,0,0:0:0:0:
475,192,175996,1,0,0:0:0:0:
329,192,176465,1,0,0:0:0:0:
36,192,176465,1,0,0:0:0:0:
475,192,176465,1,0,0:0:0:0:
256,192,176465,128,0,178575:0:0:0:0:
402,192,176934,128,0,177168:0:0:0:0:
109,192,177168,128,0,177403:0:0:0:0:
329,192,177403,128,0,177637:0:0:0:0:
182,192,177637,128,0,177871:0:0:0:0:
402,192,177871,128,0,178106:0:0:0:0:
109,192,178106,128,0,178340:0:0:0:0:
329,192,178340,128,0,178575:0:0:0:0:
475,192,178575,1,0,0:0:0:0:
182,192,178575,1,0,0:0:0:0:
36,192,178575,1,0,0:0:0:0:
36,192,178809,1,0,0:0:0:0:
182,192,178809,1,0,0:0:0:0:
475,192,178809,1,0,0:0:0:0:
475,192,179043,1,0,0:0:0:0:
182,192,179043,1,0,0:0:0:0:
36,192,179043,1,0,0:0:0:0:
256,192,179746,1,0,0:0:0:0:
36,192,179746,1,0,0:0:0:0:
475,192,179746,1,0,0:0:0:0:
329,192,180215,1,0,0:0:0:0:
475,192,180215,1,0,0:0:0:0:
36,192,180215,1,0,0:0:0:0:
256,192,180450,128,0,180918:0:0:0:0:
402,192,180450,1,4,0:0:0:0:
182,192,180450,1,0,0:0:0:0:
36,192,180450,1,0,0:0:0:0:
329,192,180684,1,0,0:0:0:0:
36,192,180918,1,0,0:0:0:0:
475,192,180918,1,0,0:0:0:0:
182,192,181153,128,0,182090:0:0:0:0:
329,192,181153,1,0,0:0:0:0:
256,192,181387,1,4,0:0:0:0:
329,192,181621,1,0,0:0:0:0:
475,192,181856,1,0,0:0:0:0:
36,192,181856,1,0,0:0:0:0:
256,192,182090,1,0,0:0:0:0:
402,192,182325,128,0,182793:0:0:0:0:
109,192,182325,1,4,0:0:0:0:
256,192,182559,1,0,0:0:0:0:
36,192,182793,1,0,0:0:0:0:
475,192,182793,1,0,0:0:0:0:
182,192,183028,128,0,183965:0:0:0:0:
329,192,183028,1,0,0:0:0:0:
109,192,183262,1,4,0:0:0:0:
256,192,183496,1,0,0:0:0:0:
475,192,183731,1,0,0:0:0:0:
36,192,183731,1,0,0:0:0:0:
402,192,183965,1,0,0:0:0:0:
256,192,183965,1,0,0:0:0:0:
329,192,184200,128,0,184668:0:0:0:0:
109,192,184200,1,4,0:0:0:0:
256,192,184434,1,0,0:0:0:0:
475,192,184668,1,0,0:0:0:0:
182,192,184668,1,0,0:0:0:0:
36,192,184903,128,0,185840:0:0:0:0:
402,192,184903,1,0,0:0:0:0:
182,192,185137,1,4,0:0:0:0:
256,192,185371,1,0,0:0:0:0:
329,192,185606,1,0,0:0:0:0:
475,192,185606,1,0,0:0:0:0:
256,192,185840,1,0,0:0:0:0:
109,192,185840,1,0,0:0:0:0:
475,192,186075,128,0,186543:0:0:0:0:
329,192,186075,1,4,0:0:0:0:
256,192,186309,1,0,0:0:0:0:
36,192,186543,1,0,0:0:0:0:
182,192,186543,1,0,0:0:0:0:
329,192,186778,128,0,187246:0:0:0:0:
402,192,186778,1,0,0:0:0:0:
109,192,187012,1,4,0:0:0:0:
182,192,187129,1,0,0:0:0:0:
36,192,187246,1,0,0:0:0:0:
256,192,187246,1,0,0:0:0:0:
402,192,187246,1,0,0:0:0:0:
109,192,187481,1,0,0:0:0:0:
329,192,187481,1,0,0:0:0:0:
475,192,187481,1,0,0:0:0:0:
256,192,187598,1,0,0:0:0:0:
182,192,187715,1,0,0:0:0:0:
36,192,187715,1,0,0:0:0:0:
402,192,187715,1,0,0:0:0:0:
182,192,187950,128,0,188418:0:0:0:0:
36,192,187950,1,0,0:0:0:0:
475,192,187950,1,0,0:0:0:0:
329,192,187950,1,4,0:0:0:0:
256,192,188184,1,0,0:0:0:0:
36,192,188418,1,0,0:0:0:0:
329,192,188418,1,0,0:0:0:0:
109,192,188653,128,0,189825:0:0:0:0:
402,192,188653,1,0,0:0:0:0:
256,192,188887,1,4,0:0:0:0:
402,192,189121,1,0,0:0:0:0:
329,192,189356,1,0,0:0:0:0:
36,192,189356,1,0,0:0:0:0:
475,192,189590,1,0,0:0:0:0:
329,192,189825,128,0,190293:0:0:0:0:
182,192,189825,1,4,0:0:0:0:
402,192,190059,1,0,0:0:0:0:
36,192,190293,1,0,0:0:0:0:
256,192,190293,1,0,0:0:0:0:
402,192,190528,128,0,191465:0:0:0:0:
109,192,190528,1,0,0:0:0:0:
329,192,190762,1,4,0:0:0:0:
256,192,190996,1,0,0:0:0:0:
475,192,191231,1,0,0:0:0:0:
109,192,191231,1,0,0:0:0:0:
182,192,191465,1,0,0:0:0:0:
256,192,191700,128,0,192168:0:0:0:0:
36,192,191700,1,4,0:0:0:0:
109,192,191934,1,0,0:0:0:0:
182,192,192168,1,0,0:0:0:0:
475,192,192168,1,0,0:0:0:0:
256,192,192403,128,0,192754:0:0:0:0:
402,192,192403,1,0,0:0:0:0:
109,192,192637,1,4,0:0:0:0:
329,192,192754,1,0,0:0:0:0:
182,192,192871,128,0,193106:0:0:0:0:
475,192,192871,1,0,0:0:0:0:
329,192,193106,128,0,193340:0:0:0:0:
36,192,193106,1,0,0:0:0:0:
109,192,193106,1,0,0:0:0:0:
182,192,193340,128,0,193575:0:0:0:0:
475,192,193340,1,0,0:0:0:0:
329,192,193575,128,0,194043:0:0:0:0:
36,192,193575,1,4,0:0:0:0:
109,192,193809,1,0,0:0:0:0:
182,192,194043,1,0,0:0:0:0:
475,192,194043,1,0,0:0:0:0:
402,192,194278,1,4,0:0:0:0:
256,192,194278,1,0,0:0:0:0:
36,192,194278,1,0,0:0:0:0:
182,192,194629,1,0,0:0:0:0:
36,192,194746,1,4,0:0:0:0:
475,192,194746,1,0,0:0:0:0:
329,192,194746,1,0,0:0:0:0:
182,192,194981,1,4,0:0:0:0:
329,192,195098,1,4,0:0:0:0:
475,192,195098,1,0,0:0:0:0:
36,192,195098,1,0,0:0:0:0:
182,192,195215,1,4,0:0:0:0:
256,192,195450,1,0,0:0:0:0:
36,192,195450,1,0,0:0:0:0:
475,192,195450,1,0,0:0:0:0:
402,192,195450,1,0,0:0:0:0:
329,192,195684,1,0,0:0:0:0:
402,192,195918,1,0,0:0:0:0:
182,192,195918,1,0,0:0:0:0:
36,192,195918,1,0,0:0:0:0:
256,192,196153,1,0,0:0:0:0:
475,192,196387,1,0,0:0:0:0:
109,192,196387,1,0,0:0:0:0:
402,192,196504,1,0,0:0:0:0:
329,192,196621,1,0,0:0:0:0:
182,192,196856,1,0,0:0:0:0:
36,192,196856,1,0,0:0:0:0:
402,192,196856,1,0,0:0:0:0:
256,192,197090,1,0,0:0:0:0:
402,192,197207,1,0,0:0:0:0:
36,192,197325,1,0,0:0:0:0:
182,192,197442,1,0,0:0:0:0:
402,192,197559,1,0,0:0:0:0:
109,192,197559,1,0,0:0:0:0:
256,192,197793,1,0,0:0:0:0:
36,192,197793,1,0,0:0:0:0:
402,192,197910,1,0,0:0:0:0:
109,192,198028,1,0,0:0:0:0:
256,192,198145,1,0,0:0:0:0:
402,192,198262,1,0,0:0:0:0:
36,192,198262,1,0,0:0:0:0:
109,192,198496,1,0,0:0:0:0:
402,192,198614,1,0,0:0:0:0:
182,192,198731,1,0,0:0:0:0:
36,192,198731,1,0,0:0:0:0:
256,192,198848,1,0,0:0:0:0:
402,192,198965,1,0,0:0:0:0:
475,192,199200,1,0,0:0:0:0:
36,192,199200,1,0,0:0:0:0:
256,192,199200,1,0,0:0:0:0:
329,192,199434,1,0,0:0:0:0:
475,192,199668,1,0,0:0:0:0:
36,192,199668,1,0,0:0:0:0:
182,192,199668,1,0,0:0:0:0:
329,192,199903,1,0,0:0:0:0:
402,192,200137,1,0,0:0:0:0:
109,192,200137,1,0,0:0:0:0:
329,192,200254,1,0,0:0:0:0:
256,192,200371,1,0,0:0:0:0:
182,192,200489,1,0,0:0:0:0:
475,192,200606,1,0,0:0:0:0:
36,192,200606,1,0,0:0:0:0:
109,192,200606,1,0,0:0:0:0:
256,192,200840,1,0,0:0:0:0:
402,192,200957,1,0,0:0:0:0:
182,192,201075,1,0,0:0:0:0:
36,192,201075,1,0,0:0:0:0:
329,192,201192,1,0,0:0:0:0:
475,192,201309,1,0,0:0:0:0:
109,192,201309,1,0,0:0:0:0:
329,192,201543,1,0,0:0:0:0:
256,192,201543,1,0,0:0:0:0:
36,192,201543,1,0,0:0:0:0:
475,192,201660,1,0,0:0:0:0:
182,192,201778,1,0,0:0:0:0:
329,192,201895,1,0,0:0:0:0:
475,192,202012,1,0,0:0:0:0:
109,192,202012,1,0,0:0:0:0:
182,192,202246,1,0,0:0:0:0:
402,192,202246,1,0,0:0:0:0:
36,192,202246,1,0,0:0:0:0:
329,192,202364,1,0,0:0:0:0:
475,192,202481,1,0,0:0:0:0:
36,192,202481,1,0,0:0:0:0:
402,192,202598,1,0,0:0:0:0:
109,192,202598,1,0,0:0:0:0:
329,192,202715,1,0,0:0:0:0:
182,192,202715,1,0,0:0:0:0:
256,192,202950,1,0,0:0:0:0:
36,192,202950,1,0,0:0:0:0:
402,192,202950,1,0,0:0:0:0:
475,192,202950,1,0,0:0:0:0:
329,192,203184,1,0,0:0:0:0:
402,192,203418,1,0,0:0:0:0:
182,192,203418,1,0,0:0:0:0:
36,192,203418,1,0,0:0:0:0:
256,192,203653,1,0,0:0:0:0:
109,192,203887,1,0,0:0:0:0:
475,192,203887,1,0,0:0:0:0:
329,192,204004,1,0,0:0:0:0:
256,192,204121,1,0,0:0:0:0:
402,192,204239,1,0,0:0:0:0:
182,192,204356,1,0,0:0:0:0:
36,192,204356,1,0,0:0:0:0:
256,192,204590,1,0,0:0:0:0:
402,192,204707,1,0,0:0:0:0:
36,192,204825,1,0,0:0:0:0:
182,192,204942,1,0,0:0:0:0:
109,192,205059,1,0,0:0:0:0:
402,192,205059,1,0,0:0:0:0:
36,192,205293,1,0,0:0:0:0:
256,192,205293,1,0,0:0:0:0:
402,192,205410,1,0,0:0:0:0:
109,192,205528,1,0,0:0:0:0:
256,192,205645,1,0,0:0:0:0:
402,192,205762,1,0,0:0:0:0:
36,192,205762,1,0,0:0:0:0:
109,192,205996,1,0,0:0:0:0:
402,192,206114,1,0,0:0:0:0:
36,192,206231,1,0,0:0:0:0:
182,192,206231,1,0,0:0:0:0:
256,192,206348,1,0,0:0:0:0:
402,192,206465,1,0,0:0:0:0:
256,192,206700,1,0,0:0:0:0:
475,192,206700,1,0,0:0:0:0:
36,192,206700,1,0,0:0:0:0:
109,192,206934,1,0,0:0:0:0:
475,192,207051,1,0,0:0:0:0:
36,192,207168,1,0,0:0:0:0:
256,192,207168,1,0,0:0:0:0:
329,192,207285,1,0,0:0:0:0:
475,192,207403,1,0,0:0:0:0:
182,192,207403,1,0,0:0:0:0:
109,192,207637,1,0,0:0:0:0:
475,192,207754,1,0,0:0:0:0:
256,192,207871,1,0,0:0:0:0:
329,192,207989,1,0,0:0:0:0:
475,192,208106,1,0,0:0:0:0:
36,192,208106,1,0,0:0:0:0:
182,192,208106,1,0,0:0:0:0:
329,192,208340,1,0,0:0:0:0:
109,192,208340,1,0,0:0:0:0:
36,192,208575,1,0,0:0:0:0:
475,192,208575,1,0,0:0:0:0:
182,192,208575,1,0,0:0:0:0:
329,192,208692,1,0,0:0:0:0:
402,192,208809,1,0,0:0:0:0:
109,192,208809,1,0,0:0:0:0:
256,192,208926,1,0,0:0:0:0:
36,192,209043,1,0,0:0:0:0:
475,192,209043,1,0,0:0:0:0:
402,192,209278,1,0,0:0:0:0:
182,192,209278,1,0,0:0:0:0:
329,192,209629,1,0,0:0:0:0:
475,192,209746,1,0,0:0:0:0:
36,192,209746,1,0,0:0:0:0:
256,192,209746,1,0,0:0:0:0:
182,192,209981,1,0,0:0:0:0:
36,192,210098,1,0,0:0:0:0:
475,192,210098,1,0,0:0:0:0:
256,192,210098,1,0,0:0:0:0:
329,192,210215,1,0,0:0:0:0:
256,192,210450,128,0,214200:0:0:0:0:
109,192,210450,1,0,0:0:0:0:
402,192,210450,1,0,0:0:0:0:
36,192,211621,1,0,0:0:0:0:
402,192,211973,1,0,0:0:0:0:
109,192,212403,1,0,0:0:0:0:
475,192,212823,1,0,0:0:0:0:
