osu file format v12

[General]
AudioFilename: New SPARKS!.mp3
AudioLeadIn: 0
PreviewTime: 54832
Countdown: 0
SampleSet: Soft
StackLeniency: 0.3
Mode: 0
LetterboxInBreaks: 0
WidescreenStoryboard: 0

[Editor]
DistanceSpacing: 0.8
BeatDivisor: 4
GridSize: 8

[Metadata]
Title:New SPARKS! (TV Size)
TitleUnicode:New SPARKS! (TV Size)
Artist:Hashimoto Miyuki
ArtistUnicode:橋本みゆき
Creator:No_Gu
Version:Insane
Source:Saki: Zenkoku-hen
Tags:咲-Saki- 全国編 spboxer3 opening
BeatmapID:345867
BeatmapSetID:138480

[Difficulty]
HPDrainRate:7
CircleSize:4
OverallDifficulty:8
ApproachRate:9
SliderMultiplier:1.6
SliderTickRate:1

[Events]
//Background and Video events
0,0,"4654.png",0,0
Video,-61,"video.avi"
//Break Periods
//Storyboard Layer 0 (Background)
//Storyboard Layer 1 (Fail)
//Storyboard Layer 2 (Pass)
//Storyboard Layer 3 (Foreground)
//Storyboard Sound Samples
//Background Colour Transformations
3,100,163,162,255

[TimingPoints]
1260,329.67032967033,4,2,1,5,1,0
8512,-100,4,2,1,85,0,0
9172,-200,4,2,1,85,0,0
11480,-66.6666666666667,4,2,1,85,0,0
11644,-66.6666666666667,4,2,1,5,0,0
11809,-100,4,2,1,85,0,0
22359,-125,4,2,1,65,0,0
33238,-100,4,2,1,65,0,0
43458,-125,4,2,1,65,0,0
48732,-100,4,2,1,65,0,0
54007,-125,4,2,1,65,0,0
54337,-100,4,2,1,35,0,0
54666,-90.9090909090909,4,2,1,65,0,0
54996,-83.3333333333333,4,2,1,65,0,0
55326,-90.9090909090909,4,2,1,85,0,1
65876,-125,4,2,1,60,0,1
66123,-125,4,2,1,85,0,0
66206,-90.9090909090909,4,2,1,85,0,1
72304,-200,4,2,1,85,0,0
72469,-200,4,2,1,5,0,0
73293,-200,4,2,1,85,0,0
73788,-90.9090909090909,4,2,1,85,0,1
77579,-200,4,2,1,85,0,0
77744,-200,4,2,1,5,0,0
78568,-200,4,2,1,50,0,0
79063,-100,4,2,1,85,0,1
84337,-100,4,2,1,85,0,0
85656,-200,4,2,1,85,0,0
86233,-100,4,2,1,85,0,0
86810,-200,4,2,1,50,0,0
86975,-200,4,2,1,5,0,0

[Colours]
Combo1 : 128,255,255
Combo2 : 255,255,128
Combo3 : 128,255,128
Combo4 : 255,128,128

[HitObjects]
256,192,5711,12,0,8184,0:0:0:0:
256,192,8513,5,2,0:0:0:0:
256,192,8843,1,2,0:0:0:0:
256,192,9173,2,0,P|208:168|136:176,1,120,4|2,1:0|0:0,0:0:0:0:
120,200,9997,2,0,L|128:112,1,80,0|0,1:0|1:0,0:0:0:0:
136,32,11315,1,0,1:0:0:0:
136,32,11398,1,0,1:0:0:0:
136,32,11480,2,0,P|136:96|88:136,1,120.000004577637,8|0,0:0|0:0,0:0:0:0:
8,232,11810,6,0,P|80:224|136:296,1,160,4|2,1:0|0:0,0:0:0:0:
360,352,12387,1,0,0:0:0:0:
376,328,12469,2,0,L|368:232,1,80,0|0,0:0|1:0,0:0:0:0:
312,80,12799,1,0,1:0:0:0:
136,248,12964,6,0,P|200:272|288:240,1,160,4|2,1:0|0:0,0:0:0:0:
336,168,13458,1,0,0:0:0:0:
312,80,13623,1,2,0:0:0:0:
216,64,13788,2,0,P|168:72|144:96,1,80,0|2,0:0|0:0,0:0:0:0:
200,256,14118,2,0,B|224:224|224:224|216:144,1,120,8|0,1:0|0:0,0:0:0:0:
296,176,14447,6,0,L|376:168,1,80,0|0,1:0|1:0,0:0:0:0:
472,32,14777,1,8,0:0:0:0:
304,200,15107,2,0,L|224:192,1,80,0|0,1:0|1:0,0:0:0:0:
128,56,15436,1,8,0:0:0:0:
112,288,15601,6,0,B|144:288|160:256|160:256|128:216|144:160,1,160,4|0,1:0|0:0,0:0:0:0:
240,88,16096,1,8,0:0:0:0:
336,168,16260,2,0,L|424:160,1,80,0|0,1:0|0:0,0:0:0:0:
224,288,16590,2,0,L|136:280,1,80,0|8,1:0|0:0,0:0:0:0:
40,128,16920,1,0,0:0:0:0:
40,128,17002,1,0,0:0:0:0:
40,128,17085,6,0,P|32:72|48:40,1,80,4|2,1:0|0:0,0:0:0:0:
128,96,17414,1,8,0:0:0:0:
280,208,17579,2,0,B|232:200|232:200|168:208|168:208|120:192,1,160,2|2,1:0|1:0,0:0:0:0:
40,128,18074,1,8,0:0:0:0:
184,288,18238,6,0,B|232:280|232:280|296:288|296:288|344:272,1,160,2|2,1:0|1:0,0:0:0:0:
416,56,18733,1,8,0:0:0:0:
416,56,18815,1,0,0:0:0:0:
416,56,18898,2,0,P|336:40|280:104,1,160,2|0,1:2|1:0,0:0:0:0:
368,152,19310,2,0,L|360:96,1,40,0|10,1:0|0:0,0:0:0:0:
264,296,19557,1,0,1:0:0:0:
264,296,19640,1,0,0:0:0:0:
264,296,19722,6,0,L|168:288,1,80,2|0,1:0|0:0,0:0:0:0:
440,264,20052,2,0,L|432:360,1,80,10|0,0:0|0:0,0:0:0:0:
416,88,20381,2,0,L|512:96,1,80,10|0,0:0|0:0,0:0:0:0:
240,120,20711,2,0,L|248:24,1,80,8|8,0:0|0:0,0:0:0:0:
152,72,21206,5,8,0:0:0:0:
64,32,21535,1,8,0:0:0:0:
246,40,21700,1,8,1:2:0:0:
246,40,22030,1,0,0:0:0:0:
246,40,22359,6,0,L|376:48,1,128,4|0,0:0|0:0,0:0:0:0:
432,120,22854,2,0,P|440:184|400:240,1,128,2|2,0:0|0:0,0:0:0:0:
320,272,23348,1,0,0:0:0:0:
240,232,23513,6,0,B|208:216|208:216|152:208|120:248,1,128,2|2,0:0|0:0,0:0:0:0:
24,304,24008,2,0,P|40:272|40:240,1,64,0|2,0:0|0:0,0:0:0:0:
80,160,24337,2,0,P|60:130|32:114,1,64,0|2,0:0|0:0,0:0:0:0:
128,240,24667,1,0,0:0:0:0:
288,48,24832,1,0,1:0:0:0:
336,120,24997,6,0,P|280:136|216:96,1,128,0|0,1:0|0:0,0:0:0:0:
376,40,25491,2,0,P|408:40|440:56,1,64,2|0,0:0|0:0,0:0:0:0:
440,176,25821,2,0,P|456:203|458:239,1,64,2|0,0:0|0:0,0:0:0:0:
360,304,26151,1,2,0:0:0:0:
248,264,26315,5,0,0:0:0:0:
136,280,26480,1,2,0:0:0:0:
264,240,26645,5,0,0:0:0:0:
194,151,26810,1,2,0:0:0:0:
280,216,26975,5,0,0:0:0:0:
322,110,27140,1,2,0:0:0:0:
296,192,27304,5,0,1:0:0:0:
408,175,27469,1,2,0:0:0:0:
312,168,27634,5,0,1:0:0:0:
382,256,27799,1,2,0:0:0:0:
382,256,27881,1,0,0:0:0:0:
382,256,27964,1,0,0:0:0:0:
304,352,28129,2,0,P|288:360|240:360,1,64,2|0,0:0|0:0,0:0:0:0:
144,352,28458,2,0,P|129:342|105:300,1,64,2|0,0:0|0:0,0:0:0:0:
136,200,28788,1,2,0:0:0:0:
216,128,28953,6,0,L|208:56,1,64,0|2,0:0|0:0,0:0:0:0:
296,16,29282,1,0,0:0:0:0:
392,200,29447,2,0,P|352:232|272:224,1,128,2|2,0:0|0:0,0:0:0:0:
328,88,29942,2,0,L|320:152,1,64,0|2,0:0|0:0,0:0:0:0:
80,152,30271,6,0,L|96:280,1,128,0|0,1:0|0:0,0:0:0:0:
160,344,30766,2,0,P|240:360|288:336,1,128,2|0,0:0|1:0,0:0:0:0:
320,280,31178,1,0,1:0:0:0:
320,280,31260,2,0,L|400:288,1,64,8|0,1:0|1:0,0:0:0:0:
488,152,31590,6,0,P|456:144|424:144,1,64,0|0,1:0|0:0,0:0:0:0:
264,208,31920,1,2,0:0:0:0:
264,208,32002,1,0,0:0:0:0:
264,208,32085,2,0,P|240:144|256:80,1,128,0|0,0:0|1:0,0:0:0:0:
104,320,32579,2,0,L|32:312,1,64,8|0,0:0|1:0,0:0:0:0:
24,296,33238,6,0,B|87:303|87:303|144:288|152:232,1,160,4|0,1:0|1:0,0:0:0:0:
96,160,33733,1,0,0:0:0:0:
240,280,33898,2,0,L|328:272,1,80,8|0,0:0|0:0,0:0:0:0:
416,128,34227,5,0,1:0:0:0:
328,72,34392,1,0,0:0:0:0:
315,103,34475,1,2,0:0:0:0:
314,137,34557,1,8,0:0:0:0:
325,170,34640,1,2,0:0:0:0:
346,197,34722,1,0,0:0:0:0:
375,215,34804,1,2,0:0:0:0:
408,223,34887,1,0,1:0:0:0:
442,219,34969,1,2,0:0:0:0:
472,205,35052,1,0,0:0:0:0:
496,180,35134,1,2,0:0:0:0:
511,149,35217,1,8,0:0:0:0:
512,115,35299,1,2,0:0:0:0:
506,82,35381,1,0,0:0:0:0:
487,54,35464,1,2,0:0:0:0:
460,34,35546,5,2,1:0:0:0:
325,170,35711,1,0,0:0:0:0:
432,328,35876,2,0,L|512:320,1,80,8|2,0:0|1:0,0:0:0:0:
400,352,36370,2,0,L|480:344,1,80,0|8,1:0|0:0,0:0:0:0:
320,336,36700,6,0,P|240:320|224:248,1,160,2|0,1:0|1:0,0:0:0:0:
176,192,37112,1,0,1:0:0:0:
176,192,37195,2,0,L|96:200,1,80,8|2,0:0|1:0,0:0:0:0:
240,32,37524,1,0,0:0:0:0:
376,224,37689,1,0,1:0:0:0:
352,216,37771,1,2,0:0:0:0:
328,208,37854,2,0,L|272:216,1,40,8|2,0:0|0:0,0:0:0:0:
176,192,38019,2,0,L|215:186,1,40,0|2,1:0|0:0,0:0:0:0:
336,336,38184,6,0,P|264:336|224:264,1,160,4|8,1:2|0:0,0:0:0:0:
288,128,38678,1,0,0:0:0:0:
496,232,38843,2,0,L|368:224,1,120,0|0,1:0|0:0,0:0:0:0:
304,264,39173,2,0,L|208:258,1,80,8|0,0:0|0:0,0:0:0:0:
168,96,39502,6,0,L|247:100,1,80,0|0,1:0|0:0,0:0:0:0:
96,160,39832,2,0,P|56:144|32:104,1,80,8|0,0:0|0:0,0:0:0:0:
192,192,40162,2,0,P|200:248|176:288,1,80,0|0,1:0|0:0,0:0:0:0:
128,320,40409,1,0,0:0:0:0:
128,320,40491,2,0,L|48:315,1,80,8|0,0:0|0:0,0:0:0:0:
0,152,40821,6,0,L|79:156,1,80,0|0,1:0|0:0,0:0:0:0:
192,48,41151,1,8,0:0:0:0:
192,48,41233,1,0,0:0:0:0:
192,48,41315,1,0,0:0:0:0:
296,160,41480,2,0,P|304:216|280:248,1,80,0|0,1:0|0:0,0:0:0:0:
216,192,41810,1,8,0:0:0:0:
328,80,41975,5,8,0:0:0:0:
296,160,42304,1,8,0:0:0:0:
216,192,42634,1,8,0:0:0:0:
328,80,42799,1,8,0:0:0:0:
328,80,43129,1,0,0:0:0:0:
328,80,43458,6,0,L|456:88,1,128,4|8,1:2|0:0,0:0:0:0:
296,48,44282,1,0,1:0:0:0:
388,53,44447,2,0,L|451:56,1,64,8|0,0:0|0:0,0:0:0:0:
336,144,44777,6,0,L|364:201,1,64,0|0,1:0|0:0,0:0:0:0:
296,48,45107,1,8,0:0:0:0:
336,144,45271,2,0,P|344:208|288:256,1,128,0|0,1:0|1:0,0:0:0:0:
200,184,45766,2,0,P|240:176|272:184,1,64,8|0,0:0|0:0,0:0:0:0:
160,320,46096,6,0,L|152:256,1,64,0|0,1:0|0:0,0:0:0:0:
24,176,46425,2,0,L|32:112,1,64,8|0,0:0|0:0,0:0:0:0:
240,104,46755,2,0,L|248:40,1,64,0|0,1:0|0:0,0:0:0:0:
328,8,47085,1,8,0:0:0:0:
288,176,47249,6,0,P|224:192|168:152,1,128,0|0,1:0|1:0,0:0:0:0:
328,96,47744,1,8,0:0:0:0:
352,248,47909,1,0,0:0:0:0:
352,248,47991,1,0,0:0:0:0:
352,248,48074,2,0,L|336:320,1,64,0|0,0:0|1:0,0:0:0:0:
440,168,48403,2,0,L|424:96,1,64,8|0,0:0|1:0,0:0:0:0:
240,40,48733,6,0,P|184:40|128:120,1,160,4|8,1:2|0:0,0:0:0:0:
216,200,49227,2,0,P|224:144|216:120,1,80,2|0,0:0|1:0,0:0:0:0:
136,248,49557,2,0,P|180:282|205:288,1,80,0|8,1:0|0:0,0:0:0:0:
136,160,49887,2,0,P|83:181|66:199,1,80,0|0,0:0|1:0,0:0:0:0:
128,344,50217,5,0,0:0:0:0:
128,344,50299,1,0,0:0:0:0:
128,344,50381,2,0,L|208:336,1,80,8|2,0:0|0:0,0:0:0:0:
392,216,50711,2,0,L|312:224,1,80,0|0,1:0|1:0,0:0:0:0:
208,120,51041,2,0,P|192:80|200:32,1,80,8|0,0:0|1:0,0:0:0:0:
136,176,51370,6,0,L|56:168,1,80,0|0,1:0|1:0,0:0:0:0:
0,224,51618,1,0,0:0:0:0:
40,296,51700,2,0,L|80:300,1,40,10|0,0:0|0:0,0:0:0:0:
96,296,51865,2,0,L|136:300,1,40,0|0,1:0|0:0,0:0:0:0:
152,296,52030,2,0,L|192:300,1,40,2|0,0:0|0:0,0:0:0:0:
208,296,52195,2,0,L|248:300,1,40,0|0,1:0|0:0,0:0:0:0:
264,296,52359,1,8,0:0:0:0:
352,168,52524,6,0,P|280:152|224:224,1,160,0|0,1:0|1:0,0:0:0:0:
224,200,52936,1,2,0:0:0:0:
219,188,53019,1,10,0:0:0:0:
213,177,53101,1,2,0:0:0:0:
205,168,53184,1,2,1:0:0:0:
196,160,53266,1,2,0:0:0:0:
186,153,53348,1,2,1:0:0:0:
175,148,53431,1,2,0:0:0:0:
163,144,53513,1,2,1:0:0:0:
151,143,53596,1,2,1:0:0:0:
138,143,53678,1,10,0:0:0:0:
126,145,53760,1,2,0:0:0:0:
115,149,53843,1,2,1:0:0:0:
104,155,53925,1,2,1:0:0:0:
94,162,54008,6,0,L|104:96,1,64,2|0,0:0|0:0,0:0:0:0:
32,224,54337,6,0,P|32:264|56:304,1,80,2|0,1:2|1:0,0:0:0:0:
200,272,54667,6,2,P|144:240|104:248,1,88.000002685547,0|0,0:0|0:0,0:0:0:0:
304,352,54997,6,2,L|288:200,1,143.999995605469,8|0,0:0|0:0,0:0:0:0:
224,160,55326,6,0,P|160:136|88:160,1,132.00000402832,4|0,1:0|0:0,0:0:0:0:
56,224,55656,2,0,L|72:320,1,88.000002685547,8|0,1:0|0:0,0:0:0:0:
200,368,55986,1,2,1:0:0:0:
400,344,56151,1,0,0:0:0:0:
400,344,56233,1,0,0:0:0:0:
400,344,56315,2,0,P|360:320|320:320,1,88.000002685547,8|0,1:0|0:0,0:0:0:0:
224,160,56645,5,2,1:0:0:0:
128,312,56810,1,0,0:0:0:0:
128,312,56892,1,0,0:0:0:0:
128,312,56975,1,8,1:0:0:0:
320,320,57140,1,0,0:0:0:0:
224,160,57304,1,0,1:0:0:0:
128,312,57469,1,0,0:0:0:0:
128,312,57552,1,0,0:0:0:0:
128,312,57634,1,8,1:0:0:0:
320,320,57799,1,0,0:0:0:0:
296,112,57964,6,0,P|248:80|216:80,1,88.000002685547,2|0,1:0|0:0,0:0:0:0:
152,232,58293,2,0,P|203:206|219:178,1,88.000002685547,8|0,1:0|0:0,0:0:0:0:
120,56,58623,2,0,P|116:113|132:141,1,88.000002685547,2|0,1:0|0:0,0:0:0:0:
130,138,58870,1,0,0:0:0:0:
130,138,58953,1,8,1:0:0:0:
376,96,59118,6,0,B|336:72|336:72|200:88,1,176.000005371094,2|2,1:0|1:0,0:0:0:0:
216,176,59612,1,8,1:0:0:0:
400,336,59777,2,0,P|416:296|408:240,1,88.000002685547,2|0,0:0|1:0,0:0:0:0:
328,200,60107,1,0,1:0:0:0:
296,208,60189,1,0,0:0:0:0:
264,216,60271,1,8,1:0:0:0:
232,224,60354,1,0,1:0:0:0:
200,232,60436,1,0,1:0:0:0:
168,240,60519,1,0,0:0:0:0:
136,248,60601,1,0,1:0:0:0:
16,48,60766,1,2,0:0:0:0:
16,48,60848,1,0,0:0:0:0:
16,48,60931,5,12,1:0:0:0:
424,160,61260,1,2,1:0:0:0:
424,160,61343,1,0,0:0:0:0:
424,160,61425,1,0,0:0:0:0:
344,256,61590,1,8,1:0:0:0:
224,224,61755,2,0,P|208:184|216:136,1,88.000002685547,2|0,1:0|0:0,0:0:0:0:
424,160,62085,6,0,P|440:120|432:72,1,88.000002685547,0|8,1:0|1:0,0:0:0:0:
344,256,62414,2,0,P|384:296|496:272,1,176.000005371094,2|0,1:0|1:0,0:0:0:0:
512,240,62826,1,2,0:0:0:0:
504,208,62909,2,0,L|512:160,1,44.0000013427735,8|2,1:0|0:0,0:0:0:0:
472,48,63074,2,0,L|464:91,1,44.0000013427735,8|2,1:0|0:0,0:0:0:0:
384,128,63238,6,0,P|328:136|288:120,1,88.000002685547,0|0,1:0|0:0,0:0:0:0:
240,40,63568,1,8,1:0:0:0:
240,40,63651,1,0,0:0:0:0:
240,40,63733,1,2,1:0:0:0:
424,224,63898,2,0,L|416:312,1,88.000002685547,0|2,0:0|1:0,0:0:0:0:
192,352,64227,1,8,1:0:0:0:
192,352,64310,1,8,1:0:0:0:
192,352,64392,1,0,1:0:0:0:
192,352,64722,5,0,1:0:0:0:
128,184,64887,2,0,L|112:288,1,88.000002685547,10|0,1:0|0:0,0:0:0:0:
200,128,65217,2,0,P|160:96|112:96,1,88.000002685547,2|0,1:0|1:0,0:0:0:0:
224,224,65546,1,8,2:0:0:0:
256,216,65629,1,8,2:0:0:0:
288,208,65711,1,8,2:0:0:0:
320,200,65793,1,8,2:0:0:0:
352,192,65876,6,0,B|416:184|408:248|376:232,1,96,12|0,0:1|0:0,0:0:0:0:
320,120,66206,6,0,P|312:64|344:24,1,88.000002685547,12|0,1:0|0:0,0:0:0:0:
480,192,66535,1,0,1:0:0:0:
312,328,66700,2,0,L|224:312,1,88.000002685547,0|8,0:0|1:0,0:0:0:0:
136,152,67030,2,0,P|184:168|208:208,1,88.000002685547,2|0,0:0|1:0,0:0:0:0:
120,320,67359,6,0,P|109:270|132:229,1,88.000002685547,0|8,0:0|1:0,0:0:0:0:
216,96,67689,1,0,0:0:0:0:
216,96,67771,1,0,0:0:0:0:
216,96,67854,2,0,P|253:62|300:61,1,88.000002685547,0|0,1:0|0:0,0:0:0:0:
440,136,68184,1,8,1:0:0:0:
304,232,68348,1,0,0:0:0:0:
304,232,68431,1,0,0:0:0:0:
304,232,68513,6,0,L|184:224,1,88.000002685547,4|0,1:0|1:0,0:0:0:0:
200,208,68760,1,0,0:0:0:0:
184,192,68843,1,8,1:0:0:0:
168,176,68925,1,0,0:0:0:0:
152,160,69008,1,8,1:0:0:0:
152,160,69337,1,8,1:0:0:0:
152,160,69667,1,8,1:0:0:0:
496,32,69997,5,0,1:0:0:0:
408,104,70162,2,0,L|288:88,1,88.000002685547,8|0,1:0|0:0,0:0:0:0:
264,136,70409,1,2,0:0:0:0:
208,88,70491,2,0,L|200:40,1,44.0000013427735,0|0,1:0|0:0,0:0:0:0:
160,128,70656,2,0,L|177:82,1,44.0000013427735,0|0,1:0|0:0,0:0:0:0:
112,152,70821,2,0,L|149:121,1,44.0000013427735,0|0,1:0|1:0,0:0:0:0:
56,144,70986,2,0,L|104:135,1,44.0000013427735,0|0,1:0|1:0,0:0:0:0:
16,104,71151,6,0,B|56:144|56:144|32:272,1,176.000005371094,0|8,1:0|0:0,0:0:0:0:
144,352,71645,2,0,P|224:328|240:240,1,176.000005371094,0|0,1:0|1:0,0:0:0:0:
152,264,72140,1,8,0:0:0:0:
328,336,72304,6,0,L|448:328,1,120,2|0,0:0|0:0,0:0:0:0:
447,328,73293,1,0,1:0:0:0:
456,304,73376,1,0,1:0:0:0:
464,280,73458,1,8,0:0:0:0:
464,280,73788,6,0,L|456:184,1,88.000002685547,4|0,1:0|0:0,0:0:0:0:
304,120,74118,2,0,L|311:207,1,88.000002685547,8|0,0:0|0:0,0:0:0:0:
248,288,74447,1,0,1:0:0:0:
72,256,74612,2,0,P|112:240|160:248,1,88.000002685547,0|8,1:0|0:0,0:0:0:0:
336,344,74942,6,0,P|424:352|472:288,1,176.000005371094,4|0,1:0|1:0,0:0:0:0:
384,72,75436,1,8,0:0:0:0:
184,208,75601,2,0,P|175:295|239:344,1,176.000005371094,4|0,1:0|1:0,0:0:0:0:
352,264,76096,2,0,L|264:256,1,88.000002685547,8|0,0:0|0:0,0:0:0:0:
104,112,76425,6,0,P|136:56|200:40,1,132.00000402832,4|0,1:0|0:0,0:0:0:0:
272,64,76755,2,0,P|304:119|286:183,1,132.00000402832,8|0,0:0|0:0,0:0:0:0:
216,224,77085,2,0,L|128:216,1,88.000002685547,0|0,1:0|1:0,0:0:0:0:
16,200,77414,1,8,0:0:0:0:
248,320,77579,6,0,P|304:264|280:152,1,200,4|0,1:0|1:0,0:0:0:0:
182,50,78568,1,8,0:0:0:0:
200,64,78651,1,8,0:0:0:0:
218,78,78733,1,8,0:0:0:0:
239,70,78815,1,8,0:0:0:0:
262,66,78898,1,8,0:0:0:0:
285,66,78980,1,8,0:0:0:0:
308,70,79063,6,0,L|432:56,1,120,4|0,1:0|0:0,0:0:0:0:
488,112,79392,2,0,P|496:160|472:200,1,80,8|0,0:1|0:0,0:0:0:0:
400,296,79722,2,0,P|362:326|315:326,1,80,0|0,1:0|0:0,0:0:0:0:
192,248,80052,1,8,0:0:0:0:
336,168,80217,2,0,L|328:256,1,80,2|0,0:0|1:0,0:0:0:0:
88,224,80546,6,0,L|96:312,1,80,2|8,0:0|0:0,0:0:0:0:
232,192,80876,1,2,0:0:0:0:
128,88,81041,2,0,P|96:80|48:88,1,80,0|2,1:0|0:0,0:0:0:0:
24,112,81288,1,2,0:0:0:0:
24,112,81370,1,8,0:0:0:0:
224,104,81535,1,2,0:0:0:0:
224,104,81618,1,0,0:0:0:0:
224,104,81700,6,0,L|320:96,1,80,0|0,1:0|0:0,0:0:0:0:
368,24,82030,1,8,1:0:0:0:
184,208,82195,2,0,L|88:200,1,80,2|4,0:0|1:0,0:0:0:0:
232,288,82524,1,0,0:0:0:0:
254,268,82607,1,2,0:0:0:0:
269,243,82689,1,0,0:0:0:0:
274,213,82771,1,2,0:0:0:0:
268,184,82854,6,0,L|288:344,1,160,4|0,1:0|1:0,0:0:0:0:
432,216,83348,1,8,1:0:0:0:
280,96,83513,2,0,P|216:104|176:184,1,160,0|0,1:0|1:0,0:0:0:0:
192,208,83925,1,0,1:0:0:0:
216,224,84008,2,8,L|264:216,1,40
383,257,84173,2,8,L|344:264,1,40
304,128,84337,6,0,L|400:112,1,80,2|0,0:0|0:0,0:0:0:0:
480,112,84667,1,0,0:0:0:0:
424,32,84832,1,2,0:0:0:0:
424,32,85162,1,0,0:0:0:0:
382,114,85326,1,2,0:0:0:0:
480,112,85491,1,0,0:0:0:0:
328,32,85656,6,0,P|272:24|224:64,1,120,0|0,0:0|1:0,0:0:0:0:
216,96,86233,2,0,L|232:152,1,40,0|8,1:0|1:0,0:0:0:0:
432,264,86480,1,0,1:0:0:0:
176,288,86645,1,0,1:0:0:0:
480,112,86810,2,0,L|472:240,1,120,4|0,0:0|0:0,0:0:0:0:
