osu file format v12

[General]
AudioFilename: New SPARKS!.mp3
AudioLeadIn: 0
PreviewTime: 56212
Countdown: 0
SampleSet: Soft
StackLeniency: 0.7
Mode: 0
LetterboxInBreaks: 0
WidescreenStoryboard: 1

[Editor]
DistanceSpacing: 0.8
BeatDivisor: 4
GridSize: 4
TimelineZoom: 1

[Metadata]
Title:New SPARKS! (TV Size)
TitleUnicode:New SPARKS! (TV Size)
Artist:Hashimoto Miyuki
ArtistUnicode:橋本みゆき
Creator:NoHitter
Version:Normal
Source:咲-Saki-全国編
Tags:Saki Zenkoku-hen Zenkoku opening mahjong
BeatmapID:353198
BeatmapSetID:140641

[Difficulty]
HPDrainRate:3
CircleSize:3
OverallDifficulty:3
ApproachRate:5
SliderMultiplier:1.3
SliderTickRate:1

[Events]
//Background and Video events
0,0,"sakibg.png",0,0
Video,1270,"sakiSparks.avi"
//Break Periods
//Storyboard Layer 0 (Background)
//Storyboard Layer 1 (Fail)
//Storyboard Layer 2 (Pass)
//Storyboard Layer 3 (Foreground)
//Storyboard Sound Samples
//Background Colour Transformations
3,100,163,162,255

[TimingPoints]
2380,428.571428571429,4,2,0,30,1,0
4094,416.666666666667,4,2,0,30,1,0
4927,428.571428571429,4,2,0,30,1,8
5784,428.571428571429,4,2,0,30,1,0
10059,329.67032967033,4,2,0,50,1,8
10718,329.67032967033,4,2,0,70,1,0
11871,-200,4,2,0,70,0,0
12366,-100,4,2,0,70,0,0
56871,-100,4,2,0,70,0,1
67338,-100,4,2,0,70,0,0
67421,-100,4,2,0,70,0,1
79289,-100,4,2,0,70,0,0

[Colours]
Combo1 : 174,11,15
Combo2 : 182,95,31
Combo3 : 5,86,207

[HitObjects]
64,48,2380,6,0,P|44:120|80:180,1,130,2|0,0:0|0:0,0:0:0:0:
160,120,3237,2,0,P|184:188|160:252,1,130,2|0,0:0|0:0,0:0:0:0:
140,284,3880,1,2,0:0:0:0:
224,348,4302,1,0,0:0:0:0:
272,328,4510,2,0,P|328:336|408:328,1,130,0|2,0:0|0:0,0:0:0:0:
472,192,5569,5,0,0:0:0:0:
480,140,5784,2,0,P|460:74|390:51,1,130,2|0,0:0|0:0,0:0:0:0:
360,36,6427,2,0,L|220:40,1,130,2|0,0:0|0:0,0:0:0:0:
180,60,7069,1,2,0:0:0:0:
256,192,7284,12,0,9426,0:0:0:0:
188,172,10059,5,2,0:0:0:0:
120,92,10388,1,2,0:0:0:0:
220,68,10718,2,0,P|288:84|364:64,1,130,4|2,1:0|0:0,0:0:0:0:
392,44,11212,1,2,0:0:0:0:
472,112,11542,2,0,P|484:184|472:256,1,130,2|4,1:2|1:0,0:0:0:0:
296,348,12531,5,0,0:0:0:0:
248,324,12696,2,0,P|192:328|112:324,1,130,0|0,0:0|1:0,0:0:0:0:
24,284,13355,1,0,1:0:0:0:
108,224,13685,2,0,P|132:172|116:100,1,130,2|0,0:0|0:0,0:0:0:0:
200,36,14344,1,2,1:2:0:0:
248,56,14509,6,0,P|312:68|384:52,1,130,4|0,1:0|0:0,0:0:0:0:
424,40,15003,1,2,0:0:0:0:
480,128,15333,1,0,0:0:0:0:
436,224,15663,1,0,1:0:0:0:
332,224,15992,6,0,P|260:212|192:228,1,130,4|2,1:0|1:2,0:0:0:0:
136,300,16652,2,0,P|208:312|276:296,1,130,0|2,1:0|0:0,0:0:0:0:
296,344,17146,2,0,L|432:352,1,130,4|0,1:0|0:0,0:0:0:0:
508,288,17805,1,0,1:0:0:0:
436,212,18135,2,0,L|352:208,2,65,0|2|2,1:0|1:2|0:0,0:0:0:0:
480,184,18630,6,0,P|492:112|456:40,1,130,4|2,1:0|0:0,0:0:0:0:
432,28,19124,1,4,1:0:0:0:
336,68,19454,2,0,L|340:144,2,65,0|2|4,1:0|1:2|1:0,0:0:0:0:
240,28,20113,1,0,1:0:0:0:
188,32,20278,2,0,L|100:40,1,65,2|4,1:2|1:0,0:0:0:0:
48,108,20772,1,0,1:0:0:0:
44,160,20937,2,0,L|36:240,2,65,2|0|4,1:2|1:0|1:0,0:0:0:0:
256,192,21432,12,4,23245,1:0:0:0:
64,308,23904,6,0,P|118:348|185:334,2,130,4|0|0,1:0|0:0|0:0,0:0:0:0:
44,260,24728,1,2,0:0:0:0:
72,160,25058,2,0,P|84:96|48:40,2,130,2|2|2,0:0|0:0|0:0,0:0:0:0:
172,188,26047,6,0,L|196:268,2,65,2|0|2,0:0|0:0|1:2,0:0:0:0:
196,140,26542,2,0,P|260:120|320:140,1,130,0|0,1:0|0:0,0:0:0:0:
404,196,27201,1,2,0:0:0:0:
440,292,27531,2,0,P|416:340|332:352,1,130,0|2,0:0|0:0,0:0:0:0:
256,308,28190,1,0,0:0:0:0:
160,348,28520,1,2,0:0:0:0:
68,300,28849,1,0,1:0:0:0:
40,200,29179,6,0,P|58:136|120:108,1,130,0|0,1:0|0:0,0:0:0:0:
212,128,29838,2,0,P|280:136|344:120,1,130,2|0,0:0|0:0,0:0:0:0:
432,76,30498,2,0,P|472:116|472:192,1,130,2|0,0:0|0:0,0:0:0:0:
456,236,30992,1,2,0:0:0:0:
256,288,31652,5,2,0:0:0:0:
212,316,31816,2,0,L|72:324,1,130,0|0,1:0|0:0,0:0:0:0:
36,300,32311,2,0,P|48:224|32:156,1,130,2|0,0:0|1:0,0:0:0:0:
76,76,32970,6,0,L|24:20,2,65,2|0|2,0:0|1:0|0:0,0:0:0:0:
112,112,33465,1,0,0:0:0:0:
152,144,33630,2,0,P|216:156|292:140,2,130,2|2|2,1:2|1:2|0:0,0:0:0:0:
256,28,34783,5,4,1:0:0:0:
360,16,35113,1,0,0:0:0:0:
452,68,35443,2,0,P|448:140|460:200,1,130,0|2,1:0|0:0,0:0:0:0:
492,296,36102,1,0,1:0:0:0:
400,348,36432,2,0,L|332:352,2,65,0|2|0,0:0|0:0|1:0,0:0:0:0:
492,296,37091,6,0,L|500:164,1,130,4|0,1:0|1:0,0:0:0:0:
452,140,37586,2,0,L|448:8,2,130,4|4|4,1:0|1:0|1:0,0:0:0:0:
348,256,38739,5,2,0:0:0:0:
276,328,39069,1,0,0:0:0:0:
164,344,39399,1,2,0:0:0:0:
72,296,39728,2,0,P|45:230|62:168,1,130,4|0,1:0|1:0,0:0:0:0:
120,80,40388,2,0,P|185:53|247:70,1,130,2|0,0:0|1:0,0:0:0:0:
288,88,40882,6,0,P|350:100|408:74,1,130,2|0,0:2|0:0,0:0:0:0:
448,36,41377,1,0,1:0:0:0:
496,128,41707,1,0,1:0:0:0:
444,216,42036,1,2,1:2:0:0:
340,216,42366,2,0,P|268:208|192:216,1,130,4|0,1:0|1:0,0:0:0:0:
256,192,43025,12,4,44344,1:0:0:0:
36,312,45003,6,0,P|100:304|168:336,1,130,4|0,1:0|1:0,0:0:0:0:
312,360,45827,2,0,L|392:356,1,65,0|0,1:0|1:0,0:0:0:0:
468,308,46322,6,8,P|448:236|468:168,1,130,0|0,1:0|3:0,0:0:0:0:
484,140,46816,2,8,P|463:78|388:48,1,130,0|0,1:2|1:0,0:0:0:0:
356,40,47311,1,0,1:0:0:0:
260,80,47641,6,0,L|104:96,1,130,0|0,1:0|1:0,0:0:0:0:
72,180,48300,2,0,L|208:168,1,130,0|0,1:0|1:0,0:0:0:0:
252,164,48794,1,2,1:2:0:0:
356,156,49124,1,0,0:0:0:0:
388,200,49289,1,0,1:0:0:0:
444,288,49619,2,0,L|452:360,2,65,0|2|0,1:0|0:0|1:0,0:0:0:0:
336,284,50278,6,0,P|280:268|200:300,1,130,4|0,1:0|1:0,0:0:0:0:
172,320,50772,2,0,P|72:336|0:272,1,195,2|0,0:0|1:0,0:0:0:0:
104,236,51597,6,0,L|232:208,1,130,4|0,1:0|1:0,0:0:0:0:
260,260,52091,2,0,L|460:216,1,195,2|0,0:0|1:3,0:0:0:0:
456,116,52915,5,4,1:0:0:0:
376,52,53245,1,0,1:0:0:0:
272,60,53575,1,4,1:0:0:0:
212,144,53904,1,0,1:0:0:0:
256,192,54069,12,2,55553,0:0:0:0:
256,264,55882,5,2,0:0:0:0:
256,160,56212,1,2,0:0:0:0:
256,60,56542,5,0,0:0:0:0:
156,32,56871,2,0,P|92:56|20:52,1,130,4|0,1:0|1:0,0:0:0:0:
0,144,57531,2,0,P|4:212|-20:292,1,130,2|0,0:0|1:0,0:0:0:0:
64,340,58190,2,0,P|136:352|204:336,1,130,2|0,0:0|1:0,0:0:0:0:
260,264,58849,2,0,P|188:252|120:268,1,130,2|0,0:0|1:0,0:0:0:0:
80,176,59509,5,4,1:0:0:0:
144,96,59838,1,0,1:0:0:0:
244,116,60168,2,0,L|232:184,2,65,4|2|2,1:2|1:2|1:2,0:0:0:0:
256,64,60663,1,4,1:0:0:0:
356,96,60992,1,0,1:2:0:0:
376,196,61322,1,4,1:2:0:0:
304,272,61652,5,0,1:0:0:0:
260,248,61816,2,0,P|196:260|132:248,1,130,0|4,1:0|1:0,0:0:0:0:
36,284,62476,1,4,1:2:0:0:
108,356,62805,2,0,P|172:344|236:356,1,130,2|0,0:0|1:0,0:0:0:0:
284,372,63300,2,0,L|416:364,1,130,0|0,1:0|1:0,0:0:0:0:
464,360,63794,1,0,1:0:0:0:
464,360,63959,1,4,1:2:0:0:
484,204,64454,5,0,1:0:0:0:
408,132,64783,2,0,P|344:144|276:132,1,130,4|0,1:0|1:0,0:0:0:0:
232,112,65278,2,0,P|168:101|104:113,1,130,0|4,1:0|1:2,0:0:0:0:
28,184,65937,1,4,1:0:0:0:
104,320,66432,6,0,P|164:340|228:324,2,130,0|0|0,1:0|1:0|1:0,0:0:0:0:
168,240,67421,1,4,1:0:0:0:
84,176,67750,6,0,P|130:142|216:146,1,130,4|0,1:0|1:0,0:0:0:0:
268,220,68410,1,0,1:0:0:0:
300,260,68575,2,0,P|360:272|436:264,1,130,2|2,0:0|0:0,0:0:0:0:
472,296,69069,2,0,L|484:376,2,65,0|2|0,1:0|1:2|1:0,0:0:0:0:
456,192,69728,1,0,1:0:0:0:
492,96,70058,6,0,P|496:44|420:4,1,130,4|0,1:0|1:0,0:0:0:0:
388,20,70553,2,0,P|328:28|256:24,2,130,4|4|4,1:2|1:2|1:0,0:0:0:0:
332,164,71707,1,0,1:0:0:0:
404,240,72036,6,0,P|400:296|456:348,1,130,2|2,1:2|1:2,0:0:0:0:
512,264,72696,1,4,1:0:0:0:
472,168,73025,1,0,1:0:0:0:
472,168,73190,1,2,0:0:0:0:
372,136,73520,1,0,1:0:0:0:
292,204,73849,2,0,P|200:232|104:200,1,195,4|0,1:2|0:0,0:0:0:0:
108,203,75003,5,0,1:0:0:0:
8,180,75333,2,0,P|36:124|100:100,1,130,4|0,1:0|1:0,0:0:0:0:
188,52,75992,2,0,P|256:60|320:52,1,130,0|0,1:0|1:0,0:0:0:0:
368,44,76487,2,0,P|412:104|400:172,1,130,4|2,1:0|0:0,0:0:0:0:
380,200,76981,1,0,1:0:0:0:
352,244,77146,2,0,P|350:307|391:356,1,130,4|2,1:2|0:0,0:0:0:0:
444,368,77641,1,2,1:2:0:0:
492,276,77970,5,4,1:2:0:0:
428,192,78300,1,4,1:2:0:0:
324,188,78630,1,4,1:2:0:0:
260,272,78959,2,0,L|176:280,1,65,4|4,0:0|0:0,0:0:0:0:
256,192,79289,12,4,80608,1:0:0:0:
160,328,80937,6,0,P|96:344|32:336,1,130,0|2,1:0|0:0,0:0:0:0:
16,232,81597,1,0,1:0:0:0:
40,188,81761,2,0,P|56:104|40:48,1,130,2|0,0:0|0:0,0:0:0:0:
20,16,82256,1,0,1:0:0:0:
124,32,82586,2,0,L|196:28,2,65,2|0|0,1:2|0:0|1:0,0:0:0:0:
20,16,83245,1,4,1:0:0:0:
60,112,83575,6,0,P|56:184|88:240,1,130,4|4,1:0|1:2,0:0:0:0:
176,280,84234,1,0,0:0:0:0:
224,296,84399,2,0,P|284:312|356:288,1,130,4|0,1:2|1:0,0:0:0:0:
408,208,85058,2,0,P|348:192|276:216,1,130,4|0,1:2|1:0,0:0:0:0:
240,184,85553,2,0,L|176:128,2,65,0|0|4,1:0|0:0|1:0,0:0:0:0:
256,192,86047,12,4,88355,1:0:0:0:
