osu file format v9

[General]
AudioFilename: L.mp3
AudioLeadIn: 0
PreviewTime: 50803
Countdown: 0
SampleSet: Normal
StackLeniency: 0.7
Mode: 0
LetterboxInBreaks: 1

[Editor]
Bookmarks: 1950,9135,50088,85294,109725,144216,157150,168647
DistanceSpacing: 1.2
BeatDivisor: 4
GridSize: 4

[Metadata]
Title:L
Artist:Hashimoto Miyuki
Creator:regenz
Version:Insane
Source:Aruto
Tags:Purple Software vincerio indyinyou samiljul

[Difficulty]
HPDrainRate:8
CircleSize:4
OverallDifficulty:8
ApproachRate:8
SliderMultiplier:2
SliderTickRate:1

[Events]
//Background and Video events
0,0,"BG_insane.jpg"
//Break Periods
2,73996,84544
2,132919,143466
//Storyboard Layer 0 (Background)
//Storyboard Layer 1 (Fail)
//Storyboard Layer 2 (Pass)
//Storyboard Layer 3 (Foreground)
//Storyboard Sound Samples
//Background Colour Transformations
3,100,163,162,255

[TimingPoints]
1941,359.281437125748,4,1,0,60,1,0
3288,-100,4,1,0,35,0,0
3467,-100,4,1,0,26,0,0
4545,-100,4,1,0,60,0,0
4725,-100,4,1,0,24,0,0
6162,-100,4,2,0,70,0,0
6342,-100,4,1,0,25,0,0
7420,-100,4,2,0,100,0,0
7599,-100,4,1,0,25,0,0
8677,-100,4,1,0,53,0,0
9036,-100,4,2,0,60,0,0
9216,-100,4,1,0,44,0,0
13168,-100,4,2,0,60,0,0
14066,-100,4,1,0,60,0,0
50803,-100,4,1,0,60,0,1
73797,-100,4,1,0,60,0,0
109725,-100,4,1,0,60,0,1
132719,-100,4,1,0,60,0,0
144126,-100,4,2,0,70,0,0
147000,-100,4,2,0,55,0,0
147180,-100,4,2,0,70,0,0
149875,-100,4,2,0,65,0,0
150054,-100,4,2,0,70,0,0
153288,-100,4,1,0,35,0,0
156701,-100,4,1,0,20,0,0
157060,-100,4,1,0,65,0,0
157240,-100,4,1,0,35,0,0
158318,-100,4,1,0,60,0,0
158497,-100,4,1,0,34,0,0
159935,-100,4,2,0,70,0,0
160114,-100,4,1,0,34,0,0
161192,-100,4,2,0,90,0,0
161372,-100,4,1,0,35,0,0
162449,-100,4,1,0,54,0,0
162809,-100,4,2,0,60,0,0
162988,-100,4,1,0,46,0,0
168557,-100,4,1,0,60,0,0
168647,-100,4,1,0,60,0,1
192899,-100,4,1,0,60,0,0

[Colours]
Combo1 : 255,255,128
Combo2 : 255,128,255
Combo3 : 128,255,255

[HitObjects]
472,336,1940,1,0
432,248,2120,1,0
392,336,2300,1,0
352,248,2479,1,0
312,160,2659,1,0
272,248,2839,1,0
232,160,3018,1,0
192,72,3198,1,0
152,160,3378,1,4
152,160,3737,5,0
93,276,3917,1,0
346,332,4276,2,0,B|394:308|394:228,1,100
394,249,4635,1,4
256,32,4994,1,0
136,80,5174,1,0
64,192,5354,1,0
456,192,5893,1,0
376,296,6072,1,0
256,352,6252,1,4
256,96,6611,5,0
256,224,6791,1,0
256,224,7150,1,0
32,352,7509,1,4
32,352,7869,1,0
80,232,8048,1,0
136,112,8228,1,0
456,336,8767,1,0
456,336,9126,5,4
408,144,9485,1,0
208,136,9845,1,0
56,272,10204,1,0
144,320,10384,1,0
192,304,10473,1,0
232,272,10563,1,0
336,272,10743,1,0
336,272,11102,1,0
392,192,11282,1,0
136,32,11821,6,0,B|24:32,1,100
168,104,12180,2,0,B|272:184,1,100
384,240,12539,2,0,B|256:240,1,100
144,176,12899,2,0,B|208:264,1,100
336,320,13258,5,4
464,48,13617,1,4
168,72,13976,1,4
336,320,14336,5,0
376,232,14515,1,0
272,240,14695,1,0
176,216,14875,5,0
128,304,15054,1,0
40,256,15234,1,0
88,168,15414,1,0
256,56,15773,1,0
352,56,15952,1,0
304,144,16132,1,0
56,304,16491,5,0
152,192,16671,1,0
304,192,16851,1,0
408,80,17030,1,0
408,80,17390,1,0
112,80,17749,6,0,B|72:112|72:168,3,100
272,192,18647,2,0,B|200:192|200:264,2,100
24,24,19366,5,0
168,64,19545,1,0
200,208,19725,1,0
344,248,19905,1,0
56,336,20264,1,0
352,344,20623,6,0,B|288:344|288:256,1,100
328,184,20982,2,0,B|328:112|248:112,1,100
40,168,21521,2,0,B|104:168|104:104,1,100
168,184,21881,1,0
432,48,22240,6,0,B|344:48|344:128,1,100
352,240,22599,2,0,B|352:168|248:168,1,100
40,336,23138,1,0
48,40,23497,5,0
148,40,23677,1,0
148,140,23857,1,0
247,140,24036,1,0
447,140,24396,1,0
447,239,24575,1,0
447,339,24755,1,0
147,339,25114,5,0
40,240,25294,1,0
88,96,25473,2,0,B|160:40|192:144,1,100
464,40,26012,1,0
464,40,26372,5,4
264,32,26731,2,0,B|328:48|328:48|312:112,1,100
224,120,27090,1,0
304,176,27270,2,0,B|240:192|240:192|256:240,1,100
344,264,27629,1,0
152,328,27988,2,0,B|80:304|80:304|88:280,1,100
48,192,28348,1,0
152,88,28527,5,8
384,280,28887,1,8
384,280,29246,5,0
256,128,29605,1,0
168,176,29785,1,0
206,267,29964,1,0
306,267,30144,1,0
348,176,30324,1,0
448,168,30503,6,0,B|448:104|384:104,1,100
312,40,30863,1,0
216,72,31042,2,0,B|144:80|128:152,1,100
48,248,31402,5,2
328,352,31761,1,2
480,96,32120,5,0
280,88,32479,2,0,B|416:96,1,100
280,88,32839,1,0
360,144,33018,2,0,B|296:208|232:184,1,100
176,192,33378,1,0
176,192,33737,5,0
328,192,33917,1,0
256,64,34096,1,0
256,216,34276,1,8
256,216,34635,1,8
488,24,34994,5,0
288,32,35354,2,0,B|368:32|368:128,1,100
288,144,35713,2,0,B|216:144|216:216,1,100
288,272,36072,2,0,B|352:272|352:344,1,100
160,272,36611,2,0,B|80:272|80:192,1,100
160,272,36970,1,0
82,143,37150,5,2
381,143,37509,1,2
381,143,37869,5,4
152,336,38408,1,0
80,272,38587,1,0
376,336,39126,1,0
416,312,39216,1,0
440,264,39306,1,0
440,168,39485,1,0
440,64,39665,1,0
336,64,39845,1,0
265,134,40024,1,0
48,344,40563,5,0
48,296,40653,1,0
48,248,40743,1,0
248,248,41102,1,0
447,248,41461,2,0,B|448:200|448:200|384:200,1,100
392,96,41821,2,0,B|352:96|352:96|296:136,1,100
112,80,42360,1,0
208,80,42539,1,0
296,256,42899,1,0
256,344,43078,1,0
168,296,43258,1,0
168,296,43617,5,4
168,96,43976,2,0,B|272:16|392:120,2,200
352,248,45054,2,0,B|248:328|128:224,2,200
256,192,46132,12,0,47569
40,128,47929,1,0
32,32,48108,1,0
128,56,48288,1,0
224,32,48467,1,0
320,64,48647,1,0
390,134,48827,1,0
319,204,49006,1,0
389,274,49186,1,0
318,344,49366,1,0
216,344,49545,5,0
176,320,49635,1,0
168,272,49725,1,0
168,168,49905,1,0
184,120,49994,1,0
224,88,50084,1,0
328,88,50264,1,0
368,120,50354,1,0
392,168,50443,1,0
392,168,50803,5,4
272,168,50982,1,0
151,168,51162,1,8
151,168,51342,2,0,B|192:208|192:288,1,100
104,344,51701,2,0,B|112:272|176:256,1,100,0|8
240,344,52060,2,0,B|240:272|184:264,1,100
344,264,52420,5,0
456,160,52599,1,8
376,32,52779,1,0
232,56,52958,6,0,B|152:64|128:120,2,100,0|0|8
312,144,53497,1,0
192,168,53677,1,0
192,168,54036,1,8
280,256,54216,1,0
280,256,54575,5,0
56,56,54935,1,0
355,56,55294,1,0
440,184,55473,1,8
355,308,55653,1,0
208,304,55833,5,0
120,224,56012,1,0
124,104,56192,1,8
224,40,56372,1,0
340,72,56551,1,4
432,296,56911,5,8
432,296,57090,2,0,B|384:344|296:288,1,100
264,216,57449,1,0
152,264,57629,1,8
264,216,57809,1,0
152,264,57988,1,0
40,312,58168,2,0,B|0:256|40:192,1,100,0|8
104,120,58527,2,0,B|152:72|224:112,1,100
104,120,59066,5,8
328,32,59426,1,0
432,88,59605,1,0
328,152,59785,1,8
328,152,59964,1,0
432,208,60144,2,0,B|408:280|320:280,1,100
240,272,60503,2,0,B|160:272|144:200,2,100,8|0|0
112,144,61042,6,0,B|80:88,2,50,0|0|0
272,56,61402,2,0,B|320:40,2,50,0|0|0
424,152,61761,2,0,B|464:192,2,50,0|0|0
96,312,62300,5,4
96,192,62479,2,0,B|96:136|96:136|152:136,2,100,0|8|0
216,192,63018,2,0,B|256:152|256:152|288:184,1,100
368,272,63378,2,0,B|416:232|416:232|384:208,1,100,8|0
112,80,63917,5,0
256,48,64096,1,8
400,80,64276,1,0
336,216,64455,2,0,B|288:208|288:208|240:232,1,100
112,304,64815,5,8
256,336,64994,1,0
400,304,65174,1,0
440,160,65354,6,0,B|400:112|352:136,1,100,0|8
320,16,65713,2,0,B|280:56|288:120,1,100
192,32,66072,2,0,B|200:80|248:128,1,100,0|8
120,112,66432,2,0,B|152:160|224:160,1,100
64,216,66791,5,0
160,328,66970,1,8
296,264,67150,1,0
396,328,67330,5,0
480,243,67509,2,0,B|460:198|460:198|468:134,1,100,0|8
354,193,67869,1,0
392,80,68048,2,0,B|360:32|304:24|264:32|240:64|224:112,2,200,4|8|0
440,192,68946,1,0
464,312,69126,1,8
440,192,69306,1,0
336,256,69485,1,0
248,336,69665,1,0
152,256,69845,1,8
112,144,70024,5,0
208,72,70204,1,0
112,144,70384,1,0
208,72,70563,1,8
360,68,70743,6,0,B|304:76|304:76|280:164,1,100
376,240,71102,2,0,B|344:184|344:184|280:200,1,100,0|8
256,332,71461,2,0,B|288:284|288:284|248:244,1,100
108,228,71821,1,0
136,80,72000,1,8
280,44,72180,5,0
332,44,72270,1,0
360,84,72360,1,0
360,233,72539,1,0
360,285,72629,1,0
320,313,72719,1,0
169,313,72899,1,0
117,313,72989,1,0
89,273,73079,1,0
89,123,73258,5,0
229,175,73438,1,0
367,119,73617,2,0,B|319:135|319:135|319:215,1,100,0|4
256,48,85294,5,0
256,48,85653,2,0,B|320:48|320:48|352:112,1,100
336,184,86012,2,0,B|312:232|312:232|264:232,1,100
232,328,86372,1,0
208,232,86551,1,0
208,232,86911,1,0
120,184,87090,1,0
208,136,87270,1,0
320,40,87449,5,8
472,304,87809,1,8
320,40,88168,5,0
288,240,88527,2,0,B|256:176|288:136,1,100
192,192,88887,2,0,B|200:136|264:120,1,100
200,40,89246,1,0
200,40,89426,1,0
48,168,89785,2,0,B|104:128|152:176,1,100
224,224,90144,1,0
308,348,90324,5,2
456,88,90683,1,2
160,40,91042,5,0
160,40,91402,1,0
259,40,91581,1,0
359,40,91761,1,0
359,139,91940,1,0
258,139,92120,1,0
157,139,92300,1,0
157,338,92659,2,0,B|192:296|192:296|256:296,2,100
50,231,93198,5,8
296,56,93557,1,8
456,312,93917,5,0
264,272,94276,2,0,B|320:240|320:240|320:168,1,100
408,160,94635,2,0,B|448:128|448:128|448:80,1,100
360,32,94994,2,0,B|296:32|296:32|256:56,1,100
80,136,95533,1,0
150,206,95713,1,0
80,136,95893,1,0
192,40,96072,5,2
400,256,96432,1,2
112,336,96791,5,4
128,40,97330,1,0
198,110,97509,1,0
410,322,98048,1,0
410,271,98138,1,0
410,220,98228,1,0
339,149,98408,1,0
339,149,98767,1,0
409,78,98946,1,0
34,220,99665,1,4
34,220,100024,5,0
136,48,100384,2,0,B|208:64|208:136,1,100
160,200,100743,2,0,B|232:224|272:160,1,100
440,112,101282,1,0
368,184,101461,1,0
248,24,101821,2,0,B|248:142,3,100
72,120,102539,6,0,B|19:199|19:199|63:294,2,200
256,192,103617,1,0
424,296,103976,2,0,B|477:217|477:217|433:122,2,200
256,192,105054,12,0,106491
72,40,106851,5,0
176,104,107030,1,0
69,160,107210,1,0
171,223,107390,1,0
290,223,107569,1,0
395,165,107749,1,0
395,285,107929,1,0
294,349,108108,1,0
173,349,108288,1,0
74,280,108467,5,0
64,232,108557,1,0
72,184,108647,1,0
128,80,108827,1,0
168,56,108917,1,0
216,48,109006,1,0
336,56,109186,1,0
376,80,109276,1,0
400,120,109366,1,0
448,312,109725,5,4
456,192,109905,2,0,B|400:192|400:192|336:232,1,100,0|8
288,312,110264,1,0
288,312,110443,2,0,B|192:312|192:312,1,100
64,312,110803,2,0,B|64:256|64:256|104:216,1,100,8|0
210,192,111162,1,0
96,96,111342,5,0
224,24,111521,1,8
368,56,111701,1,0
368,56,112060,5,0
453,141,112240,1,8
367,226,112420,1,0
282,141,112599,2,0,B|264:96|192:112,1,100
72,112,112958,2,0,B|80:160|160:152,1,100,8|0
96,256,113318,1,0
184,336,113497,1,0
96,256,113677,1,8
184,336,113857,1,0
272,256,114036,1,0
384,160,114216,5,0
280,48,114396,1,8
136,80,114575,1,0
32,192,114755,5,0
32,192,115114,1,8
152,192,115294,2,0,B|104:192|104:192|104:248,1,100,0|4
224,244,115653,2,0,B|224:192|224:192|272:192,1,100,0|8
376,256,116012,2,0,B|376:192|376:192|328:152,1,100
256,96,116372,2,0,B|296:128|296:128|352:128,1,100,0|8
48,120,116911,5,0
96,264,117090,1,0
240,312,117270,1,8
382,266,117449,1,0
425,122,117629,5,0
336,48,117809,1,0
240,120,117988,1,8
144,48,118168,2,0,B|80:80|80:152,1,100
80,240,118527,2,0,B|80:304|168:312,1,100,0|8
440,344,119066,5,0
480,200,119246,1,0
392,80,119426,1,8
248,40,119605,1,4
96,64,119785,1,0
32,232,119964,6,0,B|16:280,2,50
200,312,120324,2,0,B|232:360,2,50
376,280,120683,2,0,B|432:288,2,50
432,112,121042,6,0,B|408:48|344:48,1,100,0|4
368,168,121402,2,0,B|376:112|328:72,1,100,0|8
288,184,121761,2,0,B|320:136|296:80,1,100
216,176,122120,2,0,B|256:128|256:72,1,100,0|8
152,144,122479,2,0,B|208:112|224:64,1,100
368,64,122839,5,0
440,200,123018,1,8
320,288,123198,1,0
168,288,123378,5,0
168,288,123737,2,0,B|104:272|104:272|96:224,1,100,8|0
56,128,124096,2,0,B|48:104|48:104|112:64,1,100
208,72,124455,2,0,B|240:72|240:72|336:120,2,100,8|0|0
352,40,124994,5,0
456,320,125354,1,0
160,328,125713,1,0
64,208,125893,1,8
144,80,126072,1,0
232,164,126252,5,0
264,48,126432,1,0
376,88,126611,1,8
488,192,126791,5,0
408,320,126970,1,4
104,320,127330,1,8
408,320,127689,1,0
408,320,128048,5,8
408,200,128228,2,0,B|392:144|392:144|416:104,1,100
312,48,128587,1,0
200,96,128767,1,8
312,48,128946,1,0
200,96,129126,1,0
104,168,129306,2,0,B|160:176|160:248,1,100,0|8
308,260,129665,5,0
256,120,129845,1,0
204,260,130024,1,0
332,180,130204,1,8
180,180,130384,1,0
112,312,130563,5,0
24,188,130743,1,0
112,64,130923,1,8
261,64,131102,6,0,B|344:64,2,50
340,192,131461,2,0,B|285:192,2,50
262,322,131821,2,0,B|327:322,2,50
148,224,132180,5,0
148,73,132360,1,0
297,73,132539,1,0
297,223,132719,1,4
472,40,144216,5,4
401,110,144396,1,2
330,39,144575,1,0
259,109,144755,1,2
188,38,144935,1,0
117,108,145114,1,2
46,37,145294,1,0
46,136,145473,1,2
46,236,145653,1,0
46,336,145833,5,2
116,265,146012,1,0
186,335,146192,1,2
256,264,146372,1,0
326,334,146551,1,2
396,263,146731,1,0
466,333,146911,1,2
466,233,147090,1,4
466,132,147270,1,2
466,32,147449,1,0
344,32,147629,6,0,B|288:16|232:40,1,100,2|0
344,104,147988,2,0,B|304:72|240:64,1,100,2|0
320,168,148348,2,0,B|304:112|248:88,1,100,2|0
232,208,148707,2,0,B|264:160|248:104,1,100,2|0
152,184,149066,2,0,B|200:160|224:112,1,100,2|0
104,120,149426,2,0,B|192:144|240:88,1,100,2|0
112,40,149785,2,0,B|120:80|208:88,1,100,2|4
304,40,150144,5,2
374,110,150324,1,0
303,180,150503,1,2
373,250,150683,1,0
302,320,150863,1,2
202,320,151042,1,0
131,249,151222,1,2
201,178,151402,1,0
130,107,151581,1,2
200,36,151761,1,0
199,36,151940,6,2,B|260:32|260:32|284:80,1,100,2|0
362,151,152299,2,2,B|366:212|366:212|318:236,1,100,2|0
245,314,152659,2,0,B|184:318|184:318|160:270,1,100,2|0
81,198,153018,2,0,B|77:137|77:137|125:113,1,100,2|0
200,40,153378,6,0,B|248:40,4,50
160,236,154096,1,0
308,100,154455,1,0
399,140,154635,1,0
328,210,154815,1,0
398,280,154994,1,0
327,209,155174,1,0
399,140,155354,1,0
256,192,155713,12,0,156791
256,192,157150,5,4
256,192,157509,1,0
384,192,157689,1,0
384,192,158048,2,0,B|384:121|300:120,1,100
256,16,158408,1,4
8,104,158767,1,0
104,192,158946,1,0
8,104,159126,1,0
384,192,159665,5,0
488,112,159845,1,0
384,192,160024,1,4
152,64,160384,1,0
152,64,160563,1,0
128,320,160923,1,0
384,192,161282,1,4
128,192,161641,2,0,B|168:152|224:192,2,100
480,32,162539,1,0
480,32,162899,5,4
288,96,163258,1,0
480,152,163617,1,0
432,64,163797,1,0
232,40,164156,1,0
184,48,164246,1,0
160,88,164336,1,0
160,184,164515,1,0
160,184,164875,1,0
80,240,165054,1,0
360,144,165593,6,0,B|408:128|408:128|392:72,1,100
300,116,165952,2,0,B|284:68|284:68|228:84,1,100
275,174,166312,2,0,B|227:190|227:190|243:246,1,100
333,200,166671,2,0,B|349:248|349:248|405:232,1,100
396,234,167030,5,0
256,40,167390,1,0
208,56,167479,1,0
192,104,167569,1,0
104,192,167749,1,0
120,240,167838,1,0
168,256,167928,1,0
253,341,168108,1,0
301,325,168197,1,0
317,277,168287,1,0
317,277,168647,5,4
437,277,168827,2,0,B|400:232|440:160,1,100,0|8
392,72,169186,1,0
280,32,169366,1,0
168,64,169545,1,0
168,64,169905,1,0
368,288,170264,5,0
224,328,170443,1,8
136,208,170623,1,0
224,328,170803,5,0
263,215,170982,1,0
408,168,171162,5,8
263,215,171342,1,0
184,88,171521,1,0
424,88,171881,5,0
310,50,172060,1,0
247,153,172240,1,0
128,168,172420,2,0,B|72:192|72:192|56:232,1,100,0|8
152,304,172779,1,0
152,304,173138,5,0
258,197,173318,1,8
363,91,173497,1,0
363,91,173677,5,0
248,56,173857,1,0
135,95,174036,2,0,B|111:159|111:159|151:199,1,100,8|0
12,181,174396,1,4
256,352,174755,5,8
280,56,175114,1,0
11,182,175473,5,8
108,108,175653,2,0,B|144:152|116:200,1,100
144,316,176012,2,0,B|176:260|264:272,1,100,0|8
268,180,176372,2,0,B|233:134|273:78,1,100
352,140,176731,2,0,B|387:186|347:242,1,100,0|8
256,348,177090,5,0
132,264,177270,1,0
132,116,177449,1,0
256,200,177629,1,8
256,49,177809,5,0
389,116,177988,1,0
389,266,178168,1,0
256,200,178348,1,8
116,268,178527,5,0
116,268,178617,1,0
116,268,178707,1,0
256,328,178887,1,0
256,328,178976,1,0
256,328,179066,1,0
396,268,179246,1,0
396,268,179336,1,0
396,268,179426,1,0
444,160,179605,5,0
328,128,179785,1,0
228,196,179964,1,0
112,232,180144,5,4
40,160,180324,1,0
112,96,180503,1,0
192,160,180683,1,0
392,160,181042,1,0
320,96,181222,1,0
392,24,181402,1,0
392,24,181761,5,0
256,80,181940,1,0
256,232,182120,1,0
112,288,182300,1,0
112,288,182659,1,0
416,288,183018,5,4
416,184,183198,2,0,B|440:128|384:88,2,100
232,96,183917,2,0,B|168:88|144:144,2,100
48,336,184635,5,0
192,280,184815,1,0
328,336,184994,1,0
472,280,185174,1,0
256,72,185533,1,0
472,280,185893,6,0,B|472:168,1,100,4|0
371,180,186252,2,0,B|371:298,1,100
168,288,186791,1,0
104,216,186970,1,0
168,136,187150,1,0
456,40,187509,5,0
360,160,187689,2,0,B|312:104|256:104,1,100
152,184,188048,2,0,B|88:216|72:272,1,100
224,296,188408,1,0
224,296,188767,5,4
320,296,188946,1,0
224,296,189126,1,0
320,296,189306,1,0
320,96,189665,2,0,B|267:108|219:84,1,100
320,96,190024,1,0
24,72,190384,5,0
152,152,190563,1,0
24,240,190743,1,0
152,320,190923,1,0
456,320,191282,1,0
256,96,191641,5,0
368,192,191821,1,0
256,296,192000,1,0
144,192,192180,1,0
408,56,192539,5,0
464,192,192719,1,0
408,328,192899,1,4
