osu file format v9

[General]
AudioFilename: L.mp3
AudioLeadIn: 0
PreviewTime: 50803
Countdown: 0
SampleSet: Normal
StackLeniency: 0.7
Mode: 0
LetterboxInBreaks: 1

[Editor]
Bookmarks: 1950,9135,50088,85294,109725,144216,157150,168647
DistanceSpacing: 1
BeatDivisor: 4
GridSize: 4

[Metadata]
Title:L
Artist:Hashimoto Miyuki
Creator:regenz
Version:Easy
Source:Aruto
Tags:Purple Software vincerio indyinyou samiljul

[Difficulty]
HPDrainRate:2
CircleSize:3
OverallDifficulty:2
ApproachRate:2
SliderMultiplier:0.799999999999999
SliderTickRate:1

[Events]
//Background and Video events
0,0,"BG_easy.jpg"
//Break Periods
2,73997,84093
2,132919,142656
//Storyboard Layer 0 (Background)
//Storyboard Layer 1 (Fail)
//Storyboard Layer 2 (Pass)
//Storyboard Layer 3 (Foreground)
//Storyboard Sound Samples
//Background Colour Transformations
3,100,163,162,255

[TimingPoints]
1941,359.281437125748,4,1,0,60,1,0
3288,-100,4,1,0,40,0,0
4545,-100,4,1,0,60,0,0
6162,-100,4,2,0,70,0,0
7420,-100,4,2,0,100,0,0
8677,-100,4,1,0,53,0,0
9036,-100,4,2,0,60,0,0
9216,-100,4,1,0,45,0,0
13168,-100,4,2,0,45,0,0
14066,-100,4,1,0,45,0,0
14785,-100,4,1,0,60,0,0
50803,-100,4,1,0,60,0,1
73797,-100,4,1,0,60,0,0
109725,-100,4,1,0,60,0,1
132719,-100,4,1,0,60,0,0
144126,-100,4,2,0,70,0,0
147180,-100,4,2,0,55,0,0
149875,-100,4,2,0,65,0,0
150054,-100,4,2,0,55,0,0
153333,-100,4,1,0,35,0,0
157060,-100,4,1,0,65,0,0
158318,-100,4,1,0,60,0,0
159935,-100,4,2,0,70,0,0
161192,-100,4,2,0,90,0,0
162449,-100,4,1,0,54,0,0
162809,-100,4,2,0,60,0,0
162988,-100,4,1,0,46,0,0
168557,-100,4,1,0,60,0,0
168647,-100,4,1,0,60,0,1
192899,-100,4,1,0,60,0,0

[Colours]
Combo1 : 255,255,128
Combo2 : 255,128,255
Combo3 : 128,255,255

[HitObjects]
40,192,3378,1,4
272,344,4635,1,4
480,48,6252,1,4
480,328,7509,1,4
199,328,8767,6,0,B|176:296|176:296|208:272,1,79.9999999999999,0|4
288,271,9485,2,0,B|375:271,1,79.9999999999999
408,120,10563,1,0
327,117,10923,1,0
327,37,11282,1,0
167,37,12000,6,0,B|95:92,2,79.9999999999999
167,157,13258,1,4
223,213,13617,1,4
279,269,13976,1,4
335,325,14336,2,0,B|335:205,1,120,0|4
335,124,15234,5,0
278,67,15593,1,0
221,123,15952,1,0
128,248,16671,1,0
197,287,17030,1,0
266,246,17390,1,0
304,174,17749,6,0,B|304:120|360:120,1,79.9999999999999
407,176,18467,2,0,B|406:224|352:224,1,79.9999999999999
304,288,19186,1,0
242,337,19545,2,0,B|256:288|208:264,2,79.9999999999999,0|0|0
161,337,20623,5,0
112,272,20982,1,0
112,192,21342,1,0
168,128,21701,1,0
328,128,22420,1,0
407,128,22779,1,0
367,197,23138,1,0
367,276,23497,6,0,B|288:312,3,79.9999999999999
216,314,24935,2,0,B|128:314,1,79.9999999999999,0|0
136,234,25653,1,0
56,234,26012,1,0
56,153,26372,1,4
56,73,26731,6,0,B|136:40|216:72,1,160
372,70,28168,2,0,B|372:149,2,79.9999999999999,0|8|8
372,230,29605,5,0
232,304,30324,1,0
88,232,31042,1,0
88,151,31402,1,2
88,71,31761,1,2
248,72,32479,6,0,B|328:32|416:80,1,160
402,233,33917,1,0
345,289,34276,1,8
288,232,34635,1,8
139,291,35354,5,0
82,234,35713,1,0
138,177,36072,1,0
298,177,36791,2,0,B|298:257|298:257,2,79.9999999999999,0|2|2
368,136,37869,5,4
400,299,38587,2,0,B|352:368|248:352,2,160
286,185,40743,2,0,B|206:206|126:190,2,160
399,298,42899,1,0
285,184,43617,6,0,B|286:272,2,79.9999999999999
124,184,45054,2,0,B|124:267,2,79.9999999999999
160,112,46132,2,0,B|240:80|329:117,2,160
103,168,47929,6,0,B|35:108,1,79.9999999999999
85,47,48647,2,0,B|209:46,1,120
285,46,49545,2,0,B|376:44|396:88|397:186,1,200
396,255,50803,5,4
396,334,51162,1,8
396,173,51881,1,8
236,173,52599,1,8
179,116,52958,1,0
122,172,53318,1,8
8,286,54036,5,8
79,321,54396,1,0
158,321,54755,2,0,B|324:320,1,160,8|8
392,288,55833,1,0
428,216,56192,1,8
459,142,56551,5,4
402,85,56911,2,0,B|320:48|240:88,1,160,8|8
167,84,57988,1,0
87,84,58348,2,0,B|87:137|87:175,3,79.9999999999999,8|0|8|0
87,244,59785,5,8
246,244,60503,1,8
384,324,61222,1,0
384,244,61581,1,0
384,83,62300,5,4
304,83,62659,2,0,B|232:128|144:80,1,160,8|8
38,197,64096,1,8
38,276,64455,1,0
94,332,64815,6,0,B|168:288|264:336,1,160,8|8
407,328,66252,1,8
293,214,66970,1,8
236,157,67330,1,0
179,100,67689,1,8
105,130,68048,5,4
32,164,68408,2,0,B|68:240|68:240|148:240,1,160,8|8
224,240,69485,1,0
304,240,69845,2,0,B|304:160,2,79.9999999999999,8|0|8
360,296,70923,6,0,B|408:328|448:288,1,79.9999999999999,0|8
434,219,71641,2,0,B|464:176|424:136,1,79.9999999999999,0|8
256,192,72360,12,4,73797
48,192,85653,6,0,B|128:192|128:248|200:248,1,160
354,247,87090,1,0
410,190,87449,1,8
353,133,87809,1,8
239,19,88527,6,0,B|280:96|280:96|232:160,1,160
76,154,89964,1,0
76,234,90324,1,2
76,313,90683,1,2
236,313,91402,5,0
349,199,92120,1,0
188,199,92839,1,0
244,142,93198,1,8
300,85,93557,1,8
460,85,94276,6,0,B|511:151|463:239,1,160
304,235,95713,2,0,B|304:328,2,79.9999999999999,0|2|2
223,235,96791,6,0,B|184:160|224:80,2,160,4|0|0
382,235,98946,1,0
382,74,99665,1,0
302,74,100024,1,0
221,74,100384,2,0,B|145:74|144:176|144:176|48:176,1,240
48,256,101821,1,0
190,327,102539,5,4
234,259,102899,1,0
177,202,103258,1,0
336,202,103976,6,0,B|336:281,2,79.9999999999999,0|0|0
255,202,105054,2,0,B|255:296|144:296,2,160
174,202,106851,6,0,B|172:119,1,79.9999999999999
244,90,107569,2,0,B|304:88|304:144,1,79.9999999999999
303,210,108288,2,0,B|252:210|256:264,3,79.9999999999999
175,260,109725,5,4
95,260,110084,1,8
95,99,110803,1,8
254,99,111521,1,8
254,179,111881,1,0
333,179,112240,1,8
333,258,112599,6,0,B|264:296,4,79.9999999999999,0|8|0|8|0
413,258,114396,1,8
469,201,114755,1,0
412,144,115114,1,8
298,30,115833,5,8
184,143,116551,1,8
70,256,117270,2,0,B|69:340,2,79.9999999999999,8|0|8
150,256,118348,6,0,B|208:320,4,79.9999999999999,0|8|0|8|0
196,145,120324,1,0
270,176,120683,1,0
368,104,121222,5,4
416,168,121581,1,8
432,248,121940,1,0
383,312,122300,2,0,B|303:258,1,79.9999999999999,8|0
236,267,123018,2,0,B|141:266,3,79.9999999999999
75,267,124455,5,8
75,106,125174,1,8
235,106,125893,1,8
314,106,126252,2,0,B|369:106|369:152,1,79.9999999999999,0|8
368,229,126970,5,4
368,309,127330,1,8
297,345,127689,1,0
224,312,128048,1,8
151,346,128408,2,0,B|97:344|98:294,3,79.9999999999999,0|8|0|8
256,192,129845,12,4,132719
40,48,144216,5,4
119,48,144575,2,2,B|202:47,3,79.9999999999999,2|0|2|0
279,47,146012,1,2
322,114,146372,1,0
280,182,146731,1,2
337,239,147090,6,2,B|272:304,3,79.9999999999999,4|2|0|2
200,295,148527,2,2,B|139:231,3,79.9999999999999,0|2|0|2
88,180,149964,5,4
88,99,150324,1,2
167,99,150683,1,0
246,99,151042,1,2
327,99,151402,2,2,B|415:99,3,79.9999999999999,0|2|0|2
256,192,152839,12,0,155713
112,40,157150,5,4
347,191,158408,1,4
22,345,160024,1,4
116,81,161282,1,4
373,190,162539,5,0
453,190,162899,1,4
339,303,163617,1,0
225,189,164336,1,0
145,189,164695,1,0
65,189,165054,1,0
65,28,165773,6,0,B|162:27,1,79.9999999999999,0|0
201,83,166491,1,0
314,196,167210,2,0,B|344:272,1,79.9999999999999
263,270,167929,2,0,B|178:269,1,79.9999999999999
126,212,168647,1,4
69,155,169006,5,8
229,155,169725,1,8
342,269,170443,2,0,B|342:353,2,79.9999999999999,8|0|8
199,343,171881,6,0,B|40:344,2,160,8|8|8
199,263,173677,1,0
153,197,174036,1,8
160,116,174396,5,4
201,44,174755,2,0,B|245:60|256:112,3,79.9999999999999,8|0|8|0
253,180,176192,1,8
309,236,176551,1,0
389,236,176911,1,8
256,192,177270,12,4,180144
368,136,181222,1,0
272,264,181940,2,0,B|206:207,2,79.9999999999999,0|0|0
355,261,183018,1,4
435,261,183378,5,0
435,101,184096,1,0
274,101,184815,1,0
242,174,185174,1,0
270,248,185533,1,0
213,304,185893,6,0,B|120:336,1,79.9999999999999,0|0
80,273,186611,2,0,B|32:200,1,79.9999999999999
149,92,187689,2,0,B|79:151,2,79.9999999999999,0|0|0
229,92,188767,1,4
308,92,189126,6,0,B|388:132|388:236,1,160
274,334,190563,1,0
193,334,190923,1,0
193,254,191282,1,0
193,174,191641,6,0,B|194:130,3,40
113,134,192539,2,0,B|56:136,2,40,0|0|4
