osu file format v14

[General]
AudioFilename: Hashimoto Miyuki - Kisetsu o Dakishimete ~blooming white love~.mp3
AudioLeadIn: 1500
PreviewTime: 101785
Countdown: 0
SampleSet: Soft
StackLeniency: 0.7
Mode: 0
LetterboxInBreaks: 0
EpilepsyWarning: 1
WidescreenStoryboard: 1

[Editor]
Bookmarks: 444,6297,12151,18004,23858,26785,32639,38492,44346,50200,56053,61907,67761,73614,79468,85322,91175,97029,102883,108736,114590,120443,126297,132151,138004,143858,149712
DistanceSpacing: 1.6
BeatDivisor: 4
GridSize: 4
TimelineZoom: 1.6

[Metadata]
Title:Kisetsu o Dakishimete ~blooming white love~
TitleUnicode:季節を抱きしめて ~blooming white love~
Artist:Hashimoto Miyuki
ArtistUnicode:橋本みゆき
Creator:Kencho
Version:Insane
Source:アストラエアの白き永遠
Tags:astralair no shiroki towa favorite galgame ending yamamoto mineko nozaki shinpe Lavender Minakami Yuki yf_bmp
BeatmapID:654791
BeatmapSetID:290683

[Difficulty]
HPDrainRate:6
CircleSize:4
OverallDifficulty:7
ApproachRate:9
SliderMultiplier:1.6
SliderTickRate:1

[Events]
//Background and Video events
0,0,"BG1.jpg",0,0
//Break Periods
//Storyboard Layer 0 (Background)
Sprite,Background,Centre,"BG1.jpg",320,240 S,0,0,,0.625 F,0,398,444,0,0.06 F,0,444,535,0.06,0 F,0,535,2044,0 F,0,2044,2090,0,0.06 F,0,2090,2181,0.06,0 F,0,2181,3325,0 F,0,3325,3370,0,0.06 F,0,3370,3462,0.06,0 F,0,3462,4788,0 F,0,4788,4834,0,0.06 F,0,4834,4925,0.06,0 F,0,4925,6251,0 F,0,6251,6297,0,0.06 F,0,6297,6389,0.06,0 F,0,6389,7715,0 F,0,7715,7761,0,0.06 F,0,7761,7852,0.06,0 F,0,7852,9178,0 F,0,9178,9224,0,1 F,0,9224,12151,1,0 F,0,148248,155565,1 F,0,155565,155931,1,0 F,0,155931,161785,0
//Storyboard Layer 1 (Fail)
//Storyboard Layer 2 (Pass)
//Storyboard Layer 3 (Foreground)
Sprite,Foreground,Centre,"BG1.jpg",320,240 F,1,101236,101419,0,0.3 S,0,101328,,0.625 F,2,101419,101785,0.3,0
//Storyboard Sound Samples

[TimingPoints]
444,365.853658536585,4,2,2,40,1,0
444,-133.333333333333,4,2,2,40,0,0
12151,-133.333333333333,4,2,2,45,0,0
23858,-133.333333333333,4,2,1,50,0,0
26053,-100,4,2,1,45,0,0
26785,-100,4,2,1,55,0,0
37761,-100,4,2,1,45,0,0
38492,-100,4,2,1,55,0,0
50200,-133.333333333333,4,2,2,50,0,0
51663,-133.333333333333,4,2,2,35,0,0
53126,-200,4,2,2,35,0,0
54590,-133.333333333333,4,2,2,35,0,0
61907,-133.333333333333,4,2,2,40,0,0
72883,-133.333333333333,4,2,1,40,0,0
73614,-100,4,2,1,50,0,0
90809,-100,4,2,1,55,0,0
99590,-100,4,2,1,60,0,0
99956,-100,4,2,1,65,0,0
100322,-100,4,2,1,70,0,0
100870,-100,4,2,1,55,0,0
101968,-100,4,2,1,65,0,0
102883,-100,4,2,1,60,0,1
114041,-100,4,2,1,50,0,1
114590,-100,4,2,1,55,0,1
124102,-200,4,2,2,40,0,1
125565,-100,4,2,1,50,0,1
126297,-100,4,2,1,55,0,0
137273,-100,4,2,1,45,0,0
138004,-100,4,2,1,55,0,0
149712,-100,4,2,2,30,0,0
151175,-100,4,2,2,25,0,0
152639,-100,4,2,2,20,0,0
154102,-100,4,2,2,15,0,0
155565,-100,4,2,2,10,0,0

[Colours]
Combo1 : 160,96,255
Combo2 : 255,112,112
Combo3 : 176,176,176
Combo4 : 255,255,128
Combo5 : 255,128,160
SliderBorder : 255,255,255

[HitObjects]
140,316,444,6,0,L|128:257,1,60.0000022888184,6|0,0:0|0:0,0:0:0:0:
112,168,809,1,0,0:0:0:0:
204,228,992,6,0,L|222:171,1,60.0000022888184,2|0,0:0|0:0,0:0:0:0:
252,84,1357,1,0,0:0:0:0:
360,72,1541,6,0,L|418:60,2,60.0000022888184,2|0|0,0:0|0:0|0:0,0:0:0:0:
444,140,2090,2,0,L|493:173,2,60.0000022888184,2|0|0,0:0|0:0|0:0,0:0:0:0:
360,72,2639,5,2,0:0:0:0:
360,72,2822,1,0,0:0:0:0:
252,84,3004,1,2,0:0:0:0:
252,84,3187,1,0,0:0:0:0:
172,164,3370,6,0,L|129:206,2,60.0000022888184,6|0|0,0:0|0:0|0:0,0:0:0:0:
252,84,3919,2,0,L|294:41,1,60.0000022888184,2|0,0:0|0:0,0:0:0:0:
152,84,4285,6,0,L|109:41,2,60.0000022888184,2|0|0,0:0|0:0|0:0,0:0:0:0:
268,164,4834,2,0,L|310:206,1,60.0000022888184,2|0,0:0|0:0,0:0:0:0:
400,236,5200,5,2,0:0:0:0:
451,266,5383,1,0,0:0:0:0:
451,326,5565,1,2,0:0:0:0:
399,356,5748,1,2,0:0:0:0:
348,325,5931,1,2,0:0:0:0:
348,265,6114,1,0,0:0:0:0:
400,296,6297,6,0,B|373:329|322:322|296:356,1,120.000004577637,6|0,0:0|0:0,0:0:0:0:
204,284,6846,2,0,L|219:226,1,60.0000022888184,2|0,0:0|0:0,0:0:0:0:
92,284,7212,2,0,L|108:342,2,60.0000022888184,2|0|0,0:0|0:0|0:0,0:0:0:0:
67,163,7761,6,0,P|81:106|123:65,1,120.000004577637,6|0,0:0|0:0,0:0:0:0:
216,144,8309,2,0,P|187:147|157:145,1,60.0000022888184,2|0,0:0|0:0,0:0:0:0:
312,92,8675,2,0,P|341:89|371:91,2,60.0000022888184,2|0|0,0:0|0:0|0:0,0:0:0:0:
400,196,9224,6,0,P|370:198|340:196,1,60.0000022888184,6|0,0:0|0:0,0:0:0:0:
216,144,9590,1,0,0:0:0:0:
252,244,9773,6,0,P|256:273|252:303,1,60.0000022888184,2|0,0:0|0:0,0:0:0:0:
148,276,10139,1,2,0:0:0:0:
112,176,10322,1,0,0:0:0:0:
216,144,10504,1,0,0:0:0:0:
251,244,10687,6,0,P|192:245|139:218,1,120.000004577637,6|0,0:0|0:0,0:0:0:0:
72,136,11236,1,0,0:0:0:0:
184,88,11419,2,0,L|239:65,1,60.0000022888184,2|0,0:0|0:0,0:0:0:0:
312,116,11785,2,0,L|367:93,1,60.0000022888184
466,53,12151,6,0,B|499:109|470:168|470:168|490:238|452:280,1,240.000009155274,6|0,0:0|0:0,0:0:0:0:
294,277,13248,2,0,L|312:333,1,60.0000022888184
200,336,13614,6,0,B|154:335|113:318|113:318|100:290,1,120.000004577637,6|0,0:0|0:0,0:0:0:0:
50,124,14346,1,2,0:0:0:0:
216,194,14712,1,0,0:0:0:0:
39,240,15078,6,0,P|33:180|49:123,1,120.000004577637,6|0,0:0|0:0,0:0:0:0:
188,44,15626,2,0,P|276:54|345:110,1,180.000006866455,2|0,0:0|0:0,0:0:0:0:
344,109,16541,6,0,P|325:165|289:214,1,120.000004577637,6|0,0:0|0:0,0:0:0:0:
185,159,17090,2,0,P|241:178|289:213,1,120.000004577637,2|0,0:0|0:0,0:0:0:0:
364,288,17639,1,2,0:0:0:0:
276,320,17822,1,0,0:0:0:0:
289,213,18004,6,0,L|299:153,1,60.0000022888184,6|0,0:0|0:0,0:0:0:0:
316,52,18370,1,0,0:0:0:0:
211,100,18553,2,0,P|166:138|137:190,1,120.000004577637,2|0,0:0|0:0,0:0:0:0:
311,170,19102,6,0,P|321:111|315:51,2,120.000004577637,6|2|0,0:0|0:0|0:0,0:0:0:0:
236,360,20200,1,0,0:0:0:0:
112,196,20565,1,0,0:0:0:0:
311,170,20748,1,0,0:0:0:0:
333,165,20840,1,0,0:0:0:0:
353,156,20931,6,0,P|405:129|442:82,1,120.000004577637,6|0,0:0|0:0,0:0:0:0:
312,88,21480,2,0,L|301:29,2,60.0000022888184,0|2|0,0:0|0:0|0:0,0:0:0:0:
154,127,22212,6,0,L|124:131,2,30.0000011444092,0|0|2,0:0|0:0|0:0,0:0:0:0:
281,258,22943,2,0,L|311:254,2,30.0000011444092,0|0|2,0:0|0:0|0:0,0:0:0:0:
256,192,23858,12,0,25504,0:0:0:0:
256,192,25687,5,8,0:0:0:0:
256,56,26053,5,2,3:2:0:0:
276,56,26145,1,0,3:0:0:0:
296,60,26236,1,0,3:0:0:0:
316,68,26328,1,0,3:0:0:0:
332,76,26419,1,8,3:0:0:0:
348,88,26511,1,0,3:0:0:0:
360,104,26602,1,0,3:0:0:0:
372,124,26693,1,0,3:0:0:0:
380,144,26785,6,0,P|385:222|352:293,1,160,4|10,0:0|0:0,0:0:0:0:
212,296,27334,2,0,P|218:253|234:219,1,80,0|2,0:0|0:3,0:0:0:0:
352,184,27700,2,0,P|345:226|329:260,1,80,0|10,0:0|0:3,0:0:0:0:
264,368,28065,1,0,0:0:0:0:
174,216,28248,5,2,0:3:0:0:
352,184,28431,1,0,0:0:0:0:
211,296,28614,2,0,P|172:300|132:294,1,80,10|0,0:3|0:0,0:0:0:0:
179,111,28980,1,2,0:3:0:0:
212,296,29163,1,0,0:0:0:0:
108,188,29346,1,10,0:3:0:0:
296,188,29529,1,8,0:0:0:0:
324,188,29620,1,8,0:0:0:0:
352,183,29712,6,0,P|418:143|433:66,1,160,0|10,0:0|0:1,0:0:0:0:
332,84,30261,1,2,0:0:0:0:
281,245,30443,1,2,0:1:0:0:
179,111,30626,2,0,P|140:106|101:115,1,80,2|10,0:0|0:3,0:0:0:0:
126,271,30992,6,0,P|126:191|101:115,1,160,2|2,0:0|0:0,0:0:0:0:
0,212,31541,1,10,0:3:0:0:
126,271,31724,2,0,P|205:271|281:246,1,160,2|2,0:0|0:0,0:0:0:0:
248,72,32273,1,10,0:3:0:0:
180,176,32456,1,8,0:0:0:0:
204,188,32547,1,8,0:0:0:0:
232,192,32639,6,0,P|271:191|309:177,1,80,2|0,0:0|0:0,0:0:0:0:
412,100,33004,1,10,0:3:0:0:
248,72,33187,2,0,P|170:87|118:146,1,160,0|0,0:0|3:0,0:0:0:0:
80,268,33736,1,10,0:3:0:0:
232,192,33919,1,2,0:0:0:0:
251,212,34011,1,2,0:0:0:0:
269,232,34102,6,0,B|319:272|370:268|370:268|393:313,1,160,2|10,0:3|0:3,0:0:0:0:
286,358,34651,1,0,0:0:0:0:
141,317,34834,2,0,P|107:296|79:267,1,80,2|0,0:3|0:0,0:0:0:0:
228,148,35200,1,10,0:3:0:0:
224,294,35383,1,0,0:0:0:0:
228,148,35565,6,0,P|255:119|288:97,1,80,2|2,0:1|0:1,0:0:0:0:
404,52,35931,1,10,0:3:0:0:
488,160,36114,1,2,0:1:0:0:
352,176,36297,1,2,0:3:0:0:
476,84,36480,1,2,0:0:0:0:
424,208,36663,1,10,0:3:0:0:
344,100,36846,1,10,0:0:0:0:
316,104,36937,1,8,0:0:0:0:
288,108,37029,6,0,P|248:109|209:104,1,80,4|2,0:0|0:0,0:0:0:0:
73,82,37395,2,0,P|73:121|83:160,1,80,12|2,0:3|0:0,0:0:0:0:
158,315,37761,5,2,0:0:0:0:
179,316,37852,1,2,0:0:0:0:
200,314,37943,1,10,0:0:0:0:
221,311,38035,1,8,0:0:0:0:
241,304,38126,1,10,0:0:0:0:
261,296,38218,1,4,0:3:0:0:
279,284,38309,1,4,0:3:0:0:
296,270,38401,1,4,0:3:0:0:
312,254,38492,6,0,P|337:180|318:103,1,160,4|10,0:0|0:0,0:0:0:0:
208,175,39041,1,0,0:0:0:0:
312,255,39224,2,0,P|351:259|391:252,1,80,2|0,0:3|0:0,0:0:0:0:
317,102,39590,2,0,P|278:97|239:104,1,80,10|0,0:3|0:0,0:0:0:0:
192,256,39956,5,2,0:3:0:0:
148,120,40139,1,0,0:0:0:0:
120,292,40322,1,10,0:3:0:0:
208,175,40505,1,0,0:0:0:0:
60,240,40687,2,0,L|-10:277,2,80,2|0|10,0:3|0:0|0:3,0:0:0:0:
208,175,41236,1,8,0:0:0:0:
236,164,41328,1,8,0:0:0:0:
264,159,41419,6,0,P|341:174|396:231,1,160,0|10,0:0|0:1,0:0:0:0:
272,288,41968,2,0,P|233:294|194:286,1,80,2|2,0:0|0:1,0:0:0:0:
60,240,42334,1,2,0:0:0:0:
116,72,42517,1,10,0:3:0:0:
208,175,42700,6,0,P|284:196|362:180,1,160,2|2,0:0|0:0,0:0:0:0:
472,104,43248,1,10,0:3:0:0:
356,24,43431,2,0,P|340:102|362:179,1,160,2|2,0:0|0:0,0:0:0:0:
416,296,43980,1,10,0:3:0:0:
280,316,44163,1,10,0:0:0:0:
252,320,44254,1,8,0:0:0:0:
224,320,44346,6,0,P|184:316|146:303,1,80,4|0,0:0|0:0,0:0:0:0:
56,224,44712,1,10,0:3:0:0:
68,96,44895,2,0,P|141:125|183:195,1,160
224,320,45443,1,10,0:3:0:0:
371,312,45626,5,2,0:0:0:0:
394,305,45718,1,2,0:0:0:0:
416,296,45809,2,0,P|451:227|428:153,1,160,2|10,0:3|0:3,0:0:0:0:
344,72,46358,2,0,P|308:142|331:216,1,160
427,152,46907,1,10,0:3:0:0:
392,312,47090,1,0,0:0:0:0:
233,354,47273,6,0,P|155:370|79:347,1,160,6|10,0:0|0:0,0:0:0:0:
9,222,47822,2,0,P|86:205|162:228,1,160,4|2,0:0|0:0,0:0:0:0:
293,310,48370,1,8,0:0:0:0:
171,280,48553,1,10,0:0:0:0:
166,254,48645,1,8,0:0:0:0:
162,228,48736,6,0,P|161:189|170:150,1,80,4|2,0:0|0:0,0:0:0:0:
253,46,49102,1,10,0:0:0:0:
330,218,49285,1,2,0:0:0:0:
271,85,49468,1,10,0:0:0:0:
162,228,49651,1,0,0:0:0:0:
289,122,49834,2,0,P|323:102|362:94,1,80,10|4,0:0|0:3,0:0:0:0:
453,125,50200,6,0,P|413:169|356:185,1,120.000004577637,4|0,0:0|3:0,0:0:0:0:
256,192,50748,1,0,0:0:0:0:
256,192,51663,5,2,2:0:0:0:
200,47,52029,2,0,P|257:31|314:47,1,120.000004577637,0|0,3:0|0:0,0:0:0:0:
452,176,52761,1,0,3:0:0:0:
256,192,53126,6,0,B|208:188|160:248|104:232,1,160,2|0,0:0|0:0,0:0:0:0:
112,64,54224,1,0,3:0:0:0:
292,60,54590,6,0,P|349:72|397:107,1,120.000004577637,2|0,0:0|3:0,0:0:0:0:
300,170,55139,2,0,P|241:156|194:120,1,120.000004577637
104,180,55687,2,0,P|93:207|89:237,1,60.0000022888184,0|0,3:0|0:0,0:0:0:0:
92,340,56053,5,4,0:0:0:0:
364,276,56419,2,0,L|408:232,1,60.0000022888184,0|0,3:0|0:0,0:0:0:0:
476,160,56785,1,0,0:0:0:0:
104,180,57517,5,2,0:0:0:0:
296,212,57883,2,0,P|352:195|389:149,1,120.000004577637,0|0,3:0|0:0,0:0:0:0:
244,36,58614,1,0,3:0:0:0:
188,212,58980,6,0,P|132:191|95:144,1,120.000004577637,2|0,0:0|3:0,0:0:0:0:
192,116,59529,1,0,0:0:0:0:
192,116,60078,1,0,3:0:0:0:
92,284,60443,5,2,0:0:0:0:
404,56,60992,1,0,0:0:0:0:
348,240,61541,2,0,L|292:262,1,60.0000022888184,0|0,3:0|0:0,0:0:0:0:
199,291,61907,6,0,P|164:244|162:185,1,120.000004577637,4|0,0:0|3:0,0:0:0:0:
168,88,62456,1,0,0:0:0:0:
105,164,62639,2,0,L|161:184,1,60.0000022888184
199,291,63004,2,0,L|143:271,1,60.0000022888184,0|0,3:0|0:0,0:0:0:0:
44,236,63370,5,2,0:0:0:0:
168,88,63736,2,0,P|213:49|270:32,1,120.000004577637,0|0,3:0|0:0,0:0:0:0:
399,170,64468,2,0,L|372:226,1,60.0000022888184,0|0,3:0|0:0,0:0:0:0:
329,313,64834,5,2,0:0:0:0:
505,281,65200,1,0,3:0:0:0:
329,313,65565,1,0,0:0:0:0:
244,152,65931,1,2,0:3:0:0:
64,328,66663,5,0,3:0:0:0:
64,136,67029,2,0,L|120:117,1,60.0000022888184,2|0,0:0|0:0,0:0:0:0:
244,152,67395,2,0,L|187:170,1,60.0000022888184,0|0,3:0|0:0,0:0:0:0:
248,260,67761,6,0,P|307:257|359:229,1,120.000004577637,4|0,0:0|3:0,0:0:0:0:
280,160,68309,2,0,P|220:162|168:190,1,120.000004577637
248,260,68858,2,0,P|271:277|300:288,1,60.0000022888184,0|0,3:0|0:0,0:0:0:0:
404,312,69224,5,2,0:0:0:0:
404,311,69590,2,0,P|411:253|392:197,1,120.000004577637
336,114,70139,1,0,0:0:0:0:
247,72,70322,1,0,3:0:0:0:
160,116,70504,1,0,0:0:0:0:
242,164,70687,6,0,P|261:220|258:279,1,120.000004577637,2|0,0:0|0:0,0:0:0:0:
237,374,71236,1,2,0:0:0:0:
60,256,71602,1,2,0:0:0:0:
316,240,71968,6,0,L|360:199,1,60.0000022888184,2|0,0:0|0:0,0:0:0:0:
160,116,72517,1,0,3:0:0:0:
160,116,72883,6,0,L|114:155,1,60.0000022888184,8|0,0:0|0:0,0:0:0:0:
40,216,73248,1,8,0:0:0:0:
336,316,73614,6,0,P|411:340|486:317,1,160,4|0,0:0|1:0,0:0:0:0:
407,219,74163,2,0,P|385:187|371:149,1,80,4|0,0:0|0:0,0:0:0:0:
332,36,74529,1,0,0:0:0:0:
188,156,74712,1,0,3:0:0:0:
216,52,74895,1,0,0:0:0:0:
160,260,75078,6,0,P|218:311|296:305,1,160,4|0,0:0|1:0,0:0:0:0:
407,219,75626,2,0,B|355:247|307:203|251:223,1,160,4|0,0:0|0:0,0:0:0:0:
352,76,76175,2,0,P|351:115|365:152,1,80,0|0,3:0|1:0,0:0:0:0:
428,268,76541,6,0,P|390:335|315:357,1,160,4|0,0:0|1:0,0:0:0:0:
280,236,77090,2,0,P|259:203|229:177,1,80,4|0,0:0|0:0,0:0:0:0:
128,112,77456,1,0,0:0:0:0:
45,253,77639,2,0,P|85:250|120:232,1,80,0|0,3:0|0:0,0:0:0:0:
190,64,78004,6,0,P|112:65|52:115,1,160,4|0,0:0|1:0,0:0:0:0:
174,211,78553,2,0,B|224:260|291:260|291:260|295:229,1,160,4|0,0:0|0:0,0:0:0:0:
316,120,79102,1,0,3:0:0:0:
316,120,79468,6,0,B|379:100|428:147|428:147|459:125,1,160,4|0,0:0|1:0,0:0:0:0:
356,196,80017,1,4,0:0:0:0:
360,31,80200,2,0,P|399:34|436:50,1,80
355,196,80565,2,0,P|328:224|292:239,1,80,0|0,3:0|0:0,0:0:0:0:
164,236,80931,6,0,P|144:161|176:89,1,160,4|0,0:0|1:0,0:0:0:0:
252,172,81480,1,4,0:0:0:0:
72,296,81663,1,0,0:0:0:0:
68,184,81846,1,0,1:0:0:0:
164,236,82029,1,0,3:0:0:0:
164,236,82395,6,0,P|174:159|230:103,1,160,4|0,0:0|1:0,0:0:0:0:
416,140,82943,2,0,P|366:200|289:215,1,160,4|0,0:0|0:0,0:0:0:0:
230,102,83492,6,0,P|305:122|353:184,1,160,0|4,3:0|0:0,0:0:0:0:
227,231,84041,1,0,1:0:0:0:
140,112,84224,1,0,0:0:0:0:
73,242,84407,2,0,P|151:255|227:231,1,160,2|4,0:0|0:0,0:0:0:0:
227,231,85139,1,0,0:0:0:0:
356,263,85322,6,0,P|351:185|304:121,1,160,4|0,0:0|1:0,0:0:0:0:
200,78,85870,2,0,P|220:45|252:21,1,80,4|0,0:0|0:0,0:0:0:0:
377,33,86236,1,0,0:0:0:0:
468,117,86419,2,0,P|494:146|511:182,1,80,0|0,3:0|0:0,0:0:0:0:
403,208,86785,6,0,P|342:256|329:333,1,160,4|0,0:0|1:0,0:0:0:0:
403,207,87334,2,0,P|353:147|276:133,1,160,4|0,0:0|0:0,0:0:0:0:
168,72,87883,2,0,P|200:49|239:41,1,80,0|0,3:0|1:0,0:0:0:0:
232,204,88248,6,0,P|180:261|102:268,1,160,4|0,0:0|1:0,0:0:0:0:
168,72,88797,2,0,P|224:126|232:205,1,160,4|0,0:0|0:0,0:0:0:0:
136,168,89346,1,0,3:0:0:0:
308,120,89529,6,0,B|364:100|412:144|464:116,1,160,4|0,0:0|1:0,0:0:0:0:
344,284,90078,1,8,1:0:0:0:
320,316,90443,5,8,1:0:0:0:
136,168,90809,2,0,P|175:172|215:165,1,80,8|0,1:0|0:0,0:0:0:0:
408,120,91175,5,4,0:0:0:0:
367,250,91358,1,2,0:0:0:0:
272,152,91541,1,10,0:1:0:0:
388,44,91724,1,2,0:0:0:0:
418,194,91907,2,0,P|423:234|417:273,1,80,2|0,0:1|0:0,0:0:0:0:
270,229,92273,1,8,0:0:0:0:
445,113,92456,1,0,0:0:0:0:
417,274,92639,5,4,0:0:0:0:
365,116,92822,2,0,P|404:109|444:112,1,80,2|10,0:0|0:1,0:0:0:0:
176,164,93187,2,0,P|136:167|97:160,1,80,2|2,0:0|0:1,0:0:0:0:
244,56,93553,1,0,0:0:0:0:
270,229,93736,1,8,0:0:0:0:
365,116,93919,1,0,0:0:0:0:
176,164,94102,6,0,P|109:201|63:266,1,160,4|8,0:0|0:0,0:0:0:0:
196,305,94651,1,0,0:0:0:0:
176,164,94834,2,0,P|155:130|126:104,1,80,2|0,0:0|0:0,0:0:0:0:
61,268,95200,1,8,0:0:0:0:
270,286,95383,1,0,1:0:0:0:
176,164,95565,5,2,1:2:0:0:
196,305,95748,1,0,0:0:0:0:
307,216,95931,1,8,0:0:0:0:
176,164,96114,2,0,B|115:139|58:158|58:158|55:197,1,160,0|0,1:0|1:0,0:0:0:0:
58,337,96663,2,0,P|97:340|137:334,1,80,8|0,0:0|1:0,0:0:0:0:
312,300,97029,5,4,0:0:0:0:
192,144,97212,1,0,0:0:0:0:
336,224,97395,2,0,P|344:185|340:146,1,80,8|0,0:0|1:0,0:0:0:0:
168,216,97761,2,0,P|159:255|163:294,1,80,2|0,0:0|3:0,0:0:0:0:
278,361,98126,1,8,0:0:0:0:
405,270,98309,1,0,0:0:0:0:
367,98,98492,6,0,P|351:60|325:30,1,80,2|0,1:2|0:0,0:0:0:0:
87,172,98858,2,0,P|87:211|98:250,1,80,8|0,0:0|0:0,0:0:0:0:
247,256,99224,1,2,1:2:0:0:
237,80,99407,1,0,0:0:0:0:
150,238,99590,1,8,0:0:0:0:
313,51,99773,1,8,1:0:0:0:
353,195,99956,6,0,P|351:234|335:271,1,80,8|0,1:0|0:0,0:0:0:0:
87,172,100322,2,0,P|64:139|54:100,1,80,8|0,1:0|0:0,0:0:0:0:
313,51,100687,1,8,1:0:0:0:
336,272,100870,5,0,1:0:0:0:
360,272,100962,1,0,1:0:0:0:
384,264,101053,1,8,1:0:0:0:
404,252,101145,1,0,1:0:0:0:
420,236,101236,1,0,1:0:0:0:
432,216,101328,1,0,1:0:0:0:
436,192,101419,1,2,1:0:0:0:
87,172,101968,6,0,P|73:209|68:248,1,80,0|2,0:0|0:0,0:0:0:0:
228,316,102334,1,0,0:0:0:0:
256,316,102425,1,0,0:0:0:0:
280,316,102517,2,0,L|360:316,1,80,8|0,1:0|0:0,0:0:0:0:
491,244,102883,6,0,P|471:167|416:110,1,160,4|8,1:2|1:0,0:0:0:0:
264,96,103431,1,4,0:3:0:0:
206,245,103614,2,0,L|179:320,1,80,4|4,0:3|0:3,0:0:0:0:
78,195,103980,2,0,L|105:120,1,80,8|4,1:0|0:3,0:0:0:0:
264,96,104346,5,2,0:1:0:0:
206,245,104529,1,4,0:3:0:0:
364,221,104712,1,8,1:0:0:0:
264,96,104895,1,4,0:3:0:0:
206,245,105078,2,0,P|196:282|198:322,1,80,4|4,0:3|0:3,0:0:0:0:
364,221,105443,2,0,P|373:182|370:142,1,80,8|4,1:0|0:3,0:0:0:0:
368,113,105718,1,8,0:0:0:0:
363,84,105809,6,8,P|289:59|215:85,1,160,4|8,0:0|1:0,0:0:0:0:
120,192,106358,1,4,0:3:0:0:
275,247,106541,2,0,P|274:208|286:170,1,80,4|4,0:3|0:3,0:0:0:0:
435,233,106907,1,8,1:0:0:0:
400,348,107090,1,4,0:3:0:0:
238,352,107273,6,0,P|160:345|97:297,1,160,2|10,0:3|1:3,0:0:0:0:
24,172,107822,2,0,P|62:161|102:163,1,80,4|2,0:3|0:3,0:0:0:0:
236,237,108187,1,4,0:3:0:0:
336,76,108370,1,10,1:3:0:0:
432,240,108553,1,4,0:3:0:0:
420,216,108645,1,8,0:0:0:0:
409,196,108736,6,0,P|373:180|333:177,1,80,4|4,0:0|0:3,0:0:0:0:
88,144,109102,2,0,P|124:160|164:164,1,80,8|4,1:0|0:3,0:0:0:0:
54,231,109468,1,4,0:3:0:0:
147,72,109651,1,4,0:3:0:0:
160,284,109834,1,8,1:0:0:0:
308,264,110017,1,4,0:3:0:0:
336,256,110108,1,8,0:0:0:0:
364,247,110200,6,0,P|399:230|428:202,1,80,2|4,0:1|0:3,0:0:0:0:
240,56,110565,2,0,P|204:73|175:101,1,80,8|4,1:0|0:3,0:0:0:0:
336,256,110931,1,2,0:0:0:0:
203,201,111114,1,4,0:3:0:0:
220,344,111297,2,0,P|182:356|141:354,1,80,8|4,1:0|0:3,0:0:0:0:
324,116,111663,6,0,P|402:125|459:179,1,160,4|8,0:0|1:0,0:0:0:0:
336,256,112212,1,4,0:3:0:0:
203,201,112395,1,4,0:3:0:0:
240,56,112578,1,4,0:3:0:0:
394,126,112761,2,0,P|425:148|450:179,1,80,8|4,1:0|0:3,0:0:0:0:
462,206,113035,1,8,0:0:0:0:
471,232,113126,5,2,0:3:0:0:
336,256,113309,1,0,0:0:0:0:
376,366,113492,2,0,P|415:370|454:360,1,80,10|0,1:3|0:0,0:0:0:0:
394,126,113858,5,2,0:3:0:0:
336,256,114041,1,8,1:3:0:0:
320,268,114133,1,8,1:3:0:0:
304,280,114224,1,10,1:3:0:0:
288,288,114315,1,4,1:3:0:0:
268,296,114407,1,4,1:3:0:0:
248,300,114498,1,4,1:3:0:0:
228,300,114590,6,0,P|152:283|104:221,1,160,4|8,0:0|1:0,0:0:0:0:
72,88,115139,1,4,0:3:0:0:
204,128,115322,1,4,0:3:0:0:
103,220,115504,1,0,0:3:0:0:
280,59,115687,2,0,P|312:37|350:24,1,80,8|0,1:0|0:3,0:0:0:0:
487,82,116053,5,2,0:1:0:0:
296,240,116236,1,4,0:3:0:0:
348,108,116419,1,8,1:0:0:0:
440,216,116602,1,4,0:3:0:0:
204,128,116785,2,0,L|129:100,1,80,4|4,0:3|0:3,0:0:0:0:
102,266,117151,1,8,1:0:0:0:
268,244,117334,1,4,0:3:0:0:
296,240,117425,1,8,0:0:0:0:
324,236,117517,6,0,L|404:220,1,80,4|4,0:0|0:3,0:0:0:0:
348,108,117883,1,8,1:0:0:0:
324,332,118065,1,4,0:3:0:0:
440,216,118248,5,4,0:3:0:0:
232,132,118431,1,4,0:3:0:0:
332,280,118614,5,8,1:0:0:0:
356,56,118797,1,4,0:3:0:0:
440,216,118980,5,6,0:3:0:0:
292,93,119163,1,4,0:3:0:0:
332,280,119346,1,10,1:3:0:0:
412,104,119529,5,4,0:3:0:0:
247,200,119712,1,2,0:3:0:0:
440,216,119895,1,4,0:3:0:0:
356,56,120078,5,10,1:3:0:0:
188,100,120261,1,4,0:3:0:0:
160,104,120352,1,8,0:0:0:0:
132,108,120443,6,0,P|92:111|52:108,1,80,4|4,0:0|0:3,0:0:0:0:
136,280,120809,1,10,1:2:0:0:
361,223,120992,1,4,0:3:0:0:
266,320,121175,5,2,0:0:0:0:
331,90,121358,1,4,0:3:0:0:
361,223,121541,5,10,1:2:0:0:
199,57,121724,1,4,0:3:0:0:
215,282,121907,6,0,P|175:285|136:280,1,80,2|4,0:1|0:3,1:3:0:0:
156,124,122273,2,0,P|174:88|199:56,1,80,8|4,1:0|0:3,1:3:0:0:
323,152,122639,2,0,P|346:185|361:223,1,80,8|12,1:0|0:3,1:3:0:0:
135,279,123004,1,8,1:0:0:0:
199,57,123187,1,2,0:0:0:0:
361,222,123370,5,4,0:0:0:0:
361,222,124102,2,0,P|317:261|294:315,1,120,4|0,0:0|0:0,0:0:0:0:
204,346,124834,6,0,P|164:353|124:352,1,80,2|8,0:0|0:3,0:0:0:0:
148,165,125565,1,10,1:2:0:0:
145,139,125657,1,8,1:0:0:0:
143,115,125748,1,4,0:3:0:0:
141,91,125840,1,4,0:3:0:0:
139,66,125931,2,0,P|100:63|60:67,1,80,10|4,1:3|0:3,0:0:0:0:
296,120,126297,6,0,B|352:140|400:96|452:124,1,160,4|10,0:0|0:0,0:0:0:0:
404,236,126846,1,0,0:0:0:0:
336,52,127029,1,2,0:3:0:0:
452,124,127212,1,0,0:0:0:0:
316,204,127395,1,10,0:3:0:0:
257,51,127578,1,0,0:0:0:0:
452,124,127761,6,0,P|455:163|450:203,1,80,2|0,0:3|0:0,0:0:0:0:
314,283,128126,2,0,P|310:243|315:203,1,80,10|0,0:3|0:0,0:0:0:0:
336,52,128492,1,2,0:3:0:0:
392,180,128675,1,0,0:0:0:0:
264,104,128858,1,10,0:3:0:0:
452,124,129041,1,8,0:0:0:0:
452,152,129133,1,8,0:0:0:0:
451,180,129224,6,0,P|377:206|302:183,1,160,0|10,0:0|0:1,0:0:0:0:
200,88,129773,1,2,0:0:0:0:
148,260,129956,2,0,P|117:283|78:294,1,80,2|2,0:1|0:0,0:0:0:0:
68,176,130322,1,8,0:3:0:0:
196,136,130504,6,0,B|254:125|274:63|333:61,1,160,2|2,0:0|0:0,0:0:0:0:
180,49,131053,1,10,0:3:0:0:
336,152,131236,2,0,B|394:162|414:224|473:226,1,160,2|2,0:0|0:0,0:0:0:0:
322,241,131785,1,10,0:3:0:0:
472,132,131968,1,10,0:0:0:0:
468,104,132059,1,8,0:0:0:0:
463,75,132151,6,0,P|424:67|385:73,1,80,4|0,0:0|0:0,0:0:0:0:
320,240,132517,2,0,P|359:248|398:242,1,80,10|0,0:3|0:0,0:0:0:0:
472,132,132883,1,2,0:3:0:0:
336,152,133065,1,0,0:0:0:0:
432,284,133248,1,10,0:3:0:0:
296,332,133431,1,2,0:0:0:0:
268,340,133523,1,2,0:0:0:0:
239,344,133614,6,0,P|200:344|161:333,1,80,2|0,0:3|0:0,0:0:0:0:
137,187,133980,2,0,P|176:186|215:197,1,80,10|0,0:3|0:0,0:0:0:0:
296,332,134346,2,0,P|219:346|141:327,1,160,2|10,0:3|0:3,0:0:0:0:
137,187,134895,1,0,0:0:0:0:
20,120,135078,6,0,P|7:157|2:197,1,80,2|2,0:1|0:1,0:0:0:0:
137,187,135443,2,0,P|173:171|203:145,1,80,10|2,0:3|0:1,0:0:0:0:
292,56,135809,1,2,0:3:0:0:
240,244,135992,1,2,0:0:0:0:
152,76,136175,1,10,0:3:0:0:
308,140,136358,1,10,0:0:0:0:
316,168,136450,1,8,0:0:0:0:
320,196,136541,6,0,P|325:235|319:275,1,80,4|2,0:0|0:0,0:0:0:0:
140,328,136907,2,0,P|135:289|138:249,1,80,12|2,0:3|0:0,0:0:0:0:
152,76,137273,5,2,0:0:0:0:
172,64,137364,1,2,0:0:0:0:
196,61,137455,1,10,0:0:0:0:
220,64,137547,1,8,0:0:0:0:
244,72,137639,1,10,0:3:0:0:
264,84,137730,1,4,0:3:0:0:
288,92,137822,1,4,0:3:0:0:
311,95,137913,1,4,0:3:0:0:
336,96,138004,6,0,B|393:111|437:63|491:86,1,160,4|10,0:0|0:0,0:0:0:0:
448,220,138553,1,0,0:0:0:0:
320,332,138736,2,0,P|326:293|343:257,1,80,2|0,0:3|0:0,0:0:0:0:
456,160,139102,1,10,0:3:0:0:
336,96,139285,1,0,0:0:0:0:
236,246,139468,6,0,P|207:272|171:289,1,80,2|0,0:3|0:0,0:0:0:0:
44,332,139834,2,0,P|50:293|64:256,1,80,10|0,0:3|0:0,0:0:0:0:
188,176,140200,1,2,0:3:0:0:
300,296,140383,1,0,0:0:0:0:
348,140,140565,1,10,0:3:0:0:
236,246,140748,1,8,0:0:0:0:
214,262,140840,1,8,0:0:0:0:
192,278,140931,6,0,P|121:315|43:332,1,160,0|10,0:0|0:1,0:0:0:0:
73,182,141480,1,2,0:0:0:0:
180,107,141663,2,0,P|217:95|257:91,1,80,2|2,0:1|0:0,0:0:0:0:
396,152,142029,1,10,0:3:0:0:
283,245,142212,6,0,P|255:170|257:91,1,160,2|2,0:0|0:0,0:0:0:0:
396,152,142761,1,10,0:3:0:0:
283,245,142943,2,0,P|208:272|129:270,1,160,2|2,0:0|0:0,0:0:0:0:
4,244,143492,1,10,0:3:0:0:
100,116,143675,1,10,0:0:0:0:
124,100,143767,1,8,0:0:0:0:
148,88,143858,6,0,P|184:71|223:64,1,80,4|0,0:0|0:0,0:0:0:0:
396,152,144224,2,0,P|359:168|320:175,1,80,10|0,0:3|0:0,0:0:0:0:
180,200,144590,1,2,0:3:0:0:
223,64,144773,1,0,0:0:0:0:
320,175,144956,1,10,0:3:0:0:
152,123,145139,1,2,0:0:0:0:
143,147,145230,1,2,0:0:0:0:
138,173,145322,6,0,P|137:212|148:251,1,80,2|0,0:3|0:0,0:0:0:0:
251,358,145687,1,10,0:3:0:0:
397,292,145870,1,2,0:0:0:0:
396,152,146053,2,0,P|356:159|319:175,1,80,2|2,0:3|0:0,0:0:0:0:
478,144,146419,2,0,P|460:109|432:81,1,80,10|0,0:3|0:0,0:0:0:0:
222,64,146785,6,0,P|230:142|282:201,1,160,6|10,0:0|0:0,0:0:0:0:
395,151,147334,2,0,P|373:119|341:94,1,80,4|2,0:0|0:0,0:0:0:0:
195,65,147700,5,10,0:0:0:0:
168,72,147791,1,8,0:0:0:0:
142,83,147883,1,10,0:0:0:0:
120,99,147974,1,4,0:3:0:0:
104,121,148065,1,4,0:3:0:0:
95,147,148157,1,4,0:3:0:0:
92,174,148248,6,0,L|97:253,1,80,4|2,0:0|0:0,0:0:0:0:
228,324,148614,2,0,L|222:244,1,80,8|2,0:0|0:0,0:0:0:0:
276,120,148980,5,8,0:0:0:0:
384,300,149163,1,10,0:0:0:0:
402,137,149346,5,8,0:0:0:0:
222,244,149529,1,10,0:0:0:0:
256,192,149712,12,4,155565,0:0:0:0:
