osu file format v9

[General]
AudioFilename: Hatsukoi Parachute.mp3
AudioLeadIn: 1996
PreviewTime: 60791
Countdown: 0
SampleSet: Soft
StackLeniency: 0.7
Mode: 0
LetterboxInBreaks: 1

[Editor]
Bookmarks: 22320
DistanceSpacing: 1.2
BeatDivisor: 4
GridSize: 8

[Metadata]
Title:Hatsukoi Parachute
Artist:Hashimoto Miyuki
Creator:S o r d a
Version:Hard
Source:Akaneiro ni Somarusaka
Tags:kshr

[Difficulty]
HPDrainRate:7
CircleSize:4
OverallDifficulty:6
ApproachRate:8
SliderMultiplier:1.6
SliderTickRate:1

[Events]
//Background and Video events
0,0,"BG.jpg"
//Break Periods
2,16343,27040
//Storyboard Layer 0 (Background)
//Storyboard Layer 1 (Fail)
//Storyboard Layer 2 (Pass)
//Storyboard Layer 3 (Foreground)
//Storyboard Sound Samples
//Background Colour Transformations
3,100,163,162,255

[TimingPoints]
614,352.941176470588,4,2,0,60,1,0
49672,-133.333333333333,4,2,0,60,0,0
55672,-100,4,2,0,60,0,0
61320,-100,4,2,0,60,0,1
65378,-200,4,2,0,60,0,1
66084,-100,4,2,0,60,0,1
83909,-100,4,2,0,60,0,0
129085,-100,4,2,0,60,0,1
151673,-100,4,2,0,60,0,0
181320,-100,4,2,0,60,0,1
215203,-100,4,2,0,60,0,0

[Colours]
Combo1 : 146,251,4
Combo2 : 255,128,64

[HitObjects]
256,192,614,1,0
16,48,1084,1,0
256,296,1672,1,0
448,48,2202,1,0
152,152,2731,1,0
115,134,2908,1,0
88,163,3084,2,0,B|48:179,14,40
87,163,4496,6,0,B|159:211|143:315,1,160
188,217,5025,1,0
169,122,5202,1,0
262,143,5378,2,0,B|302:119|350:119,1,80
392,200,5731,2,0,B|488:232|424:346,1,160
144,80,7319,6,0,B|112:120|96:160,1,80
144,80,7672,2,0,B|64:120|24:176,1,120
120,184,8202,2,0,B|200:144|240:88,1,120
256,192,8908,12,0,10143
136,144,10496,6,0,B|88:216,1,80
193,108,10849,2,0,B|241:36,1,80
424,296,11731,5,0
424,296,11908,1,0
408,200,12084,1,0
408,200,12261,1,0
336,136,12437,1,0
48,96,12966,2,0,B|16:136|16:184,1,80
48,96,13319,2,0,B|120:136|128:232,1,160
213,312,13849,2,0,B|141:272|133:176,1,160
256,192,14731,12,4,16143
104,136,27790,6,0,B|104:248,1,80
192,256,28143,2,0,B|192:344,1,80
288,312,28496,1,0
288,312,28672,1,0
440,192,29202,2,0,B|408:144|352:160,1,80
304,224,29555,2,0,B|256:248|264:288,1,80
195,217,29908,2,0,B|147:185|155:129,1,80
352,64,30613,6,0,B|432:96|392:200,1,160
232,296,31319,1,0
160,232,31496,1,0
352,192,31849,1,0
408,112,32025,1,0
320,80,32202,2,0,B|224:64|184:160,1,160
72,296,32908,1,0
392,64,33966,6,0,B|344:72|328:112,2,80
392,256,34672,2,0,B|440:248|456:208,2,80,0|0|0
255,119,35378,1,0
159,133,35555,1,0
114,217,35731,1,0
148,306,35908,2,0,B|244:322|308:274|340:194,1,240
224,48,36790,1,0
184,80,36878,1,0
152,112,36966,1,0
72,288,37319,6,0,B|160:216,1,80
224,280,37672,1,0
224,280,37761,1,0
224,280,37849,1,0
224,280,37937,1,0
224,280,38025,1,0
272,200,38202,1,0
353,149,38378,1,0
88,88,39084,6,0,B|64:136|72:184,1,80
116,249,39437,2,0,B|117:302|146:341,1,80,0|0
232,329,39790,2,0,B|284:338|328:317,1,80,0|0
365,40,40496,1,0
298,228,40672,1,0
451,112,40849,1,0
269,112,41025,1,0
417,228,41202,1,0
357,331,41378,1,0
96,72,41908,6,0,B|96:264,1,160
280,288,42613,1,0
360,232,42790,2,0,B|416:144|312:96,1,160
128,72,43496,2,0,B|64:136|120:224,1,160
252,354,44202,1,0
400,232,44555,5,0
400,136,44731,1,0
331,67,44908,1,0
195,202,45261,2,0,B|155:242|155:274,2,80
384,168,45966,1,0
384,168,46143,2,0,B|368:128|320:104,1,80
152,48,46672,5,0
112,136,46849,1,0
104,232,47025,1,0
160,312,47202,1,0
432,48,47908,2,0,B|352:96|424:152|368:216,1,160
256,192,48437,12,0,49319
248,152,49672,6,0,B|104:152|112:152,1,119.999996423721
216,264,50378,2,0,B|296:264|296:264,1,59.9999982118607
328,128,50908,1,0
184,120,51261,2,0,B|88:200,1,119.999996423721
91,196,51790,1,0
360,96,52496,5,0
416,144,52672,1,0
448,208,52849,1,0
328,280,53202,1,0
256,280,53378,2,0,B|120:280,1,119.999996423721
152,136,54084,1,0
152,136,54437,2,0,B|224:136,1,59.9999982118607
352,104,54966,1,0
376,136,55055,1,0
392,168,55143,1,0
400,200,55231,1,0
400,232,55319,1,0
208,224,55672,6,0,B|96:224,2,80
272,40,56202,2,0,B|360:96|336:184,1,160
288,256,56731,1,0
136,208,56908,2,0,B|160:144|96:80|152:24,1,160
133,50,57437,1,0
133,50,57613,1,0
320,272,57966,1,0
344,176,58143,1,0
160,136,58496,6,0,B|160:224,2,80
246,178,59025,1,0
286,265,59202,1,0
190,265,59378,2,0,B|101:265|101:265,1,80
110,265,59731,1,0
245,129,60084,2,0,B|357:129,1,80
448,280,60613,6,0,B|464:240,3,40
448,280,60966,2,0,B|408:192|320:200,1,160
248,136,61496,1,0
168,88,61672,1,0
104,160,61849,2,0,B|48:232|88:336,1,160
256,232,62555,1,0
432,160,62908,5,0
352,112,63084,1,0
256,88,63261,1,0
56,296,63790,6,0,B|16:320|0:360,1,80,0|0
120,344,64143,2,0,B|160:320|176:280,1,80,0|0
264,208,64496,1,0
331,109,64672,2,0,B|384:126|399:182,1,80
271,240,65025,2,0,B|254:293|198:308,1,80
154,200,65378,2,0,B|101:218|34:178|61:101,1,160
362,118,66437,5,0
362,118,66613,1,0
411,200,66790,1,0
411,200,66966,1,0
323,240,67143,1,0
323,240,67496,1,0
78,89,68202,6,0,B|137:174,1,80
219,142,68555,1,0
352,279,68908,1,0
392,91,69261,1,0
327,162,69437,2,0,B|274:174|261:210,1,80
176,160,69790,6,0,B|104:208|104:304,1,160
200,272,70319,2,0,B|280:224|272:128,1,160
96,56,71025,2,0,B|200:56|152:192|296:192,1,240
424,88,72261,6,0,B|448:136|448:176|448:176,1,80
360,208,72613,1,0
344,304,72790,1,0
264,256,72966,1,0
216,176,73143,2,0,B|200:80|96:56,1,160
