osu file format v14

[General]
AudioFilename: hapymaher-fd_op.mp3
AudioLeadIn: 2000
PreviewTime: 66581
Countdown: 0
SampleSet: Soft
StackLeniency: 0.7
Mode: 0
LetterboxInBreaks: 0
WidescreenStoryboard: 0

[Editor]
DistanceSpacing: 1
BeatDivisor: 4
GridSize: 4
TimelineZoom: 1

[Metadata]
Title:Gensou Roukaku
TitleUnicode:幻想楼閣
Artist:Hashimoto Miyuki
ArtistUnicode:橋本みゆき
Creator:Sheryl
Version:Normal
Source:ハピメア -Fragmentation Dream-
Tags:hapymaher fd Purplesoftware opening Maia visual novel eroge
BeatmapID:377292
BeatmapSetID:153518

[Difficulty]
HPDrainRate:3
CircleSize:3
OverallDifficulty:3
ApproachRate:4
SliderMultiplier:1
SliderTickRate:1

[Events]
//Background and Video events
0,0,"hpmr_FD_BG.jpg",0,0
//Break Periods
//Storyboard Layer 0 (Background)
//Storyboard Layer 1 (Fail)
//Storyboard Layer 2 (Pass)
//Storyboard Layer 3 (Foreground)
//Storyboard Sound Samples

[TimingPoints]
1205,500,4,2,1,50,1,0
9205,-100,4,2,1,60,0,0
17205,-100,4,2,1,70,0,1
33205,-100,4,2,1,60,0,0
33455,-100,4,2,1,50,0,0
61205,-100,4,2,1,40,0,0
62205,-100,4,2,1,50,0,0
63205,-100,4,2,1,60,0,0
66705,-100,4,2,1,60,0,0
67205,-100,4,2,1,70,0,1
81705,-100,4,2,3,60,0,1
81830,-100,4,2,1,70,0,1
103205,-100,4,2,1,50,0,0
103705,-100,4,2,2,40,0,0
103830,-100,4,2,1,50,0,0
105705,-100,4,2,2,40,0,0
105830,-100,4,2,1,50,0,0
111705,-100,4,2,2,40,0,0
111830,-100,4,2,1,50,0,0
118705,-100,4,2,2,40,0,0
118830,-100,4,2,1,50,0,0
119705,-100,4,2,1,30,0,0
120080,-100,4,2,1,20,0,0
123205,-100,4,2,1,10,0,0

[Colours]
Combo1 : 255,159,113
Combo2 : 255,140,198
Combo3 : 255,68,68

[HitObjects]
312,92,1205,6,0,P|360:80|408:92,1,99.9999999999999,2|0,0:0|0:0,0:0:0:0:
360,180,2205,2,0,P|311:192|263:179,1,99.9999999999999
172,144,3205,1,2,0:0:0:0:
76,164,3705,1,0,0:0:0:0:
28,252,4205,2,0,P|80:264|128:248,1,100
216,284,5205,6,0,B|264:304|308:248|372:288,1,150,2|0,0:0|0:0,0:0:0:0:
408,300,6205,2,0,P|456:272|484:232,1,99.9999999999999,2|0,0:0|0:0,0:0:0:0:
436,148,7205,2,0,P|432:100|436:48,1,99.9999999999999,2|0,0:0|0:0,0:0:0:0:
336,48,8205,2,0,P|339:97|335:147,1,99.9999999999999,2|0,0:0|0:0,0:0:0:0:
244,188,9205,6,0,P|204:180|168:188,2,74.9999999999999,8|8|0,0:0|0:0|0:0,0:0:0:0:
288,212,10205,2,0,P|336:228|388:212,1,99.9999999999999,0|0,0:0|3:0,0:0:0:0:
448,140,11205,2,0,P|472:168|480:212,2,74.9999999999999,8|8|0,0:0|0:0|0:0,0:0:0:0:
404,116,12205,2,0,L|304:100,1,99.9999999999999,0|0,0:0|3:0,0:0:0:0:
208,88,13205,6,0,P|192:54|192:16,2,75,8|0|0,0:0|0:0|0:0,0:0:0:0:
236,128,14205,2,0,L|296:216,1,100
288,312,15205,6,0,P|337:319|386:311,2,99.9999999999999,2|2|2,0:0|0:0|0:0,0:0:0:0:
204,256,16705,1,2,0:0:0:0:
124,196,17205,5,4,0:0:0:0:
96,100,17705,1,0,1:0:0:0:
196,116,18205,2,0,P|248:120|304:100,1,100,0|0,0:0|1:0,0:0:0:0:
328,68,18955,1,0,0:0:0:0:
364,32,19205,2,0,L|440:112,1,100,2|0,0:0|1:0,0:0:0:0:
492,184,20205,2,0,L|472:240,1,50,2|0,0:0|0:0,0:0:0:0:
440,268,20705,2,0,L|400:304,1,50,2|0,0:0|0:0,0:0:0:0:
360,328,21205,6,0,P|312:328|260:300,1,100,2|0,0:0|1:0,0:0:0:0:
208,224,22205,1,0,0:0:0:0:
160,136,22705,1,0,1:0:0:0:
112,224,23205,2,0,P|56:236|8:220,1,99.9999999999999,2|0,0:0|1:0,0:0:0:0:
68,140,24205,2,0,L|68:84,1,50,2|0,0:0|0:0,0:0:0:0:
104,56,24705,2,0,L|156:32,1,50,0|0,1:0|0:0,0:0:0:0:
200,48,25205,6,0,P|244:56|312:40,1,100,4|0,0:0|1:0,0:0:0:0:
396,24,26205,2,0,L|476:96,1,100,0|0,0:0|1:0,0:0:0:0:
468,192,27205,1,2,0:0:0:0:
384,248,27705,1,0,1:0:0:0:
304,308,28205,2,0,L|304:372,2,50,0|0|0,0:0|0:0|1:0,0:0:0:0:
272,268,28955,1,0,0:0:0:0:
236,232,29205,6,0,P|192:216|140:220,1,100,4|0,0:0|1:0,0:0:0:0:
52,272,30205,2,0,P|36:228|52:172,1,100,2|0,0:0|1:0,0:0:0:0:
128,120,31205,2,0,L|240:96,1,100,2|0,0:0|1:0,0:0:0:0:
192,192,32205,1,0,1:0:0:0:
156,284,32705,1,0,1:0:0:0:
252,308,33205,5,4,0:0:0:0:
288,216,33705,2,0,P|336:208|388:220,1,99.9999999999999,0|0,1:0|0:0,0:0:0:0:
460,284,34705,2,0,P|480:240|476:188,1,100,0|0,1:0|0:0,0:0:0:0:
412,112,35705,1,0,1:0:0:0:
316,136,36205,1,0,0:0:0:0:
232,80,36705,2,0,P|184:60|132:64,1,99.9999999999999,0|0,1:0|0:0,0:0:0:0:
172,156,37705,5,0,1:0:0:0:
228,240,38205,2,0,P|236:288|228:344,1,99.9999999999999,0|0,0:0|1:0,0:0:0:0:
128,340,39205,2,0,P|120:292|128:236,1,99.9999999999999,0|0,0:0|1:0,0:0:0:0:
172,156,40205,1,0,0:0:0:0:
240,88,40705,1,0,1:0:0:0:
336,68,41205,5,0,0:0:0:0:
304,164,41705,2,0,P|296:216|308:264,1,99.9999999999999,0|0,1:0|0:0,0:0:0:0:
368,340,42705,2,0,P|328:360|272:356,1,100,0|0,1:0|0:0,0:0:0:0:
184,312,43705,1,0,1:0:0:0:
92,272,44205,2,0,L|56:308,2,50,0|0|0,0:0|0:0|1:0,0:0:0:0:
92,172,45205,5,0,0:0:0:0:
92,72,45705,2,0,P|144:88|180:128,1,100,0|0,1:0|0:0,0:0:0:0:
216,212,46705,1,0,1:0:0:0:
292,280,47205,2,0,P|340:292|388:280,1,99.9999999999999,0|0,0:0|1:0,0:0:0:0:
448,200,48205,1,0,0:0:0:0:
428,104,48705,2,0,L|380:68,1,50
340,92,49205,6,0,P|291:103|243:92,1,99.9999999999999,4|0,0:0|1:0,0:0:0:0:
152,48,50205,2,0,P|103:37|56:48,1,99.9999999999999,0|0,0:0|1:0,0:0:0:0:
104,136,51205,5,0,0:0:0:0:
128,232,51705,1,0,1:0:0:0:
148,332,52205,2,0,P|192:340|252:332,1,99.9999999999999,0|0,0:0|1:0,0:0:0:0:
292,312,52955,1,0,0:0:0:0:
336,288,53205,6,0,L|414:226,1,100,0|0,0:0|1:0,0:0:0:0:
484,152,54205,2,0,P|492:108|472:48,1,100,0|0,0:0|1:0,0:0:0:0:
396,112,55205,1,0,0:0:0:0:
304,148,55705,1,0,1:0:0:0:
216,200,56205,2,0,P|212:252|232:300,1,100,0|0,0:0|1:0,0:0:0:0:
276,276,56955,1,0,0:0:0:0:
320,256,57205,6,0,P|368:247|417:259,2,99.9999999999999,4|0|0,0:0|1:0|0:0,0:0:0:0:
232,304,58705,1,0,1:0:0:0:
144,352,59205,2,0,P|95:362|47:350,2,99.9999999999999,0|0|0,0:0|1:0|0:0,0:0:0:0:
100,264,60705,1,0,1:0:0:0:
48,180,61205,5,4,0:0:0:0:
112,104,61705,1,0,1:0:0:0:
200,148,62205,2,0,P|252:152|304:136,1,100,0|0,0:0|1:0,0:0:0:0:
392,100,63205,5,4,0:0:0:0:
416,196,63705,1,0,1:0:0:0:
488,268,64205,2,0,P|516:220|516:176,1,99.9999999999999,4|0,0:0|1:0,0:0:0:0:
436,116,65205,6,0,L|356:86,1,75,10|10,0:0|0:0,0:0:0:0:
291,99,65955,2,0,L|200:119,1,75,10|10,0:0|0:0,0:0:0:0:
163,167,66705,1,4,0:0:0:0:
88,233,67205,6,0,P|124:257|184:265,1,99.9999999999999,4|0,0:0|1:0,0:0:0:0:
228,248,67955,1,0,0:0:0:0:
269,220,68205,2,0,P|318:226|360:252,1,99.9999999999999,0|0,0:0|1:0,0:0:0:0:
410,339,69205,2,0,P|446:303|458:255,1,99.9999999999999,0|0,0:0|1:0,0:0:0:0:
444,208,69955,1,0,0:0:0:0:
420,164,70205,2,0,L|420:60,1,100,0|0,0:0|1:0,0:0:0:0:
324,88,71205,5,0,0:0:0:0:
232,124,71705,2,0,P|184:132|132:120,1,100,0|0,1:0|0:0,0:0:0:0:
40,88,72705,2,0,P|20:140|28:184,1,99.9999999999999,0|0,1:0|0:0,0:0:0:0:
120,220,73705,1,0,1:0:0:0:
96,316,74205,1,0,0:0:0:0:
192,292,74705,2,0,L|248:316,1,50,0|0,1:0|0:0,0:0:0:0:
284,332,75205,6,0,P|332:340|392:328,1,99.9999999999999,4|0,0:0|1:0,0:0:0:0:
440,248,76205,2,0,L|476:144,1,100,0|0,0:0|1:0,0:0:0:0:
388,100,77205,1,0,0:0:0:0:
292,128,77705,1,0,1:0:0:0:
200,84,78205,2,0,P|152:72|96:84,1,99.9999999999999,0|0,0:0|1:0,0:0:0:0:
68,116,78955,2,0,L|36:160,1,50,0|0,0:0|0:0,0:0:0:0:
84,244,79705,6,0,L|84:348,2,99.9999999999999,0|0|0,1:0|0:0|1:0,0:0:0:0:
136,160,81205,2,0,B|172:120|172:120|204:172|268:164,1,150,2|0,0:0|0:0,0:0:0:0:
292,136,82205,2,0,L|364:64,1,100,2|0,0:0|1:0,0:0:0:0:
452,16,83205,6,0,P|464:68|448:116,1,99.9999999999999,4|0,0:0|1:0,0:0:0:0:
368,168,84205,2,0,P|354:215|366:263,1,99.9999999999999,0|0,0:0|1:0,0:0:0:0:
424,344,85205,1,0,0:0:0:0:
376,364,85455,1,0,0:0:0:0:
328,360,85705,2,0,L|228:324,1,100,0|0,1:0|0:0,0:0:0:0:
152,272,86705,2,0,P|120:232|112:176,1,100,0|0,1:0|0:0,0:0:0:0:
124,136,87455,5,0,0:0:0:0:
168,112,87705,2,0,P|220:120|276:112,1,99.9999999999999,0|0,1:0|0:0,0:0:0:0:
348,56,88705,2,0,P|368:108|356:168,1,100,0|0,1:0|0:0,0:0:0:0:
300,228,89705,1,0,1:0:0:0:
220,292,90205,1,0,0:0:0:0:
128,256,90705,2,0,P|79:267|27:255,1,99.9999999999999,0|4,1:0|0:0,0:0:0:0:
77,167,91705,6,0,P|124:154|176:166,1,99.9999999999999,0|0,1:0|0:0,0:0:0:0:
228,248,92705,1,0,1:0:0:0:
316,300,93205,2,0,P|365:300|410:278,1,99.9999999999999,0|0,0:0|1:0,0:0:0:0:
440,236,93955,1,0,0:0:0:0:
456,192,94205,2,0,L|460:80,1,100,0|0,0:0|1:0,0:0:0:0:
360,104,95205,6,0,P|308:112|260:104,1,99.9999999999999,0|0,0:0|1:0,0:0:0:0:
216,88,95955,1,0,0:0:0:0:
168,68,96205,2,0,P|118:60|69:68,1,99.9999999999999,0|0,0:0|1:0,0:0:0:0:
28,96,96955,1,0,0:0:0:0:
0,136,97205,2,0,P|-8:188|0:236,2,99.9999999999999,0|0|0,0:0|1:0|0:0,0:0:0:0:
88,184,98705,1,0,1:0:0:0:
172,128,99205,6,0,P|228:120|272:132,1,99.9999999999999,10|10,0:0|0:0,0:0:0:0:
316,152,99955,2,0,P|364:163|413:154,1,99.9999999999999,10|10,0:0|0:0,0:0:0:0:
448,120,100705,1,0,0:0:0:0:
368,60,101205,6,0,P|332:48|288:52,2,74.9999999999999,0|0|0,1:0|1:0|1:0,0:0:0:0:
408,88,102205,1,0,1:0:0:0:
456,176,102705,2,0,P|456:200|452:232,1,50,0|0,3:0|3:0,0:0:0:0:
420,264,103205,6,0,P|332:304|240:264,1,200,2|0,0:0|0:0,0:0:0:0:
176,192,104705,1,8,0:0:0:0:
148,96,105205,2,0,P|236:56|328:96,1,200,2|0,0:0|0:0,0:0:0:0:
388,176,106705,1,8,0:0:0:0:
320,248,107205,6,0,P|284:284|232:292,1,99.9999999999999,2|8,0:0|0:0,0:0:0:0:
236,192,108205,2,0,P|187:201|153:236,1,99.9999999999999,0|8,0:0|0:0,0:0:0:0:
132,332,109205,2,0,P|80:308|56:272,1,99.9999999999999,0|8,0:0|0:0,0:0:0:0:
60,172,110205,1,0,0:0:0:0:
156,140,110705,1,8,0:0:0:0:
140,40,111205,6,0,P|228:68|252:168,1,200,4|0,0:0|0:0,0:0:0:0:
320,236,112705,1,8,0:0:0:0:
416,264,113205,1,0,0:0:0:0:
340,332,113705,1,8,0:0:0:0:
244,304,114205,2,0,P|220:260|220:212,1,99.9999999999999,0|8,0:0|0:0,0:0:0:0:
280,132,115205,6,0,P|236:112|184:116,1,99.9999999999999,2|8,0:0|0:0,0:0:0:0:
104,172,116205,2,0,L|104:276,1,99.9999999999999,2|8,0:0|0:0,0:0:0:0:
188,324,117205,2,0,P|232:344|284:340,1,99.9999999999999,2|8,0:0|0:0,0:0:0:0:
372,300,118205,2,0,B|424:256|360:184|432:136,1,175,2|0,0:0|0:0,0:0:0:0:
256,192,119705,12,2,123205,0:0:0:0:
