osu file format v14

[General]
AudioFilename: hapymaher-fd_op.mp3
AudioLeadIn: 2000
PreviewTime: 66581
Countdown: 0
SampleSet: Soft
StackLeniency: 0.7
Mode: 0
LetterboxInBreaks: 0
WidescreenStoryboard: 1

[Editor]
DistanceSpacing: 1.2
BeatDivisor: 4
GridSize: 4
TimelineZoom: 1

[Metadata]
Title:Gensou Roukaku
TitleUnicode:幻想楼閣
Artist:Hashimoto Miyuki
ArtistUnicode:橋本みゆき
Creator:Sheryl
Version:Insane
Source:ハピメア -Fragmentation Dream-
Tags:hapymaher fd Purplesoftware opening Maia visual novel eroge
BeatmapID:602663
BeatmapSetID:153518

[Difficulty]
HPDrainRate:6
CircleSize:4.3
OverallDifficulty:7.5
ApproachRate:8.5
SliderMultiplier:2
SliderTickRate:1

[Events]
//Background and Video events
0,0,"hpmr_FD_BG.jpg",0,0
//Break Periods
//Storyboard Layer 0 (Background)
//Storyboard Layer 1 (Fail)
//Storyboard Layer 2 (Pass)
//Storyboard Layer 3 (Foreground)
//Storyboard Sound Samples

[TimingPoints]
1205,500,4,2,1,50,1,0
9205,-100,4,2,1,60,0,0
17205,-83.3333333333333,4,2,1,70,0,1
33205,-100,4,2,1,60,0,0
33455,-100,4,2,1,50,0,0
61205,-100,4,2,1,40,0,0
62205,-100,4,2,1,50,0,0
63205,-100,4,2,1,60,0,0
66705,-66.6666666666667,4,2,1,60,0,0
67205,-83.3333333333333,4,2,1,70,0,1
103205,-100,4,2,1,50,0,0
119705,-100,4,2,1,30,0,0
120080,-100,4,2,1,20,0,0
123205,-100,4,2,1,10,0,0

[Colours]
Combo1 : 255,159,113
Combo2 : 255,140,198
Combo3 : 255,68,68

[HitObjects]
120,288,1205,6,0,P|112:244|128:188,1,100,2|0,0:0|0:0,0:0:0:0:
160,168,1580,2,0,L|256:120,1,100
280,96,1955,1,0,0:0:0:0:
280,96,2080,1,0,0:0:0:0:
280,96,2205,2,0,L|332:128,1,50,2|0,0:0|0:0,0:0:0:0:
436,240,2455,2,0,L|393:213,1,50,2|0,0:0|0:0,0:0:0:0:
264,180,2705,2,0,P|236:208|224:272,1,100,2|0,0:0|0:0,0:0:0:0:
344,268,3205,5,2,0:0:0:0:
344,268,3455,1,0,0:0:0:0:
264,180,3705,2,0,L|192:100,1,100
88,56,4205,2,0,P|44:68|8:108,1,100,2|2,0:0|0:0,0:0:0:0:
16,148,4580,1,2,0:0:0:0:
28,188,4705,2,0,L|-4:296,1,100,2|0,0:0|0:0,0:0:0:0:
168,268,5205,6,0,P|232:248|364:276,1,200,2|0,0:0|0:0,0:0:0:0:
464,332,5955,1,0,0:0:0:0:
464,332,6080,1,0,0:0:0:0:
464,332,6205,2,0,P|480:280|468:224,2,100,2|0|0,0:0|0:0|0:0,0:0:0:0:
359,273,6955,5,0,0:0:0:0:
328,248,7080,1,0,0:0:0:0:
300,220,7205,2,0,L|276:112,1,100,2|0,0:0|0:0,0:0:0:0:
192,36,7705,2,0,L|170:133,1,100,2|0,0:0|0:0,0:0:0:0:
156,172,8080,1,0,0:0:0:0:
140,208,8205,2,0,P|96:228|40:224,1,100,2|0,0:0|0:0,0:0:0:0:
72,108,8705,5,0,0:0:0:0:
72,108,8955,1,0,0:0:0:0:
128,288,9205,2,0,P|176:312|228:312,1,100,8|0,0:0|0:0,0:0:0:0:
260,296,9580,1,8,0:0:0:0:
292,272,9705,1,0,0:0:0:0:
400,220,9955,2,0,L|436:256,1,50
428,144,10205,2,0,L|464:180,1,50
464,72,10455,2,0,L|500:108,1,50
332,84,10705,2,0,L|224:112,1,100,0|0,3:0|0:0,0:0:0:0:
92,176,11205,5,8,0:0:0:0:
52,64,11455,1,0,0:0:0:0:
52,64,11580,1,8,0:0:0:0:
52,64,11705,1,0,0:0:0:0:
176,176,11955,1,0,0:0:0:0:
156,332,12205,2,0,P|224:328|256:304,1,100
272,280,12580,2,0,L|404:316,1,100
408,300,12955,1,0,0:0:0:0:
480,148,13205,5,8,0:0:0:0:
304,80,13455,1,0,0:0:0:0:
304,80,13580,1,8,0:0:0:0:
304,80,13705,1,0,0:0:0:0:
392,164,13955,1,0,0:0:0:0:
204,52,14205,5,8,0:0:0:0:
264,192,14455,1,2,0:0:0:0:
264,192,14580,1,8,0:0:0:0:
264,192,14705,1,2,0:0:0:0:
304,80,14955,1,2,0:0:0:0:
132,176,15205,6,0,L|88:204,1,50,10|0,0:0|0:0,0:0:0:0:
72,328,15455,2,0,L|114:301,1,50,10|0,0:0|0:0,0:0:0:0:
264,192,15705,2,0,L|306:218,1,50,10|0,0:0|0:0,0:0:0:0:
384,352,15955,2,0,L|341:325,1,50,10|0,0:0|0:0,0:0:0:0:
200,276,16205,5,2,0:0:0:0:
184,228,16330,1,0,0:0:0:0:
168,180,16455,1,0,0:0:0:0:
156,132,16580,1,0,0:0:0:0:
144,84,16705,2,0,L|208:92,1,50,2|0,0:0|0:0,0:0:0:0:
304,132,16955,2,0,L|353:138,1,50,2|0,0:0|0:0,0:0:0:0:
488,200,17205,6,0,P|488:256|452:320,1,119.999996337891,4|0,0:0|0:0,0:0:0:0:
412,300,17580,1,0,0:0:0:0:
368,284,17705,2,0,P|308:276|248:292,1,119.999996337891,0|0,1:0|0:0,0:0:0:0:
80,340,18205,2,0,L|64:280,1,59.9999981689454,0|0,0:0|0:0,0:0:0:0:
136,236,18455,2,0,L|152:176,1,59.9999981689454,0|0,0:0|0:0,0:0:0:0:
112,84,18705,2,0,P|168:76|228:108,1,119.999996337891,0|0,1:2|0:0,0:0:0:0:
412,300,19205,6,0,P|456:260|468:192,1,119.999996337891,2|0,0:0|0:0,0:0:0:0:
448,160,19580,1,0,0:0:0:0:
448,160,19705,1,0,1:0:0:0:
332,72,19955,1,0,0:0:0:0:
188,76,20205,6,0,L|128:108,1,59.9999981689454,2|0,0:0|0:0,0:0:0:0:
40,224,20455,2,0,L|92:195,1,59.9999981689454,2|0,0:0|0:0,0:0:0:0:
228,176,20705,2,0,L|280:205,1,59.9999981689454,2|0,1:2|0:0,0:0:0:0:
364,336,20955,2,0,L|312:307,1,59.9999981689454,2|0,0:0|0:0,0:0:0:0:
128,240,21205,6,0,P|108:172|124:120,1,119.999996337891,2|0,0:0|0:0,0:0:0:0:
156,92,21580,1,0,0:0:0:0:
200,72,21705,2,0,L|320:64,1,119.999996337891,0|0,1:0|0:0,0:0:0:0:
464,48,22205,1,0,0:0:0:0:
472,96,22330,1,0,0:0:0:0:
480,144,22455,1,0,0:0:0:0:
488,192,22580,1,0,0:0:0:0:
496,240,22705,1,0,1:0:0:0:
356,268,22955,2,0,L|304:296,1,59.9999981689454,2|0,0:0|0:0,0:0:0:0:
232,316,23205,6,0,P|176:292|152:232,1,119.999996337891,2|0,0:0|0:0,0:0:0:0:
264,76,23705,2,0,L|264:200,1,119.999996337891,2|0,1:2|0:0,0:0:0:0:
140,272,24205,1,2,0:0:0:0:
92,272,24330,1,0,0:0:0:0:
48,252,24455,1,0,0:0:0:0:
12,220,24580,1,0,0:0:0:0:
0,172,24705,2,0,L|28:112,1,59.9999981689454,2|0,1:2|0:0,0:0:0:0:
224,36,24955,2,0,L|198:90,1,59.9999981689454,2|0,0:0|0:0,0:0:0:0:
216,300,25205,6,0,P|264:328|340:320,1,119.999996337891,4|0,0:0|0:0,0:0:0:0:
364,296,25580,1,0,0:0:0:0:
396,260,25705,2,0,L|484:348,1,119.999996337891,0|0,1:0|0:0,0:0:0:0:
448,172,26205,1,0,0:0:0:0:
424,128,26330,1,0,0:0:0:0:
388,96,26455,1,0,0:0:0:0:
344,80,26580,1,0,0:0:0:0:
296,92,26705,2,0,L|168:120,1,119.999996337891,0|0,1:0|0:0,0:0:0:0:
8,192,27205,6,0,P|40:240|96:264,1,119.999996337891,2|0,0:0|0:0,0:0:0:0:
140,244,27580,1,0,0:0:0:0:
140,244,27705,1,0,1:0:0:0:
156,100,27955,1,0,0:0:0:0:
296,92,28205,2,0,L|356:120,1,59.9999981689454,2|0,0:0|0:0,0:0:0:0:
476,192,28455,2,0,L|421:217,1,59.9999981689454,2|0,0:0|0:0,0:0:0:0:
316,320,28705,2,0,L|370:345,2,59.9999981689454,2|0|0,1:2|0:0|0:0,0:0:0:0:
288,280,29080,1,0,0:0:0:0:
256,244,29205,6,0,P|192:252|144:288,1,119.999996337891,4|0,0:0|0:0,0:0:0:0:
128,328,29580,1,0,0:0:0:0:
128,328,29705,1,0,1:0:0:0:
48,208,29955,1,0,0:0:0:0:
48,208,30080,1,0,0:0:0:0:
48,208,30205,6,0,L|88:152,1,59.9999981689454,2|0,0:0|0:0,0:0:0:0:
156,152,30455,2,0,L|196:96,1,59.9999981689454,2|0,0:0|0:0,0:0:0:0:
260,80,30705,1,2,1:2:0:0:
396,28,30955,2,0,L|424:80,1,59.9999981689454
476,180,31205,2,0,L|428:228,1,59.9999981689454,2|0,0:0|0:0,0:0:0:0:
360,312,31455,1,0,0:0:0:0:
360,312,31580,1,0,0:0:0:0:
360,312,31705,2,0,L|408:360,1,59.9999981689454,0|0,1:0|0:0,0:0:0:0:
268,248,31955,2,0,L|225:290,1,59.9999981689454
80,336,32205,6,0,L|122:293,1,59.9999981689454,2|0,0:0|0:0,0:0:0:0:
192,152,32455,1,0,0:0:0:0:
192,152,32580,1,0,0:0:0:0:
192,152,32705,2,0,L|192:72,1,59.9999981689454,0|0,1:0|0:0,0:0:0:0:
316,36,32955,1,0,0:0:0:0:
316,36,33080,1,0,0:0:0:0:
316,36,33205,1,4,0:0:0:0:
316,36,33455,6,0,L|368:72,1,50
388,88,33705,2,0,P|396:132|376:192,1,100,0|0,1:0|0:0,0:0:0:0:
308,276,34205,2,0,L|212:328,1,100,8|0,0:0|0:0,0:0:0:0:
180,316,34580,1,0,0:0:0:0:
180,316,34705,1,0,1:0:0:0:
32,272,34955,1,0,0:0:0:0:
32,272,35080,1,0,0:0:0:0:
32,272,35205,6,0,P|20:216|36:168,1,100,8|0,0:0|0:0,0:0:0:0:
196,60,35705,1,0,1:0:0:0:
124,156,35955,1,0,0:0:0:0:
308,60,36205,1,8,0:0:0:0:
248,164,36455,1,0,0:0:0:0:
264,200,36580,1,0,0:0:0:0:
292,228,36705,1,0,1:0:0:0:
328,244,36830,1,0,0:0:0:0:
368,244,36955,2,0,L|388:308,2,50,0|0|8,0:0|0:0|0:0,0:0:0:0:
364,124,37455,5,0,0:0:0:0:
364,124,37580,1,0,0:0:0:0:
364,124,37705,2,0,L|408:24,1,100,0|0,1:0|0:0,0:0:0:0:
484,120,38205,1,8,0:0:0:0:
288,68,38455,2,0,L|236:92,1,50
204,104,38705,2,0,P|148:104|104:72,1,100,0|0,1:0|0:0,0:0:0:0:
92,48,39080,1,0,0:0:0:0:
68,16,39205,2,0,L|28:120,1,100,8|0,0:0|0:0,0:0:0:0:
12,228,39705,6,0,P|60:244|120:236,1,100,0|0,1:0|0:0,0:0:0:0:
244,204,40205,1,8,0:0:0:0:
256,240,40330,1,0,0:0:0:0:
268,276,40455,1,0,0:0:0:0:
280,312,40580,1,0,0:0:0:0:
292,352,40705,2,0,L|348:316,1,50,0|0,1:0|0:0,0:0:0:0:
440,216,40955,2,0,L|397:243,1,50
496,132,41205,1,8,0:0:0:0:
400,44,41455,5,0,0:0:0:0:
400,44,41580,1,0,0:0:0:0:
400,44,41705,1,0,1:0:0:0:
496,132,41955,1,0,0:0:0:0:
300,40,42205,2,0,P|248:40|200:64,1,100,8|0,0:0|0:0,0:0:0:0:
180,92,42580,1,0,0:0:0:0:
180,92,42705,1,0,1:0:0:0:
24,104,42955,2,0,L|44:156,1,50
56,188,43205,6,0,L|56:296,1,100,8|0,0:0|0:0,0:0:0:0:
96,280,43580,1,0,0:0:0:0:
136,268,43705,2,0,P|188:264|236:284,1,100,0|0,1:0|0:0,0:0:0:0:
332,344,44205,1,8,0:0:0:0:
372,340,44330,1,0,0:0:0:0:
408,324,44455,1,0,0:0:0:0:
440,300,44580,1,0,0:0:0:0:
460,264,44705,2,0,L|472:216,1,50,0|0,1:0|0:0,0:0:0:0:
436,88,44955,2,0,L|424:136,2,50,0|0|8,0:0|0:0|0:0,0:0:0:0:
280,180,45455,5,0,0:0:0:0:
280,180,45580,1,0,0:0:0:0:
280,180,45705,2,0,P|232:180|184:148,1,100,0|0,1:0|0:0,0:0:0:0:
180,116,46080,1,0,0:0:0:0:
168,76,46205,2,0,L|88:152,1,100,8|0,0:0|0:0,0:0:0:0:
56,160,46580,1,0,0:0:0:0:
16,172,46705,1,0,1:0:0:0:
112,296,46955,6,0,L|168:320,1,50
196,328,47205,2,0,P|240:292|256:248,1,100,8|0,0:0|0:0,0:0:0:0:
284,224,47580,1,0,0:0:0:0:
316,200,47705,2,0,L|416:224,1,100,0|0,1:0|0:0,0:0:0:0:
412,72,48205,1,8,0:0:0:0:
376,52,48330,1,0,0:0:0:0:
336,44,48455,1,0,0:0:0:0:
296,48,48580,1,0,0:0:0:0:
260,64,48705,2,0,L|204:32,1,50,0|0,1:0|0:0,0:0:0:0:
64,48,48955,2,0,L|107:72,1,50
192,168,49205,6,0,P|180:220|144:256,1,100,12|0,0:0|0:0,0:0:0:0:
108,252,49580,2,0,L|56:240,1,50,0|0,0:0|1:0,0:0:0:0:
32,272,49830,1,0,0:0:0:0:
48,308,49955,1,0,0:0:0:0:
80,332,50080,2,0,L|128:344,2,50,0|8|0,0:0|0:0|0:0,0:0:0:0:
208,316,50455,2,0,L|256:304,1,50,0|0,0:0|0:0,0:0:0:0:
368,272,50705,2,0,L|428:184,1,100,0|0,1:0|0:0,0:0:0:0:
112,40,51205,6,0,P|60:48|12:88,1,100,8|0,0:0|0:0,0:0:0:0:
28,116,51580,1,0,0:0:0:0:
40,156,51705,2,0,L|60:204,2,50,0|0|0,1:0|0:0|0:0,0:0:0:0:
200,132,52205,1,8,0:0:0:0:
236,116,52330,1,0,0:0:0:0:
272,96,52455,1,0,0:0:0:0:
308,76,52580,1,0,0:0:0:0:
340,56,52705,1,0,1:0:0:0:
480,24,52955,5,0,0:0:0:0:
480,24,53080,1,0,0:0:0:0:
480,24,53205,2,0,P|488:72|472:124,1,100,8|0,0:0|0:0,0:0:0:0:
436,128,53580,1,0,0:0:0:0:
404,148,53705,2,0,L|384:204,1,50,0|0,1:0|0:0,0:0:0:0:
400,348,53955,2,0,L|416:300,1,50
316,160,54205,2,0,L|212:188,1,100,8|0,0:0|0:0,0:0:0:0:
48,264,54705,2,0,P|52:312|84:360,1,100,0|0,1:0|0:0,0:0:0:0:
120,56,55205,6,0,L|32:112,1,100,8|0,0:0|0:0,0:0:0:0:
44,148,55580,1,0,0:0:0:0:
60,184,55705,2,0,L|108:216,1,50,2|0,1:2|0:0,0:0:0:0:
272,264,55955,2,0,L|230:236,1,50,2|0,0:0|0:0,0:0:0:0:
404,300,56205,2,0,L|445:272,1,50,10|0,0:0|0:0,0:0:0:0:
512,116,56455,2,0,L|470:143,1,50,2|0,0:0|0:0,0:0:0:0:
316,180,56705,1,0,1:0:0:0:
288,152,56830,1,0,0:0:0:0:
268,116,56955,1,0,0:0:0:0:
268,76,57080,1,0,0:0:0:0:
288,40,57205,6,0,L|160:32,1,100,12|0,0:0|0:0,0:0:0:0:
152,56,57580,2,0,L|112:88,1,50,0|0,0:0|1:0,0:0:0:0:
28,216,57830,2,0,L|67:184,2,50,0|0|0,0:0|0:0|0:0,0:0:0:0:
4,328,58205,2,0,P|56:328|100:304,1,100,8|0,0:0|0:0,0:0:0:0:
120,272,58580,1,0,0:0:0:0:
140,240,58705,2,0,L|244:296,1,100,0|0,1:0|0:0,0:0:0:0:
400,352,59205,6,0,P|440:320|456:268,1,100,8|0,0:0|0:0,0:0:0:0:
440,240,59580,1,0,0:0:0:0:
424,204,59705,2,0,L|424:148,2,50,0|0|0,1:0|0:0|0:0,0:0:0:0:
292,48,60205,1,8,0:0:0:0:
256,64,60330,1,0,0:0:0:0:
220,84,60455,1,0,0:0:0:0:
184,100,60580,1,0,0:0:0:0:
148,116,60705,1,0,1:0:0:0:
24,224,60955,1,0,0:0:0:0:
24,224,61080,1,0,0:0:0:0:
24,224,61205,6,0,L|24:328,1,100,4|0,1:2|0:0,0:0:0:0:
64,312,61580,1,0,0:0:0:0:
100,296,61705,1,8,0:0:0:0:
252,220,61955,1,0,0:0:0:0:
252,220,62080,1,0,0:0:0:0:
252,220,62205,6,0,P|304:232|352:272,1,100,0|0,1:0|0:0,0:0:0:0:
348,300,62580,2,0,L|404:256,1,50,0|0,0:0|1:0,0:0:0:0:
432,88,62955,2,0,L|432:32,1,50
432,88,63205,6,0,P|384:108|328:104,1,100,4|0,0:0|0:0,0:0:0:0:
304,84,63580,1,0,0:0:0:0:
272,60,63705,2,0,L|224:72,1,50,0|0,1:0|0:0,0:0:0:0:
92,140,63955,2,0,L|140:128,1,50
0,204,64205,2,0,L|20:272,1,50,4|0,0:0|0:0,0:0:0:0:
132,356,64455,2,0,L|117:308,1,50
92,140,64705,2,0,L|160:164,1,50,0|0,1:0|0:0,0:0:0:0:
284,288,64955,2,0,L|236:271,1,50
408,256,65205,6,0,L|408:200,1,50,10|10,0:0|0:0,0:0:0:0:
432,176,65455,1,10,0:0:0:0:
432,176,65580,1,10,0:0:0:0:
152,40,65955,2,0,L|152:100,1,50,10|10,0:0|0:0,0:0:0:0:
124,116,66205,1,10,0:0:0:0:
124,116,66330,1,10,0:0:0:0:
28,340,66705,6,0,L|188:356,1,150.000005722046,4|0,1:0|0:0,0:0:0:0:
396,336,67205,6,0,P|432:284|436:224,1,119.999996337891,4|0,0:0|0:0,0:0:0:0:
408,192,67580,1,0,0:0:0:0:
380,152,67705,2,0,L|380:28,1,119.999996337891,0|0,1:0|0:0,0:0:0:0:
332,40,68080,1,0,0:0:0:0:
288,60,68205,2,0,L|232:92,1,59.9999981689454,0|0,1:0|0:0,0:0:0:0:
100,160,68455,2,0,L|83:222,1,59.9999981689454
52,352,68705,1,0,1:0:0:0:
192,200,68955,5,0,0:0:0:0:
192,200,69080,1,0,0:0:0:0:
192,200,69205,2,0,P|248:176|320:188,1,119.999996337891,0|0,1:0|0:0,0:0:0:0:
432,320,69705,1,0,1:0:0:0:
264,272,69955,1,0,0:0:0:0:
508,296,70205,1,0,1:0:0:0:
492,252,70330,1,0,0:0:0:0:
472,208,70455,1,0,0:0:0:0:
452,164,70580,1,0,0:0:0:0:
436,120,70705,2,0,L|376:108,1,59.9999981689454,0|0,1:0|0:0,0:0:0:0:
208,56,70955,2,0,L|266:67,1,59.9999981689454
88,24,71205,1,0,1:0:0:0:
20,220,71455,5,0,0:0:0:0:
20,220,71580,1,0,0:0:0:0:
20,220,71705,2,0,P|16:284|32:336,1,119.999996337891,0|0,1:0|0:0,0:0:0:0:
76,316,72080,1,0,0:0:0:0:
116,288,72205,2,0,P|176:272|240:284,1,119.999996337891,0|0,1:0|0:0,0:0:0:0:
276,304,72580,1,0,0:0:0:0:
276,304,72705,1,0,1:0:0:0:
420,336,72955,5,0,0:0:0:0:
480,128,73205,1,0,1:0:0:0:
404,248,73455,1,0,0:0:0:0:
464,36,73705,1,0,1:0:0:0:
344,308,73955,1,0,0:0:0:0:
400,96,74205,1,0,1:0:0:0:
272,160,74455,1,0,0:0:0:0:
272,160,74580,1,0,0:0:0:0:
272,160,74705,2,0,P|208:176|152:164,1,119.999996337891,0|0,1:0|0:0,0:0:0:0:
48,44,75205,6,0,L|8:160,1,119.999996337891,4|0,0:0|0:0,0:0:0:0:
32,200,75580,1,0,0:0:0:0:
56,244,75705,2,0,P|112:272|180:268,1,119.999996337891,0|0,1:0|0:0,0:0:0:0:
208,244,76080,1,0,0:0:0:0:
248,216,76205,2,0,L|308:224,1,59.9999981689454,0|0,1:0|0:0,0:0:0:0:
488,176,76455,2,0,L|428:168,1,59.9999981689454
320,56,76705,1,0,1:0:0:0:
400,272,76955,5,0,0:0:0:0:
236,40,77205,2,0,P|176:40|120:72,1,119.999996337891,0|0,1:0|0:0,0:0:0:0:
96,108,77580,1,0,0:0:0:0:
96,108,77705,1,0,1:0:0:0:
116,288,77955,1,0,0:0:0:0:
280,116,78205,2,0,P|340:96|412:112,1,119.999996337891,0|0,1:0|0:0,0:0:0:0:
424,144,78580,1,0,0:0:0:0:
424,144,78705,1,0,1:0:0:0:
348,296,78955,6,0,L|380:240,1,59.9999981689454
348,296,79205,2,0,P|280:316|232:304,1,119.999996337891,0|0,1:0|0:0,0:0:0:0:
192,284,79580,1,0,0:0:0:0:
160,252,79705,2,0,L|136:128,1,119.999996337891,0|0,1:0|0:0,0:0:0:0:
152,88,80080,1,0,0:0:0:0:
176,48,80205,1,0,1:0:0:0:
412,32,80455,5,0,0:0:0:0:
352,212,80705,1,0,1:0:0:0:
448,104,80955,1,0,0:0:0:0:
292,332,81205,2,0,P|232:340|172:312,1,119.999996337891,0|0,1:0|0:0,0:0:0:0:
148,280,81580,1,0,0:0:0:0:
148,280,81705,1,0,1:0:0:0:
80,88,81955,1,0,0:0:0:0:
252,232,82205,5,2,1:2:0:0:
300,244,82330,1,0,0:0:0:0:
348,240,82455,1,2,0:0:0:0:
392,224,82580,1,0,0:0:0:0:
428,192,82705,2,0,L|488:316,1,119.999996337891,2|0,1:2|0:0,0:0:0:0:
368,64,83205,6,0,P|312:48|244:68,1,119.999996337891,4|0,0:0|0:0,0:0:0:0:
216,92,83580,1,0,0:0:0:0:
216,92,83705,1,0,1:0:0:0:
72,256,83955,2,0,L|112:208,1,59.9999981689454
200,296,84205,2,0,L|161:342,1,59.9999981689454,0|0,1:0|0:0,0:0:0:0:
320,332,84455,2,0,L|360:284,1,59.9999981689454
460,348,84705,1,0,1:0:0:0:
464,52,84955,5,0,0:0:0:0:
464,52,85080,1,0,0:0:0:0:
464,52,85205,2,0,L|460:184,1,119.999996337891,0|0,1:0|0:0,0:0:0:0:
428,208,85580,1,0,0:0:0:0:
388,232,85705,2,0,P|324:236|272:204,1,119.999996337891,0|0,1:0|0:0,0:0:0:0:
144,56,86205,1,0,1:0:0:0:
108,88,86330,1,0,0:0:0:0:
92,132,86455,1,0,0:0:0:0:
88,180,86580,1,0,0:0:0:0:
104,224,86705,2,0,L|152:268,1,59.9999981689454,0|0,1:0|0:0,0:0:0:0:
300,232,86955,2,0,L|255:192,1,59.9999981689454
456,184,87205,1,0,1:0:0:0:
456,184,87455,6,0,L|464:124,1,59.9999981689454,0|0,0:0|0:0,0:0:0:0:
456,184,87705,2,0,P|404:224|352:220,1,119.999996337891,0|0,1:0|0:0,0:0:0:0:
316,188,88080,1,0,0:0:0:0:
284,152,88205,2,0,L|228:208,1,59.9999981689454,0|0,1:0|0:0,0:0:0:0:
100,300,88455,2,0,L|142:257,1,59.9999981689454
140,140,88705,1,0,1:0:0:0:
328,44,88955,5,0,0:0:0:0:
328,44,89080,1,0,0:0:0:0:
328,44,89205,1,0,1:0:0:0:
428,296,89455,1,0,0:0:0:0:
460,156,89705,1,0,1:0:0:0:
336,356,89955,1,0,0:0:0:0:
440,44,90205,2,0,L|496:16,2,59.9999981689454,0|0|0,1:0|0:0|0:0,0:0:0:0:
300,80,90705,1,0,1:0:0:0:
300,80,90955,1,0,0:0:0:0:
64,128,91205,6,0,P|52:192|76:252,1,119.999996337891,4|0,0:0|0:0,0:0:0:0:
116,260,91580,1,0,0:0:0:0:
116,260,91705,1,0,1:0:0:0:
256,288,91955,2,0,L|304:344,1,59.9999981689454
308,208,92205,2,0,L|268:162,1,59.9999981689454,0|0,1:0|0:0,0:0:0:0:
288,32,92455,2,0,L|327:77,1,59.9999981689454
424,200,92705,1,0,1:0:0:0:
424,200,92955,5,0,0:0:0:0:
176,340,93205,1,0,1:0:0:0:
320,332,93455,1,0,0:0:0:0:
68,244,93705,1,0,1:0:0:0:
212,264,93955,1,0,0:0:0:0:
72,64,94205,2,0,L|140:36,1,59.9999981689454,0|0,1:0|0:0,0:0:0:0:
260,72,94455,2,0,L|315:94,1,59.9999981689454
472,76,94705,1,0,1:0:0:0:
380,212,94955,5,0,0:0:0:0:
380,212,95080,1,0,0:0:0:0:
380,212,95205,2,0,L|348:264,1,59.9999981689454,0|0,1:0|0:0,0:0:0:0:
212,336,95455,2,0,L|243:284,2,59.9999981689454,0|0|0,0:0|0:0|1:0,0:0:0:0:
40,144,95955,5,0,0:0:0:0:
40,144,96080,1,0,0:0:0:0:
40,144,96205,2,0,L|16:72,1,59.9999981689454,0|0,1:0|0:0,0:0:0:0:
144,192,96455,2,0,L|162:248,1,59.9999981689454
204,84,96705,1,0,1:0:0:0:
452,80,96955,6,0,L|452:20,1,59.9999981689454
452,80,97205,2,0,P|384:76|332:100,1,119.999996337891,0|0,1:0|0:0,0:0:0:0:
324,144,97580,1,0,0:0:0:0:
316,192,97705,2,0,L|348:264,1,59.9999981689454,2|0,1:2|0:0,0:0:0:0:
264,356,97955,2,0,L|239:301,1,59.9999981689454,2|0,0:0|0:0,0:0:0:0:
140,104,98205,2,0,L|115:158,1,59.9999981689454,2|0,1:2|0:0,0:0:0:0:
0,296,98455,2,0,L|24:241,1,59.9999981689454,2|0,0:0|0:0,0:0:0:0:
96,40,98705,2,0,P|160:28|208:64,1,119.999996337891,0|0,1:0|0:0,0:0:0:0:
260,272,99205,5,10,0:0:0:0:
308,272,99330,1,10,0:0:0:0:
348,248,99455,2,0,L|400:312,1,59.9999981689454,10|10,0:0|0:0,0:0:0:0:
380,212,99705,1,10,0:0:0:0:
368,56,99955,5,10,0:0:0:0:
320,60,100080,1,10,0:0:0:0:
276,80,100205,2,0,L|328:144,1,59.9999981689454,10|10,0:0|0:0,0:0:0:0:
244,116,100455,1,10,0:0:0:0:
56,332,100705,6,0,L|120:268,1,59.9999981689454,0|0,0:0|0:0,0:0:0:0:
280,232,100955,2,0,L|237:274,1,59.9999981689454,0|0,0:0|0:0,0:0:0:0:
456,188,101205,5,0,1:0:0:0:
296,336,101580,1,0,1:0:0:0:
348,128,101955,1,0,1:0:0:0:
380,268,102205,1,0,1:0:0:0:
260,188,102455,5,0,3:0:0:0:
260,188,102580,1,0,3:0:0:0:
260,188,102705,2,0,L|216:236,1,59.9999981689454,0|0,3:0|3:0,0:0:0:0:
68,268,102955,2,0,L|108:223,1,59.9999981689454,0|0,3:0|3:0,0:0:0:0:
148,100,103205,6,0,P|188:64|240:52,1,100,2|0,0:0|0:0,0:0:0:0:
268,68,103580,1,0,0:0:0:0:
304,88,103705,2,0,L|408:136,1,100,8|0,0:0|0:0,0:0:0:0:
496,192,104205,2,0,P|484:248|448:276,1,100
336,240,104705,2,0,P|276:232|232:248,1,100,8|0,0:0|0:0,0:0:0:0:
84,328,105205,6,0,L|8:240,1,100,0|0,0:0|0:0,0:0:0:0:
12,212,105580,1,0,0:0:0:0:
8,172,105705,2,0,P|36:128|84:108,1,100,8|0,0:0|0:0,0:0:0:0:
196,124,106205,1,0,0:0:0:0:
196,124,106455,1,0,0:0:0:0:
348,116,106705,2,0,P|384:88|408:24,1,100,8|0,0:0|0:0,0:0:0:0:
272,192,107205,6,0,L|304:288,1,100
416,332,107705,1,8,0:0:0:0:
216,256,107955,1,0,0:0:0:0:
52,312,108205,2,0,P|36:260|48:208,1,100
232,80,108705,1,8,0:0:0:0:
156,172,108955,1,0,0:0:0:0:
332,96,109205,6,0,P|384:88|448:104,2,100,0|0|8,0:0|0:0|0:0,0:0:0:0:
232,164,109955,1,0,0:0:0:0:
140,244,110205,2,0,P|90:252|41:243,1,100,0|0,0:0|0:0,0:0:0:0:
232,164,110705,2,0,P|264:216|264:256,1,100,8|0,0:0|0:0,0:0:0:0:
208,360,111205,6,0,P|264:372|372:288,1,200,4|8,0:0|0:0,0:0:0:0:
420,180,111955,1,0,0:0:0:0:
460,68,112205,2,0,P|412:44|356:48,1,100
256,96,112705,6,0,P|208:120|152:112,1,100,8|0,0:0|0:0,0:0:0:0:
132,92,113080,1,0,0:0:0:0:
100,68,113205,2,0,L|40:172,1,100
52,196,113580,1,0,0:0:0:0:
52,236,113705,2,0,P|104:252|152:240,1,100,8|0,0:0|0:0,0:0:0:0:
180,220,114080,1,0,0:0:0:0:
212,196,114205,2,0,L|292:284,1,100
308,296,114580,1,0,0:0:0:0:
340,316,114705,2,0,P|396:312|440:280,1,100,8|0,0:0|0:0,0:0:0:0:
356,196,115205,6,0,L|356:72,2,100,0|0|8,0:0|0:0|0:0,0:0:0:0:
256,44,115955,1,0,0:0:0:0:
256,44,116080,1,0,0:0:0:0:
256,44,116205,2,0,P|180:36|76:100,1,200,0|8,0:0|0:0,0:0:0:0:
124,208,116955,5,0,0:0:0:0:
124,208,117080,1,0,0:0:0:0:
124,208,117205,2,0,L|168:308,2,100,0|0|8,0:0|0:0|0:0,0:0:0:0:
236,168,117955,2,0,L|236:104,1,50
236,168,118205,2,0,P|288:156|344:168,1,100
364,192,118580,1,0,0:0:0:0:
392,220,118705,2,0,P|432:156|436:84,1,150,8|0,0:0|0:0,0:0:0:0:
236,72,119705,6,0,L|236:36,5,25,2|0|0|0|0|0,0:0|0:0|0:0|0:0|0:0|0:0,0:0:0:0:
256,192,120080,12,2,123205,0:0:0:0:
