osu file format v12

[General]
AudioFilename: Futuristic Player (TV Size).mp3
AudioLeadIn: 1500
PreviewTime: 58704
Countdown: 0
SampleSet: Soft
StackLeniency: 0.7
Mode: 0
LetterboxInBreaks: 0

[Editor]
DistanceSpacing: 1
BeatDivisor: 4
GridSize: 4

[Metadata]
Title:Futuristic Player (TV Size)
TitleUnicode:Futuristic Player (TV Size)
Artist:Hashimoto Miyuki
ArtistUnicode:橋本みゆき
Creator:popner
Version:Normal
Source:Saki: Achiga-hen - episode of side-A
Tags:ending No_Gu ReySHeL
BeatmapID:220819
BeatmapSetID:78777

[Difficulty]
HPDrainRate:4
CircleSize:3
OverallDifficulty:4
ApproachRate:5
SliderMultiplier:1.2
SliderTickRate:1

[Events]
//Background and Video events
0,0,"BG.jpg",0,0
Video,613,"Futuristic Player.avi"
//Break Periods
//Storyboard Layer 0 (Background)
//Storyboard Layer 1 (Fail)
//Storyboard Layer 2 (Pass)
//Storyboard Layer 3 (Foreground)
//Storyboard Sound Samples
//Background Colour Transformations
3,100,163,162,255

[TimingPoints]
637,368.098159509202,4,2,1,50,1,0
9471,-100,4,2,1,55,0,0
12416,-100,4,3,1,50,0,0
22722,-100,4,2,1,55,0,0
24195,-100,4,2,1,50,0,0
33029,-100,4,3,1,50,0,0
35974,-100,4,2,1,60,0,0
37814,-100,4,2,2,60,0,0
37998,-100,4,2,1,60,0,0
44808,-100,4,2,1,50,0,0
45176,-100,4,2,2,50,0,0
45360,-100,4,2,1,50,0,0
46649,-100,4,2,2,50,0,0
46833,-100,4,2,1,50,0,0
50698,-100,4,2,1,50,0,0
58980,-100,4,2,1,45,0,0
59164,-100,4,2,1,40,0,0
59532,-100,4,2,1,60,0,1
64317,-100,4,2,2,60,0,1
64502,-100,4,2,1,60,0,1
67262,-100,4,2,2,60,0,1
67446,-100,4,2,1,60,0,1
70207,-100,4,2,2,60,0,1
70391,-100,4,2,1,60,0,1
71219,-100,4,2,1,60,0,0
71311,-100,4,2,1,60,0,1
76097,-100,4,2,2,60,0,1
76281,-100,4,2,1,60,0,1
82354,-100,4,2,1,40,0,1
82722,-100,4,2,1,55,0,1
83090,-100,4,2,1,70,0,1
85943,-100,4,2,1,60,0,0
86035,-100,4,2,1,60,0,1
86127,-100,4,2,1,60,0,0

[Colours]
Combo1 : 17,148,255
Combo2 : 244,86,0
Combo3 : 116,0,244
Combo4 : 255,104,108

[HitObjects]
128,116,637,2,0,P|132:176|116:236,1,120,4|0,3:2|3:0,0:0:0:0:
80,280,1189,1,2,0:0:0:0:
236,368,1741,2,0,L|320:364,1,60,0|2,3:0|0:0,0:0:0:0:
316,308,2109,2,0,P|364:276|428:280,1,120,0|0,3:0|3:0,0:0:0:0:
476,304,2661,1,2,0:0:0:0:
496,124,3213,6,0,L|432:116,1,60,0|2,3:0|0:0,0:0:0:0:
392,76,3581,2,0,P|344:112|280:120,1,120,0|0,3:0|3:0,0:0:0:0:
232,96,4133,1,2,0:0:0:0:
52,96,4686,2,0,L|56:156,1,60,0|2,3:0|0:0,0:0:0:0:
28,208,5054,2,0,P|24:272|44:328,1,120,0|0,3:0|3:0,0:0:0:0:
80,372,5606,1,2,0:0:0:0:
256,340,6158,6,0,L|256:276,1,60,0|2,3:0|0:0,0:0:0:0:
256,220,6526,2,0,P|196:224|136:208,1,120,0|8,3:0|3:2,0:0:0:0:
112,156,7078,1,2,0:0:0:0:
128,100,7262,2,0,P|188:96|245:110,1,120,0|8,3:0|3:2,0:0:0:0:
360,140,7998,2,0,P|360:200|376:264,1,120,0|8,3:0|3:2,0:0:0:0:
432,264,8551,1,2,0:0:0:0:
488,240,8735,2,0,P|488:180|472:116,1,120,0|8,3:0|3:2,0:0:0:0:
256,192,9471,12,0,12416,0:0:0:0:
224,44,13152,5,0,3:0:0:0:
276,152,13520,1,0,3:0:0:0:
156,144,13888,2,0,L|140:264,1,120,8|0,3:0|0:0,0:0:0:0:
240,328,14624,2,0,L|360:320,1,120
404,208,15360,6,0,P|372:100|472:48,2,240
216,56,17569,1,0,0:0:0:0:
96,76,17937,1,0,0:0:0:0:
52,188,18305,6,0,L|44:308,2,120
96,76,19410,1,0,0:0:0:0:
184,156,19778,2,0,P|244:172|304:164,1,120,8|0,0:0|0:0,0:0:0:0:
384,80,20514,2,0,P|432:112|464:168,1,120
388,260,21250,6,0,B|332:272|304:340|304:340|184:312,1,240
72,280,22354,1,0,0:0:0:0:
124,172,22722,2,0,L|132:112,2,60,2|0|0,3:2|0:0|3:0,0:0:0:0:
180,196,23275,2,0,P|272:212|364:196,1,180,2|0,0:0|3:0,0:0:0:0:
396,84,24195,6,0,P|340:64|280:64,1,120,0|8,3:0|3:2,0:0:0:0:
220,76,24747,2,0,P|160:88|100:84,1,120,2|2,0:0|0:0,0:0:0:0:
44,64,25299,1,8,3:2:0:0:
44,184,25667,2,0,L|28:244,2,60,0|2|8,3:0|0:0|3:2,0:0:0:0:
140,260,26403,2,0,L|132:320,2,60,0|2|8,3:0|0:0|3:2,0:0:0:0:
260,296,27140,6,0,P|316:288|376:304,1,120,0|8,3:0|3:2,0:0:0:0:
428,276,27692,2,0,P|420:216|436:160,1,120,2|2,0:0|0:0,0:0:0:0:
464,108,28244,1,8,3:2:0:0:
360,48,28612,2,0,P|296:36|236:44,1,120,0|8,3:0|3:2,0:0:0:0:
128,76,29348,2,0,P|124:136|92:188,1,120,0|8,3:0|3:2,0:0:0:0:
48,296,30084,6,0,P|100:312|168:304,1,120,0|8,3:0|3:2,0:0:0:0:
220,284,30636,1,2,0:0:0:0:
332,324,31005,2,0,L|328:384,2,60,2|8|2,0:0|3:2|0:0,0:0:0:0:
376,284,31557,2,0,P|432:272|496:284,1,120,0|8,3:0|3:2,0:0:0:0:
416,192,32293,2,0,P|416:128|436:76,1,120,0|8,3:0|3:2,0:0:0:0:
316,92,33029,6,0,B|232:132|144:96|144:96|84:124,1,240
312,212,34502,2,0,B|232:236|140:216|140:216|112:276,1,240
172,380,35606,1,0,0:0:0:0:
288,344,35974,5,0,3:0:0:0:
404,380,36342,2,0,L|412:320,1,60,8|2,3:2|0:0,0:0:0:0:
504,244,36894,2,0,L|512:304,2,60,2|8|0,0:0|3:2|0:0,0:0:0:0:
444,240,37446,2,0,P|400:232|352:240,2,90,0|0|0,3:0|3:0|3:0,0:0:0:0:
476,188,38183,2,0,P|480:128|460:72,1,120,0|8,3:0|3:2,0:0:0:0:
344,48,38919,6,0,L|216:64,1,120,0|8,3:0|3:2,0:0:0:0:
180,20,39471,2,0,L|88:100,1,120,2|2,0:0|0:0,0:0:0:0:
68,156,40023,1,8,3:2:0:0:
96,208,40207,2,0,P|168:248|156:336,1,180,2|8,0:0|3:2,0:0:0:0:
276,352,41127,2,0,L|400:344,1,120,0|8,3:0|3:2,0:0:0:0:
476,256,41863,6,0,P|484:196|472:136,1,120,0|8,3:0|3:2,0:0:0:0:
440,88,42416,2,0,P|384:96|320:84,1,120,2|2,0:0|0:0,0:0:0:0:
268,56,42968,2,0,L|224:100,2,60,8|2|0,3:2|0:0|3:0,0:0:0:0:
280,176,43704,1,8,3:2:0:0:
160,184,44072,1,0,3:0:0:0:
148,64,44440,1,8,3:2:0:0:
48,128,44808,6,0,P|56:248|152:308,1,240,0|0,3:0|3:0,0:0:0:0:
256,256,45913,1,8,3:2:0:0:
362,307,46281,2,0,P|456:248|464:128,1,240,0|0,3:0|3:3,0:0:0:0:
380,44,47385,1,8,3:2:0:0:
264,72,47753,6,0,P|204:88|144:80,1,120,0|8,3:0|3:2,0:0:0:0:
92,56,48305,1,2,0:0:0:0:
60,172,48673,2,0,L|0:180,2,60,2|8|2,0:0|3:2|0:0,0:0:0:0:
116,188,49225,2,0,P|176:204|240:196,1,120,0|8,3:0|3:2,0:0:0:0:
292,180,49778,1,2,0:0:0:0:
348,288,50146,2,0,L|408:296,2,60,2|8|2,0:0|3:2|0:0,0:0:0:0:
292,304,50698,6,0,P|232:320|168:312,1,120,0|8,3:0|3:2,0:0:0:0:
116,296,51250,2,0,P|124:236|112:176,1,120,2|2,0:0|0:0,0:0:0:0:
96,120,51802,1,8,3:2:0:0:
140,80,51986,2,0,P|200:88|256:72,1,120,2|2,0:0|0:0,0:0:0:0:
308,44,52538,1,8,3:2:0:0:
400,120,52906,5,0,3:0:0:0:
452,148,53090,2,0,L|512:144,2,60,2|8|2,0:0|3:2|0:0,0:0:0:0:
440,208,53643,2,0,L|500:224,2,60,0|2|8,3:0|0:0|3:2,0:0:0:0:
408,260,54195,2,0,P|348:272|284:264,1,120,2|2,0:0|0:0,0:0:0:0:
240,232,54747,2,0,L|216:288,1,60,8|2,3:2|0:0,0:0:0:0:
156,300,55115,6,0,L|96:288,1,60,8|2,3:2|0:0,0:0:0:0:
120,232,55483,2,0,L|64:200,1,60,8|2,3:2|0:0,0:0:0:0:
116,168,55851,2,0,L|92:112,1,60,8|2,3:2|0:0,0:0:0:0:
152,120,56219,2,0,L|148:60,1,60,8|2,3:2|0:0,0:0:0:0:
256,192,56587,12,0,58060,0:0:0:0:
428,104,58796,6,0,L|436:164,1,60,2|2,0:0|0:0,0:0:0:0:
396,208,59164,2,0,L|392:268,1,60,10|2,2:3|0:0,0:0:0:0:
420,320,59532,6,0,P|352:304|296:312,1,120,4|8,3:2|3:2,0:0:0:0:
244,328,60084,1,2,0:0:0:0:
192,356,60268,2,0,P|132:360|72:340,1,120,0|8,3:0|3:2,0:0:0:0:
20,236,61005,2,0,P|76:220|140:224,1,120,0|8,3:0|3:2,0:0:0:0:
196,236,61557,1,2,0:0:0:0:
256,244,61741,2,0,P|316:236|368:204,1,120,0|8,3:0|3:2,0:0:0:0:
384,88,62477,5,0,3:0:0:0:
276,40,62845,1,8,3:2:0:0:
208,140,63213,1,0,3:0:0:0:
100,92,63581,1,8,3:2:0:0:
32,192,63949,2,0,L|24:288,2,90,0|2|2,3:0|0:0|3:0,0:0:0:0:
84,220,64686,2,0,P|144:212|208:228,1,120,0|8,3:0|3:2,0:0:0:0:
252,336,65422,6,0,P|309:349|369:341,1,120,0|8,3:0|3:2,0:0:0:0:
428,324,65974,2,0,P|412:276|416:208,1,120,2|2,0:0|0:0,0:0:0:0:
472,184,66526,2,0,L|460:124,1,60,8|2,3:2|0:0,0:0:0:0:
420,80,66894,2,0,P|376:76|332:56,2,90,0|2|2,3:0|0:0|0:0,0:0:0:0:
412,140,67630,2,0,P|356:156|288:152,1,120,0|8,3:0|3:2,0:0:0:0:
204,76,68367,6,0,P|142:73|86:89,1,120,0|8,3:0|3:2,0:0:0:0:
20,188,69103,1,0,3:0:0:0:
132,228,69471,1,8,3:2:0:0:
72,332,69839,2,0,P|188:372|300:348,1,240,0|0,3:0|3:0,0:0:0:0:
392,272,70943,2,0,L|396:212,1,60,8|2,3:2|0:0,0:0:0:0:
420,156,71311,6,0,P|370:161|302:145,1,120,4|8,3:2|3:2,0:0:0:0:
252,112,71863,1,2,0:0:0:0:
204,72,72047,2,0,P|147:53|87:57,1,120,0|8,3:0|3:2,0:0:0:0:
20,160,72784,2,0,P|20:224|40:280,1,120,0|8,3:0|3:2,0:0:0:0:
76,324,73336,1,2,0:0:0:0:
136,312,73520,2,0,P|192:300|256:304,1,120,0|8,3:0|3:2,0:0:0:0:
368,344,74256,5,0,3:0:0:0:
456,260,74624,1,8,3:2:0:0:
344,220,74992,1,0,3:0:0:0:
254,303,75360,1,8,3:2:0:0:
144,256,75728,2,0,L|52:272,2,90,0|2|2,3:0|0:0|0:0,0:0:0:0:
196,228,76465,2,0,P|253:241|313:233,1,120,0|8,3:0|3:2,0:0:0:0:
348,116,77201,6,0,P|290:102|230:110,1,120,0|8,3:0|3:2,0:0:0:0:
112,136,77937,1,0,3:0:0:0:
12,68,78305,2,0,L|0:132,1,60,8|2,3:2|0:0,0:0:0:0:
20,184,78673,2,0,L|32:312,1,120,0|8,3:0|3:2,0:0:0:0:
144,344,79409,2,0,P|205:346|261:330,1,120,0|8,3:0|3:2,0:0:0:0:
340,240,80146,6,0,L|328:120,1,120,0|8,3:0|3:2,0:0:0:0:
224,60,80882,2,0,L|128:68,2,90,0|2|2,3:0|0:0|0:0,0:0:0:0:
276,32,81618,2,0,P|332:28|400:44,1,120,0|8,3:0|3:2,0:0:0:0:
448,148,82354,2,0,P|392:152|324:136,2,120,8|8|4,3:2|0:0|3:2,0:0:0:0:
256,192,83275,12,4,86035,3:2:0:0:
256,192,86956,6,0,L|256:312,1,120,0|2,3:0|3:0,0:0:0:0:
